This file was generated by Ched 2.7.0.0.
#TITLE ""
#ARTIST ""
#DESIGNER ""
#DIFFICULTY 0
#PLAYLEVEL
#SONGID ""
#WAVE ""
#WAVEOFFSET 0
#JACKET ""
#REQUEST "ticks_per_beat 480"
#00002: 4
#BPM01: 125
#00008: 01
#TIL00: ""
#VOLUME: ""
#HISPEED 00
#MEASUREHS 00
#0241a:14
#02414:00140000
#02418:0014
#02412:00000014
#0251a:14
#02514:00140000
#02512:00000014
#02518:0014
#0261a:14140000
#02612:00001414
#06114:00140000
#06118:2614
#06112:00000014
#0611f:21
#06712:00140000
#06718:2614
#06714:00000014
#0691a:14
#06914:00140000
#06918:0014
#06912:00000014
#07112:00140000
#07118:2614
#07114:00000014
#0721a:14
#07214:00140000
#07218:0014
#07212:00000014
#0681a:14
#06812:00140000
#06818:0014
#06814:00000014
#0701a:14
#07018:0014
#07014:00140000
#07012:00000014
#07512:00140014
#0751a:0014
#07518:26
#0001a:14
#00012:0014
#0011a:14
#00112:0014
#00218:14
#00214:0014
#00314:0014
#00318:14
#00414:00140000
#0041a:2414
#00410:41
#00512:1414
#00518:00140000
#0121a:1414
#01214:00140014
#01318:1414
#01312:00140014
#01512:1414
#0151a:00140000
#0161a:14
#01614:00140000
#01610:41
#01712:14
#01718:00140000
#01818:14
#01812:00140000
#01914:14
#0191a:00140000
#03112:24140000
#03118:00001414
#03110:41
#0331a:14140000
#03314:00001414
#03718:00140014
#03714:0014
#03712:24
#0391a:14
#03914:00140014
#03918:0014
#04112:14140000
#04118:00001414
#04214:14140000
#0421a:00001414
#04512:1414
#0451a:00140014
#04914:00140014
#0491a:2414
#05018:1414
#05012:00140014
#05412:14140014
#05418:0014
#02718:16
#02716:00360000
#02816:16360000
#05612:16360000
#05714:16360000
#05812:16363600
#0621a:14
#06214:00140000
#06218:0014
#06212:00000014
#06210:41
#0631a:14140000
#06312:00001414
#06418:14140000
#06414:00001414
#0651a:14
#06518:00340000
#06612:14
#06614:00340000
#07414:0000341434000000
#07412:14
#07318:0000341434000000
#0731a:14
#07310:41
#0761a:24000014
#07616:00240000
#07612:0024
#08012:2614
#08018:00140000
#0801a:00000014
#08218:00140000
#08212:14
#0821a:0000000000240024
#08214:00002424
#0811a:00000014
#08112:2614
#08118:00140000
#07718:00000014
#0771a:00140000
#07712:0014
#07714:14
#07814:14
#0781a:00140000
#07812:0014
#07818:00000014
#0531a:14140014
#05314:0014
#0531f:11
#0551a:24140014
#05514:0014
#00614:00140000
#00618:0014
#0061a:14
#00712:14
#00714:0014
#00718:00140000
#02918:26
#05915:26
#05212:24343400
#07918:0026
#07912:26
#01418:0000343400000000
#04314:0000343400000000
#04418:00000034000034000000000000000000
#04712:00000034
#0511a:00343400
#05110:41
#02958:16
#05955:16
#0455a:00000014
#02758:66
#02856:66
#05652:66
#05754:66
#05852:66
#06652:64
#0655a:64
#06758:16
#07158:16
#06158:16
#0735a:54
#07358:0000002400000000
#07452:54
#07454:0000002400000000
#07558:16
#08152:16
#08052:16
#07958:0016
#07952:16
#0083a0:14342400
#009320:14342400
#0103a0:14
#010380:00342400
#011320:14
#011340:00342400
#0143a0:14
#014380:0000343434002400
#0163a0:00001424
#017320:00001424
#018380:00001424
#019340:00001424
#020380:16000036
#020360:00363600
#021380:36000026
#021360:00363600
#022320:16000036
#022340:00363600
#023320:36000026
#023340:00363600
#027380:16
#027360:00363636
#028360:36360000
#028380:00003636
#029380:26
#032320:1424
#0343a0:1424
#035320:14
#035330:00340000
#035340:0024
#0363a0:14
#036390:00340000
#036380:0024
#038320:14
#038330:00340000
#038340:0024
#0403a0:14
#040390:00340000
#040380:0024
#043320:14
#043340:0000343434342400
#0443a0:14
#044380:00000034000034003400340024000000
#046320:14
#047340:34
#047330:0034
#047320:00000034
#048320:24
#0513a0:14343400
#051380:00000024
#052320:14343400
#052340:00000024
#056320:16360000
#056340:00003636
#057340:36360000
#057320:00003636
#058320:36363600
#058350:00000036
#059350:26
#0653a0:14
#065380:00343424
#066320:14
#066340:00343424
#0733a0:14000024
#073380:0000345434000000
#074320:14000024
#074340:0000345434000000
#0823a0:0000000000000014
#0833a0:00000024
#084360:14
#086340:000000000000002800000000000000000000000000000000
