This file was generated by Ched 2.7.0.0.
#TITLE ""
#ARTIST ""
#DESIGNER ""
#DIFFICULTY 0
#PLAYLEVEL
#SONGID ""
#WAVE ""
#WAVEOFFSET 0
#JACKET ""
#REQUEST "ticks_per_beat 480"
#00002: 4
#BPM01: 185
#00008: 01
#TIL00: ""
#HISPEED 00
#MEASUREHS 00
#0081a:14
#00914:14
#01018:14
#01112:14
#0121a:14
#01314:14
#0181a:14
#01810:41
#0001a:14
#00112:14
#0021a:14
#00312:14
#00418:14
#00514:14
#00618:14
#00714:14
#01914:14
#02018:14
#02112:14
#0221a:14
#02314:14
#02418:14
#02512:14
#0261a:14
#0271a:14
#02814:14
#02914:14
#03018:14
#03118:14
#03212:14
#03312:14
#0461a:14
#04712:14
#06018:1616
#06112:16
#06118:0016
#06512:0016
#0661a:14
#06718:14
#06710:41
#06812:14
#06914:14
#09218:1616
#09814:0014
#0981a:14
#0991a:14
#09914:0014
#10018:14
#10012:0014
#10118:14
#10112:0014
#1021a:14
#10214:0014
#10210:41
#10318:14
#10312:0014
#1041a:14
#10414:0014
#10518:14
#10512:0014
#1061a:1414
#10714:1414
#10818:1414
#10912:1414
#05912:0016
#09112:0016
#0741a:0014
#0741f:11
#07512:14
#07618:14
#07614:0014
#07718:14
#08418:0016
#08412:26
#0841f:21
#08512:1616
#08510:0041
#08618:16
#08612:0016
#08718:1616
#08318:0016
#05218:0016
#05212:26
#05210:41
#05312:16
#05318:0016
#05412:1616
#05518:1616
#05118:0016
#11018:2600003600003600
#08212:26
#11118:0036000000000000
#11215:0000000000000036
#11315:0000000000000036
#11415:0000000000000036
#11515:0036003600360000
#0491a:0034000000000000
#0481a:0000003400003400
#03410:41
#0143a0:14
#0153a0:24
#016320:14
#017320:24
#0343a0:14
#0353a0:24
#036340:14
#037340:24
#038380:14
#039380:24
#040320:14
#041320:24
#0423a0:1434
#0433a0:24
#044320:1434
#045320:24
#0483a0:1400003400003400
#0493a0:0034000000000000
#049380:0024
#050320:1600002600000000
#056320:1600000000003636
#057320:0036003600260000
#058380:1600002600000000
#062320:1600003600003600
#063320:0036000026000000
#064380:16
#065380:26
#0703a0:1434
#0713a0:3424
#072320:14343434
#073320:3434
#074320:24
#078320:14
#079340:0024
#0803a0:14
#081380:0024
#082320:1600002600000000
#088320:1600000000003636
#089320:0036003600260000
#090380:1600002600000000
#093320:1626
#094380:1636
#095380:3636
#096380:26
#097320:16362600
#110380:1600003600003600
#111380:0036000000000000
#111350:0000000036360036
#112350:0000000000000036
#113350:0000000000000036
#114350:0000000000000036
#115350:0036003600360000
#115360:0000000000000024
