This file was generated by Ched 2.7.0.0.
#TITLE ""
#ARTIST ""
#DESIGNER ""
#DIFFICULTY 0
#PLAYLEVEL
#SONGID ""
#WAVE ""
#WAVEOFFSET 0
#JACKET ""
#REQUEST "ticks_per_beat 480"
#00002: 4
#BPM01: 185
#00008: 01
#TIL00: ""
#HISPEED 00
#MEASUREHS 00
#0001b:13000013
#00012:0000131300000000
#00016:1300000000130000
#00112:1313000000000000
#00117:13
#0021b:0000130000001313
#00217:0013
#00216:00130000
#00212:0013
#00317:0013000000000000
#00316:0000001313000000
#00319:00000013
#00312:0013000000000000
#00314:00000013
#00817:0000001300001300
#00812:0000000000131300
#0081b:13
#00816:13
#0091b:0013000000000000
#01418:12000012
#01416:00120000
#0141c:0012
#01412:0000000000001212
#01516:0012120000001200
#01512:0012
#0151c:0000120000001212
#01518:0012
#01616:0012000000000012
#01618:00121200
#01612:0000001212000000
#01614:00000012
#0161a:00000012
#0161c:0000000000000012
#01712:0012000000000000
#01716:00000000120000120000000000000000
#01718:0012001212121212
#0171c:00120000
#01918:0013000000000000
#0191b:0000001300000013
#01917:0000000000130000
#01912:0013000000130000
#01916:0000001300000000
#02012:0000001300130013
#02018:00130000000013000000130000001300
#02015:00131313
#0201b:0033130013001300
#02118:0013000000000000
#02116:0000001300000013
#02112:0013000000130000
#0211b:0000001300000000
#02117:0000000000130000
#02217:0013000000130000
#02216:00130000
#02212:0000001300000013
#02316:1300001300000000
#02317:0013000000000000
#02312:0013000000130000
#0231b:0000001300000013
#02416:0013130000000000
#0241b:00130000
#02417:1300000000001313
#02412:0000000000000013
#02718:0013000000000000
#02716:0000001300000000
#02712:0013000000130000
#0271b:1300001300000000
#02717:0000000000130000
#0291c:0012000000000000
#02917:0000001300000013
#0291b:0000000000130000
#02912:1200001300000000
#02916:0012000000130000
#03018:00130013
#03015:0000001300130000
#03012:0013
#0301b:0000000013000013
#03016:0013000000000000
#03117:1300001300000000
#0311b:0013000000000000
#03112:1300001300000000
#03118:00000013
#03115:0000000000000013
#03116:0013000000000000
#03217:0013130000000000
#03212:00130000
#0361b:0013000000000013
#03618:00130013
#03615:0000001300130000
#03612:1313
#03712:13
#03715:0013000000000000
#0371b:0000001300000000
#03718:00130000
#03716:0000001300000000
#04012:0013000000000013
#04015:00130013
#04018:0000001300130013
#0401b:1313
#0411b:1300001300000000
#04118:00130013
#04115:0013001300000000
#04112:00000000000000000013000000000000
#04415:0013000000001300
#04418:0000130000130000
#0441b:0000001300000013
#04412:1300000013000013
#04512:0013001300000000
#04519:00130000
#0451b:0000001300001300
#04712:0000001300001300
#0471b:00001313
#04717:0000001300000000
#04716:0013
#04715:0023000000000000
#04815:13
#04812:0000000000130000
#04818:13
#0481b:0000000000130000
#04915:0013
#04918:0000000000130000
#0491b:0000000000000013
#04912:0000000000000013
#05012:1300000000001313
#05017:00000000000000000000000000130013
#0501b:13
#05114:1313000000000000
#05119:00130013000000000000000000000000
#05116:0000131300000000
#0511b:00000000001300130000230000000000
#05117:0000000000000013
#05112:0000000023230013
#05217:1300001300000000
#0521b:0000130000130000
#05212:1300001300000013
#05216:00130000
#05210:41
#05316:00130000000000001300000000000000
#05312:00000013
#05317:00130013
#0531b:0013
#05416:1300000000131300
#05417:0000131300000000
#05412:00130000
#0541b:0000000000130000
#0551b:0000001300001300
#05517:1313000013000000
#05512:1313
#05516:0000001300001300
#0641b:00000013
#06419:0000000000000013
#06412:0000001400000000
#06414:0000000000000014
#06416:24
#06517:13
#0651b:0000130000230000
#06512:1423
#06516:0000140014140000
#06712:1313130000001313
#06717:00130013000000000000000000130013
#0671b:0000001313130000
#06716:00000000000000130013000000000000
#06710:41
#06816:1313130000001313
#0681b:00130013000000000000000000130013
#06817:0000001313130000
#06812:00000000000000130013000000000000
#06916:1300000013131300
#06917:0013131300000000
#06912:00000013001300000000000000000000
#0691b:00000000000000000013001300000000
#06918:0000000000000013
#06915:00000000000000000000000000000013
#07012:0000001300000000
#07017:00000000000000130000000000000000
#07016:0000000000000013
#0701b:13000000000000000000000000000013
#0711b:0000001313001300
#07117:0000000000000013
#07112:0000001313000013
#07116:00000013
#0721b:0013130000000000
#07216:00000013000000000000000000000000
#07214:0000001313000000
#07219:00000000000000130000000000000000
#07217:0000000000131300
#07212:00000000000000000000001300000000
#0731b:13000000000013000000000000130000
#07312:1300001300130013
#07318:00000000000000000000001300000000
#07315:00130013
#07812:00230013
#07818:000013001313
#07815:000000000013001300000013
#0781b:2323
#07816:23
#0941b:1300131300000000
#09412:1300000000131300
#09416:00000013000000000000000000000013
#09417:00000000000000000013000000000000
#0951b:1313000000001300
#09517:00000000001300000000000000000000
#09512:0000001313000000
#09516:00000013
#09812:1300002300001300
#0981b:2300001300002300
#09818:00131300
#09815:0013000000130013
#0991b:0013000000001300
#09918:13130000
#09912:0023000000000000
#10017:0000130000001313
#1001b:1313
#10012:13130000
#10016:0013
#10116:0013000000001300
#10112:0000001313000000
#1011b:0013000000001300
#11118:00000000000000001300000000000013
#11115:00000000000013000000000000000013
#1111b:0000000000130000
#11112:1323000000130000
#11218:0012
#1121a:00000012
#11216:0000000000000012
#11316:0012000000000000
#1131a:00120000
#11314:0012
#11318:00000012
#11312:0000000000000012
#00412:13000013
#0041b:0000131300000000
#00417:1300000000130000
#0051b:1313000000000000
#00516:13
#00612:0000130000001313
#00616:0013
#00617:00130000
#0061b:0013
#00716:0013000000000000
#00717:0000001313000000
#0071b:0013000000000000
#00719:00000013
#00714:00000013
#0101b:0000130000000013
#01017:0013
#01016:00130000
#01012:0013
#01117:0013000000000000
#01116:0013
#01119:00000013
#01112:0013000000000000
#01114:00000013
#0181b:13131313
#01818:0013001300130013
#01815:13131313
#01812:0013001300130013
#01810:41
#02516:00000000001300000000000000000000
#0251b:00000000001300000000000000000000
#0261a:13130000000000001313000000000000
#02619:0015001500000000000000000000000000150015000000000000000000000000
#02615:00001313000000000000131300000000
#02614:0000000000150015000000000000000000000000001500150000000000000000
#02618:00000000131300000000000013130000
#02617:0000000000000000001500150000000000000000000000000015001500000000
#02613:00000000000013130000000000001313
#02612:0000000000000000000000000015001500000000000000000000000000150015
#0281c:0012000000000000
#03316:13000013
#0331b:13
#03317:00130000
#03312:0013
#03417:13
#03412:00232300
#03416:0000000000000023
#03410:41
#0351b:13
#03516:0023000000000000
#03512:00002323
#03816:13
#0381b:13232300
#03817:0000000000000023
#03912:13
#03917:0023000000000000
#0391b:00002323
#04217:13
#04212:13232300
#04216:0000000000000023
#0431b:13
#04316:0023000000000000
#04312:00002323
#04612:13000023
#0461b:23000013
#04618:0000002300000000
#05712:0000000000230013
#0571b:0000000000000013
#0571a:0023000000000000
#05714:0023000000000000
#05719:0000002300000000
#05713:0000002300000000
#05718:0000000000230000
#0581b:1300000000001313
#05816:00000000000000000000000000130013
#05812:13
#05919:1313000000000000
#05914:00130013000000000000000000000000
#05917:0000131300000000
#05912:00000000001300130000230000000000
#05916:0000000000000013
#0591b:0000000023230013
#06016:1300001300000000
#0601b:1300001300000013
#06012:0000130000130000
#06017:00130000
#06117:00130000000000000000000000000000
#06116:00130000
#06118:0000001313000013
#06115:00000000000000130000130000000000
#0611b:00000013
#06112:00000013
#06212:1300000000131300
#06216:00130000
#0621b:0000131300000000
#06217:0000000000130000
#06312:0000001300001300
#06316:1313
#0631b:1313000013000000
#06317:0000001300001300
#06617:13
#07412:00130000000000130000000023000000
#0741b:0000130000130000
#07418:23000000000023000000000000130000
#0741f:11
#07415:00000023000000000023000000000023
#0751b:1300001300001300
#07512:00000013000000002300000000000013
#07518:00002300000000000013000000002300
#07515:00000000002300000000002300000000
#0761b:0013000013000013
#07618:00000000001300000000230000000000
#07612:00000000230000000000001300000000
#07615:00230000000000230000000000230000
#07718:00130000000023000000000000000000
#0771b:00000000130000000023000000000000
#07712:23000000000000130000000023000000
#07715:00000023000000000000130000000000
#07717:00000023
#07719:0000000000000023
#07714:0000000000000023
#0801b:00000000000000000013000000000000
#08012:00000000000000000013000000000000
#08218:00000013000000000000000000120012
#08215:00000013000000000000000000000000
#08212:2300000000001212
#0821b:23
#08314:1212000000000000
#0831a:00120012000000000000240000000000
#08316:0000121200000000
#0831c:00000000001200120000000000000000
#08317:0000000000000013
#08312:0000000024240013
#0841b:0000130000130000
#08417:2300001300000013
#08412:2300001300000013
#08416:00130000
#0841f:21
#08516:00130000000000001300000000000000
#08512:00000013
#0851b:00130000000000001300000000000000
#08517:00000013
#08510:0041
#08616:1300000000131300
#08617:0000131300000000
#0871b:0000001300001300
#08717:1313000013000000
#08712:0013
#08716:0000001300001300
#09015:00000013000000000000000000000000
#09018:00000013000000000000000000000000
#0901c:0000000000001212
#09016:00000000000000000000000000120012
#09012:23
#0901b:23
#0911a:1212000024240000
#09114:00120012000000000000000000000000
#09118:0000121200000000
#09112:00000000001200120000240000000000
#09116:0000000000000013
#0911b:0000000000000013
#09212:0000130000230000
#09216:2300001300000013
#09217:00130000
#0921b:2300002300000023
#09317:00130000000000000000000000000000
#09312:00130000000000001300000013000000
#0931b:00001313
#09318:0000000000130000
#09315:0000000000000013
#09612:00000013
#09614:0000000000000013
#0961a:0000001400000000
#09618:0000000000000014
#09616:24
#09716:1300140014140000
#09712:0000130000230000
#0971a:14
#0971b:0023
#1021b:1300002300001300
#10212:2300001300002300
#10215:00131300
#10218:0013000000130013
#10210:41
#10312:0013000000001300
#10315:13130000
#1031b:0023000000000000
#10416:0000130000001313
#10412:1313
#1041b:13130000
#10417:0013
#10517:0013000000001300
#1051b:0000001313000000
#10512:0013000000001300
#10612:1300002300001300
#1061b:2300001300002300
#10618:00131300
#10615:0013000000130013
#1071b:0013000013001300
#10718:13130000
#10712:0023001300130000
#10717:0000001300130000
#10716:00001313
#10817:0000130000001313
#1081b:1313
#10812:13130000
#10816:0013
#10916:0013000000001300
#10912:0000001313000000
#1091b:0013000000001300
#10914:0000000000000013
#1101b:0000132300002300
#11016:0000000000132300
#11012:23
#11017:23
#11412:0012000000000000
#11418:00120000
#11416:0000001200001200
#11414:0012
#1141a:0000000000000012
#11513:0012000000000000
#11516:0000001200000000
#11519:0000000000120000
#1151c:0000000000000012
#07915:000013000000000013000000000000000000000000230000
#07918:000000001300000000001300000000000000000000230000
#0791b:2300000023230000
#07912:0000230023230000
#0811a:0000000024240000
#08112:0000000024240023
#0811b:0000000000000023
#01212:23
#01217:23
#0121b:0000002300002300
#01216:00000023
#01312:0023000000000000
#05617:24
#05614:0000002400000000
#05618:0024000000002300
#05619:00240000
#0561a:0000002400000000
#05612:00000023
#05615:0000000000000023
#0561b:0000000000000023
#08817:24
#08814:0000002400000000
#08818:0024000000000000
#08819:00240000
#0881a:0000002400000000
#08812:00000023
#08816:0000000000002424
#0881b:0000000000000023
#08912:0023000000230023
#08916:0024002400240000
#0891b:0000002300000023
#0005b:53
#00252:0053
#00357:0053000000000000
#00157:00000013
#00152:00000013
#00452:63
#00756:0063000000000000
#0065b:0063
#0055b:00000013
#00556:00000013
#0085b:53
#00856:53
#00852:00000063
#00857:00000063
#00952:00000013
#00957:00000013
#01157:0053000000000000
#01152:0053000000000000
#01052:0053
#01057:0053
#01252:53
#01256:0000001300000000
#0125b:0000001300006300
#01352:0013000000000000
#01357:0013000000000000
#0185b:63636363
#01858:0063006300630063
#01855:63636363
#01852:0063006300630063
#01956:0000005300000000
#01952:0000000000530000
#0195b:0000000000000053
#02058:00230000000023000000230000002300
#02052:0000002300230023
#02055:00535353
#0205b:00535353
#0215b:0000005300000000
#02157:0000000000530000
#02156:0000000000000053
#0235b:0000005300000053
#02352:0000000000530000
#02457:2300000000000053
#02452:0000000000000053
#02456:00530000
#02556:00000000002300000000000000000000
#0255b:00000000002300000000000000000000
#0265a:53530000000000005353000000000000
#02659:0025002500000000000000000000000000250025000000000000000000000000
#02655:00006363000000000000636300000000
#02654:0000000000250025000000000000000000000000002500250000000000000000
#02658:00000000535300000000000053530000
#02657:0000000000000000002500250000000000000000000000000025002500000000
#02653:00000000000063630000000000006363
#02652:0000000000000000000000000025002500000000000000000000000000250025
#0275b:0000005300000000
#02757:0000000000530000
#02952:0000005300000000
#02956:0000000000530000
#02957:0000000000000053
#0315b:0053000000000000
#03156:0053000000000000
#03157:0000005300000000
#03152:0000005300000000
#03155:0000000000000053
#03252:00530000
#03257:00530000
#0335b:53
#03352:0053
#03357:00230000
#03356:00000023
#03457:53
#0355b:23
#03856:63
#03952:23
#03756:0000005300000000
#0375b:0000005300000000
#04058:0000000000000053
#04155:0000005300000000
#0415b:23
#04152:00000000000000000023000000000000
#04257:53
#0435b:23
#0445b:0000000000000053
#04552:0000005300000000
#04652:53
#04655:0000001300000000
#04658:0000001300000000
#0465b:00000063
#04755:0013000000000000
#04758:0013000000000000
#04855:53
#04852:0000000000230000
#04858:63
#0485b:0000000000230000
#0505b:53
#05052:53
#05055:0000001300000000
#05058:0000001300000000
#05252:1300005300000053
#05257:13
#0525b:0000000000530000
#05356:00230000000000000000000000000000
#0535b:0053
#05357:00000053
#05457:0000001300000000
#05456:13000013
#05557:0013000000000000
#05552:0053
#05556:00000053
#05654:0000001400000000
#0565a:0000001400000000
#06056:13
#0605b:1300006300000063
#06052:0000000000630000
#0585b:63
#05852:63
#05855:0000001300000000
#05858:0000001300000000
#06157:00230000000000000000000000000000
#06252:13000013
#0625b:0000001300000000
#0635b:0013000063000000
#06357:00000063
#06456:54
#06452:0000002400000000
#07152:0000000000000013
#07157:0000000000000013
#07856:13
#0785b:13
#07958:0000000000000053
#07955:0000000000000063
#0805b:00000000000000000023000000000000
#08052:00000000000000000023000000000000
#0825b:5300004300000000
#08258:00000023000000000000000000000000
#08255:00000023000000000000000000000000
#08252:6300003300000000
#0845b:0000000000530000
#08452:1300005300000053
#08457:1300000000000053
#08656:13000013
#08657:0000001300000000
#08556:00230000000000000000000000000000
#0855b:00230000000000005300000000000000
#08557:00000053
#08757:0013000000000000
#08752:0053
#08756:00000053
#08854:0000001400000000
#0885a:0000001400000000
#0885b:0000000000000013
#08952:0013000000130000
#0895b:0000001300000000
#09055:00000023000000000000000000000000
#09058:00000023000000000000000000000000
#09052:6300003300000000
#0905b:5300004300000000
#09357:00230000000000000000000000000000
#09352:00230000000000000000000000000000
#09256:1300000000000063
#0925b:1300005300000053
#09252:0000000000530000
#09452:6300003300006300
#0945b:4300006300004300
#09456:00000023000000000000000000000023
#09457:00000000000000000023000000000000
#0955b:0063000000000000
#09557:00000000002300000000000000000000
#09552:0033000053000000
#09556:00000053
#0965a:0000002400000000
#09656:64
#10057:0000000000000013
#10056:0053
#10152:0013
#1015b:0053000000001300
#10456:0000000000000013
#10457:0053
#1055b:0013
#10552:0053000000001300
#10857:0000000000000013
#10856:0053
#10952:0013
#1095b:0053000000001300
#1075b:00000013
#10756:00000013
#10352:00000013
#1035b:00000013
#0995b:00000013
#09952:00000013
#11052:53
#1105b:0000001300006300
#11056:0000001300000000
#11152:0013000000630000
#11157:0013000000000000
#1115b:0000000000530000
#11158:00000000000000000000000000000023
#11155:00000000000000000000000000000023
#1155c:0000000000000012
#0735b:53
#0705b:53
#0003b0:13
#000370:00230000
#001360:0000001300330000
#001320:00003323
#0013b1:0000001300330000
#001371:00003323
#002321:0013
#002361:00000023
#003371:0013000000000000
#0033b1:0000002300000000
#004321:13
#004361:00230000
#005371:0000001300330000
#0053b1:00003323
#005320:0000001300330000
#005360:00003323
#0063b0:0013
#006370:00000023
#007360:0013000000000000
#007320:0000002300000000
#0083b0:13
#008370:00230000
#008361:13
#008321:00230000
#008321:00000013
#009361:23
#008370:00000013
#0093b0:23
#009360:0000001300330000
#009320:00003323
#0093b1:0000001300330000
#009371:00003323
#010321:0013
#010361:00000023
#010370:0013
#0103b0:00000023
#011370:0013000000000000
#0113b0:0000002300000000
#011321:0013000000000000
#011361:0000002300000000
#012321:13
#012361:0000002300000000
#0123b1:00000013
#013371:0023000000000000
#0183b1:13333333
#018381:0033003300330033
#0193b1:23
#018350:13333333
#018320:0033003300330033
#019350:23
#019360:0000001300000023
#019320:0000000000330000
#0193b1:0000000000000013
#020381:00530000000033000000330000003300
#0203b1:0033330033003300
#0213b1:23
#020350:00133333
#020320:0000003300330033
#021350:23
#0213b0:0000001300000023
#021370:0000000000330000
#021361:0000000000000013
#022321:0023000000000000
#0223b1:00132300
#022371:0000003300000000
#022360:00001323
#022320:0000000000330000
#0223b1:00000013
#022371:0000000000000033
#0233b1:23
#0233b1:0000001300000000
#023371:0000000000230000
#023320:0000000000130000
#023360:0000000000000023
#0233b1:0000000000000013
#024371:53
#0243b1:0023000000000000
#024361:00130000
#024321:00000023
#024321:0000000000000013
#025361:00000000005300000000000000000000
#025321:00000023
#024370:0000000000000013
#0253b0:00000000005300000000000000000000
#025370:00000023
#0263a0:13532300000000000000000000000000
#026390:0055005500000000000000000000000000000000000000000000000000000000
#026351:00001353230000000000000000000000
#026341:0000000000550055000000000000000000000000000000000000000000000000
#026380:00000000135323000000000000000000
#026370:0000000000000000005500550000000000000000000000000000000000000000
#026331:00000000000013532300000000000000
#026321:0000000000000000000000000055005500000000000000000000000000000000
#0263a0:00000000000000001353230000000000
#026390:0000000000000000000000000000000000550055000000000000000000000000
#026351:00000000000000000000135323000000
#026341:0000000000000000000000000000000000000000005500550000000000000000
#026380:00000000000000000000000013532300
#026370:0000000000000000000000000000000000000000000000000055005500000000
#026331:00000000000000000000000000001353
#026321:0000000000000000000000000000000000000000000000000000000000550055
#027331:23
#0273b1:0000001300000023
#027371:0000000000330000
#027360:0000000000000012
#028360:0032220000000000
#0283c1:00120000
#0283a1:0000003222000000
#028320:0012
#028340:0000000000322200
#0283a1:00000012
#028381:0000000000000032
#029381:22
#029321:0000001300000023
#029361:0000000000330000
#029370:0000000000000013
#0303b0:0023000000000000
#0313b0:0013000000230000
#031370:0000003300000000
#031361:0013000000230000
#031321:0000003300000000
#031351:0000000000000013
#032321:0023000000000000
#032321:00130000
#032361:00000023
#032370:00130000
#0323b0:00000023
#0333b0:1323
#033370:00530000
#033321:0013
#033361:00000053
#034321:23
#034370:13
#0353b0:53
#036370:23
#037360:0000001300000000
#037320:00000023
#0373b1:0000001300000000
#037371:00000023
#038361:13
#039321:53
#040361:23
#040381:0000000000000013
#0413b1:53
#041381:0023000000000000
#041351:0000001300002300
#041321:00000000000000000053000000000000
#042371:13
#0433b1:53
#044371:23
#0443b1:0000000000000013
#045371:0023000000000000
#045321:0000001300000000
#045361:00000023
#046321:13
#046351:0000002300000000
#0463b1:00000013
#047381:0023000000000000
#048351:13
#048321:0000000000530000
#049351:00230000
#048380:13
#0483b0:0000000000530000
#049380:00230000
#0503b0:13
#050380:0000002300000000
#050321:13
#050351:0000002300000000
#052321:0000001300000000
#052361:0000000000230000
#0523b0:0000000000130000
#052370:0000000000000023
#052321:0000000000000013
#053361:00530000000000000000000000000000
#053321:00230000
#0533b1:0013
#053371:00000033
#0543b1:23
#055321:0013
#055361:00000033
#056321:23
#058321:13
#058351:0000002300000000
#0583b0:13
#058380:0000002300000000
#0603b0:0000001300000000
#060370:0000000000230000
#060321:0000000000130000
#060361:0000000000000023
#0603b0:0000000000000013
#061370:00530000000000000000000000000000
#0613b0:00230000
#0633b0:0013
#063370:00000033
#0643b0:23
#064361:14000024
#064321:0000005400000000
#066321:13
#066331:00330000000000000000000000000000
#066341:0033000000000000
#066351:00000033000000000000000000000000
#066361:00230000
#0663b0:00130000
#0663a0:00000000003300000000000000000000
#066390:0000003300000000
#066380:00000000000000330000000000000000
#066370:0023
#066321:0013
#066331:00000000000000000033000000000000
#066341:0000000000330000
#066351:00000000000000000000003300000000
#066361:00000023
#0663b0:00000013
#0663a0:00000000000000000000000000330000
#066390:0000000000000033
#066380:00000000000000000000000000000033
#067370:23
#0703b0:13
#070370:00230000
#070320:00001323
#071360:13230000
#0733b0:13
#073380:00230000
#079380:0000000000000013
#0803b0:00000000000000000053000000000000
#081380:00230000
#079351:0000000000000013
#080321:00000000000000000053000000000000
#081351:00230000
#0823b1:1300002300000000
#082381:00000053000000000000000000000000
#082320:1300002300000000
#082350:00000053000000000000000000000000
#084320:0000001300000000
#084360:0000000000230000
#0843b1:0000000000130000
#084371:0000000000000033
#0853b1:00530000000000000000000000000000
#085371:00230000
#084320:0000000000000013
#085360:00530000000000000000000000000000
#085320:00230000
#0853b0:0013
#085370:00000033
#0863b0:23
#086320:0000132300000000
#0863b0:0000000000132300
#087320:1323000000000000
#087320:0013
#087360:00000033
#088320:23
#090320:1300002300000000
#090350:00000053000000000000000000000000
#0903b1:1300002300000000
#090381:00000053000000000000000000000000
#0923b1:0000001300000000
#092371:0000000000230000
#092320:0000000000130000
#092360:0000000000000033
#093320:00530000000000000000000000000000
#093360:00230000
#0923b1:0000000000000013
#093371:00530000000000000000000000000000
#0933b1:00230000
#094321:1300002300000000
#094361:00000053000000000000000000000000
#0943b0:0000001300002300
#094370:00000000000000000053000000000000
#094321:00000013
#094361:00000000000000000000000000000053
#095321:0023000000000000
#0953b0:0013000023000000
#095370:00000000005300000000000000000000
#095321:0013
#095361:00000033
#096321:23
#096360:14000024
#0963a0:0000005400000000
#099350:0000001323000000
#099381:0000000013230000
#099320:0000000000132300
#100360:0013
#100320:00000023
#1013b0:0013000000000000
#101370:0000002300000000
#103380:0000001323000000
#103351:0000000013230000
#1033b0:0000000000132300
#104370:0013
#1043b0:00000023
#105320:0013000000000000
#105360:0000002300000000
#1063b0:13
#106380:0023000000000000
#106320:0000001300000000
#106350:0023
#1063b0:00000013
#106380:0000000000000023
#107320:0013000000000000
#107350:00230000
#108360:0013
#108320:00000023
#1093b0:0013000000000000
#109370:0000002300000000
#110320:13
#110360:0000002300000000
#1103b0:00000013
#111370:0023000000000000
#1113b0:0000000000130000
#111380:00000000000000000000000000000053
#1123b0:00230000
#111321:0000000000130000
#111351:00000000000000000000000000000053
#112321:00230000
