This file was generated by Ched 2.7.0.0.
#TITLE ""
#ARTIST ""
#DESIGNER ""
#DIFFICULTY 0
#PLAYLEVEL
#SONGID ""
#WAVE ""
#WAVEOFFSET 0
#JACKET ""
#REQUEST "ticks_per_beat 480"
#00002: 4
#BPM01: 185
#00008: 01
#TIL00: ""
#HISPEED 00
#MEASUREHS 00
#0001b:13
#00012:00000013
#00318:00000013
#00312:0013000000000000
#00315:0000003300000000
#01915:0000001300000000
#01918:1400000000130000
#01912:0000000000000014
#02118:0013000000130000
#02115:0000001300000000
#02112:0000000000000013
#02312:0000000000000013
#02318:0000001300000000
#0231b:13
#02315:0013000000000000
#02718:0013000000000000
#02712:0000001300000000
#0271b:0000000000000013
#0291b:0000000000000013
#02912:0000001300000000
#02918:0013000000000000
#03015:00130013
#03018:0000001300000013
#03012:0013
#0301b:0000000000130000
#03118:0013000000000013
#0311b:0000001300000000
#03115:00000013
#03112:13
#0321b:00130000
#03215:00130000
#0361b:0013000000000013
#03615:00130013
#03618:0000001300130000
#03612:0013
#03712:13
#0371b:0013000000000000
#03715:0000001300000000
#03718:00130000
#04418:0013000000130000
#04415:00130013
#0441b:0000001300000013
#04412:0013
#04515:00130000
#04512:0000001300000000
#0471b:00000013
#04718:0000001300000000
#04715:0013
#04712:00000013
#04915:0013
#04918:0000000000130000
#0491b:0000000000000013
#04912:0000000000000013
#05215:00130000
#05212:0000000000000013
#05218:13
#0521b:0000001300000000
#05210:41
#05418:0000001300000000
#05412:00130000
#0541b:00000013
#05415:0000000000130000
#0651b:00130000
#06512:1400000023230000
#06515:00130000
#06518:0000000013130000
#0711b:0000001313000000
#07118:00000013
#07112:0000001313000000
#07115:0000000000000013
#07312:1300000000130000
#07318:0000001300000000
#0731b:0000000000130000
#0981b:1300000000130000
#09818:00130000
#09812:2300002300000000
#09815:00000023
#10018:00130000
#10015:0013
#10012:00000033
#11118:0013
#11112:00000000000013000000000000000013
#11115:0000000000130000
#1121b:0013
#11218:00000013
#11215:0000000000000013
#11315:0013000013000000
#11318:00130013
#11312:0000000000000013
#00215:00130000
#0021b:0013
#00218:00000033
#02412:0000000000000013
#0241b:00130000
#02515:00000000001300000000000000000000
#03312:13
#0331b:0013
#03412:1300330033000033
#03410:41
#03516:13
#03512:0033000033003300
#0481b:13
#04812:13
#05012:13000013
#0501b:13
#05115:1300000000000013
#05118:00130000
#05112:0000000023230000
#0511b:0000000023230000
#0531b:0013
#05318:00000013
#05518:0013000000000000
#05512:13
#0551b:0013
#05515:0000001300000000
#05712:0000000000260013
#0571b:0000000000000013
#05716:0026000000000000
#05714:0000002600000000
#06416:0000001400000014
#0641a:24
#09918:1300000000130000
#09912:0023000000001300
#0991b:0000001300000000
#09915:0013
#10115:00000013
#10118:0013000000000000
#1011b:0000003300000000
#11412:0013000013000000
#11418:00130000
#11415:0000001300001300
#1141b:0000000000000013
#11512:0013000000000000
#11515:0000001300000000
#11518:0000000000130000
#1151b:0000000000000013
#0011b:0000001333330000
#00412:13
#0041b:00000013
#00715:00000013
#0071b:0013000000000000
#00718:0000003300000000
#00618:00130000
#00612:0013
#00615:00000033
#00512:0000001333330000
#00818:13
#00815:00000013
#01118:00000013
#01115:0013000000000000
#01112:0000003300000000
#01015:00130000
#01018:0013
#0101b:00000033
#00918:0000001333330000
#0141b:13
#01415:00130013
#01418:0000000013000013
#01518:0013000013000013
#01515:00130000
#01512:00000013
#01618:0013000000001300
#01612:00130000
#01615:0000003300000000
#01715:0013333333330000
#01712:00000000000000130000000000000000
#01818:14141414
#0181a:0014001400140014
#01810:41
#02014:00140000000014000000140000001400
#02012:0034140014001400
#0221b:00130000
#02215:0000001300000013
#02218:00001313
#02212:0000000000130000
#02619:1313131300000000
#02618:00150015001500150000000000000000
#02614:0000000013131313
#02613:00000000000000000015001500150015
#02812:0013
#02818:0033000000000000
#02815:0000000000333333
#0381b:1300330033000033
#03917:13
#0391b:0033000033003300
#04012:0013000000000013
#04018:00130013
#04015:0000001300130000
#0401b:0013
#04118:00130000
#0411b:0000001300000000
#04212:1300330033000033
#04316:13
#04312:0033000033003300
#06018:00130000
#0601b:0000000000000013
#06015:13
#06012:0000001300000000
#06215:0000001300000000
#0621b:00130000
#06212:00000013
#06218:0000000000130000
#0581b:13000013
#05812:13
#05918:1300000000000013
#05915:00130000
#0591b:0000000023230000
#05912:0000000023230000
#06112:0013
#06115:00000013
#06315:0013000000000000
#0631b:13
#06312:0013
#06318:0000001300000000
#06712:13000013
#0671b:0000001300000000
#06715:00333333000000000000000000333333
#06718:00000000000000333333000000000000
#06710:41
#06818:13000000000000000000000000333333
#06815:0000001300000000
#0681b:00333333000000000000000013000000
#06812:00000000000000333333000000000000
#06912:0013000000000000
#06918:0013
#06915:00000033333300000000000000000033
#0691b:00000000000000000033333300000000
#08418:00130000
#0841b:0000000000000013
#08412:0000001300000000
#08415:23
#0841f:21
#08615:0000001300000000
#0861b:00130000
#08612:00000013
#08618:0000000000130000
#09712:00130000
#0971a:14
#09718:00130000
#09715:0000000013130000
#0971b:0000000023230000
#08318:1300000000000013
#08315:00130000
#0831b:0000000023230000
#08312:0000000023230000
#08512:0013
#08515:00000013
#08510:0041
#08715:0013000000000000
#0871b:13
#08712:0013
#08718:0000001300000000
#0891b:0000000000000013
#08912:0000000000000013
#08914:0026000000000000
#08916:0000002600000000
#08918:0000000000260000
#09616:0000001400000014
#09612:24
#0821b:23000013
#08212:23
#09215:00130000
#09212:0000000000000013
#0921b:0000001300000000
#09218:23
#09418:0000001300000000
#09412:00130000
#0941b:00000013
#09415:0000000000130000
#09012:13000013
#0901b:13
#09115:1300000000000013
#09118:00130000
#09112:0000000023230000
#0911b:0000000023230000
#0931b:0013
#09318:00000013
#09518:0013000000000000
#09512:13
#0951b:0013
#09515:0000001300000000
#10212:1300000000130000
#10215:00130000
#1021b:2300002300000000
#10218:00000023
#10210:41
#10415:00130000
#10418:0013
#1041b:00000033
#10315:1300000000130000
#1031b:0023000000001300
#10312:0000001300000000
#10318:0013
#10518:00000013
#10515:0013000000000000
#10512:0000003300000000
#1061b:1300000000130000
#10618:00130000
#10612:2300002300000000
#10615:00000023
#10818:00130033
#1081b:0013
#10815:0013
#10812:00000033
#10718:1300000000130000
#10712:0023000000001300
#1071b:0000001300000000
#10715:0013
#10918:0013000000001300
#10912:0013000000000000
#10915:0000003300000000
#1091b:0000003300000000
#0741f:11
#07418:2300002300000000
#07415:00000023000000000023000000000023
#07412:00000023
#0461b:23
#04612:00000023
#0791a:0000000000240000
#0791b:0000000000000023
#07912:000000000000000034003400000000000000000000230000
#07916:003434000000000000000000
#08114:0024
#08118:0000000000240000
#0811b:0000000000000023
#08112:0000000000000023
#07518:0023000000000023
#07515:00000000002300000000002300000000
#07512:0023
#07615:00230000000000230000000000230000
#07612:00230000
#07618:0000000000230000
#07712:23000024
#07715:00000023000000000000000000000000
#07718:0000002300000000
#0771b:00000000000000000023000000000000
#07716:0000000000000024
#01218:23
#01212:23
#01215:00000023
#0121b:00000023
#05612:24000026
#05618:0024000000000026
#05614:00240000
#0561a:0000002400000000
#0781a:24
#07812:000000003434000000003434
#07816:000000000000003434000000
#11012:24
#1101a:00000024
#0881a:24
#08814:0024000000000000
#08818:00240026
#08812:0000002400000026
#07018:00000000000000330000000000000000
#07012:00000000000000000000000000000033
#07218:00000033000000000000003300000000
#07215:00000000000000330000000000000000
#0005b:53
#00052:00000063
#0025b:0063
#00158:00000013
#0015b:0000005300000000
#01258:53
#0125b:0000001300006300
#01252:53
#01255:0000001300006300
#02358:0000005300000000
#02352:0000000000000053
#02555:00000000002300000000000000000000
#02452:0000000000000053
#0245b:00530000
#02752:0000006300000000
#0275b:0000000000000053
#02952:0000005300000000
#0295b:0000000000000063
#03158:0063000000000053
#0315b:0000006300000000
#0325b:00630000
#03255:00630000
#03352:53
#0335b:0053
#03452:53
#03556:23
#03755:0000005300000000
#0445b:0000000000000053
#04552:0000005300000000
#04658:0000001300000000
#0465b:53
#04652:00000063
#0485b:63
#04852:53
#0505b:53
#05052:53
#05055:0000001300000000
#05058:0000001300000000
#05258:13
#0525b:0000006300000000
#05252:0000000000000063
#05458:0000001300000000
#0545b:13000013
#0535b:0053
#05358:00000053
#05558:0013000000000000
#0555b:0063
#0565a:0000001400000000
#07155:0000000000000013
#0785a:14
#0795b:0000000000000053
#07952:0000000000000063
#0825b:53
#08252:63
#08258:0000001300000000
#08255:0000001300000000
#10055:0053
#10052:0000000000000013
#10158:0053000000000000
#1015b:0013
#10155:00000013
#09952:00000013
#11052:54
#1105a:00000064
#11056:0000001400000000
#11156:0014000000000000
#11155:0000000000630000
#11152:00000000000000000000000000000023
#1155b:0000000000000013
#07352:63
#00352:0053000000000000
#00452:63
#0045b:00000053
#00652:0053
#00552:0000006300000000
#00555:00000013
#0075b:0063000000000000
#00858:53
#00855:00000063
#01058:0053
#00958:0000005300000000
#0095b:00000013
#01155:0063000000000000
#01352:0013000000000000
#01358:0013000000000000
#01652:00530000
#01755:0053000000000000
#01752:00000000000000230000000000000000
#01858:54545454
#0185a:0054005400540054
#01958:54
#01952:0000000000000054
#02052:00545454
#02054:00240000000024000000240000002400
#02152:0000000000000053
#02659:5353535300000000
#02658:00250025002500250000000000000000
#02654:0000000063636363
#02653:00000000000000000025002500250025
#02852:0053
#0385b:63
#03957:23
#04052:0000000000000053
#0415b:0000005300000000
#04252:53
#04356:23
#04755:0013000000000000
#06456:0000002400000000
#0645a:54
#0605b:0000000000000053
#06055:13
#06052:0000005300000000
#06255:0000001300000000
#06252:13000013
#0585b:63
#05852:63
#05855:0000001300000000
#05858:0000001300000000
#06152:0063
#06155:00000063
#06355:0013000000000000
#06352:0053
#06752:53000053
#0675b:0000006300000000
#06858:53
#06855:0000006300000000
#0685b:00000063
#06952:0053000000000000
#06958:0053
#0845b:0000000000000053
#08452:0000005300000000
#08455:13
#08655:0000001300000000
#08652:13000013
#08552:0063
#08555:00000063
#08755:0013000000000000
#08752:0053
#09656:0000002400000000
#09652:64
#09252:0000000000000063
#0925b:0000006300000000
#09258:13
#09458:0000001300000000
#0945b:13000013
#09052:53
#0905b:53
#09058:0000001300000000
#09055:0000001300000000
#0935b:0053
#09358:00000053
#09558:0013000000000000
#0955b:0063
#08852:0000001400000000
#1035b:00000013
#10458:0063
#1045b:0000000000000013
#10555:0063000000000000
#10552:0013
#10558:00000013
#10752:00000013
#1085b:0053
#10858:0000000000000013
#10855:0053
#10852:0000000000000013
#10952:0053000000000000
#10955:0013
#10958:0053000000001300
#1095b:0013
#0003b0:13
#000380:0000002300000000
#000320:00000013
#001350:0023000000000000
#0013b0:0000001333330000
#001380:00000023
#0023b0:0013
#002380:0000000000003323
#003320:0013000000000000
#003350:0000003323000000
#004320:13
#004350:0000002300000000
#0043b0:00000013
#005380:0023000000000000
#005320:0000001333330000
#005350:00000023
#006320:0013
#006350:0000000000003323
#0073b0:0013000000000000
#007380:0000003323000000
#008380:13
#0083b0:0000002300000000
#008350:00000013
#009320:0023000000000000
#009380:0000001333330000
#0093b0:00000023
#010380:0013
#0103b0:0000000000003323
#011350:0013000000000000
#011320:0000003323000000
#012380:13
#0123b0:0000002300000000
#012321:13
#012351:0000002300000000
#012351:00000013
#013321:0023000000000000
#0123b0:00000013
#013380:0023000000000000
#016320:00130000
#016350:0000003323000000
#016350:0000000000000013
#017350:0033333333332300
#017320:00000000000000530000000000000000
#018380:14343434
#0183a0:0034003400340034
#019380:34
#0193a0:0024000000000000
#019320:0000000000000014
#020340:00540000000034000000340000003400
#020320:0034340034003400
#021320:24
#021320:0000000000000013
#022350:0023000000000000
#023380:0000001300000000
#0233b0:0000000000230000
#023320:0000000000000013
#024350:0023000000000000
#0243b0:00130000
#024380:00000023
#024320:0000000000000013
#025350:00000000005300000000000000000000
#025320:00000023
#026390:1333333323000000
#026380:00550055005500550000000000000000
#026341:0000000013333333
#026331:00000000000000000055005500550055
#027341:23
#027321:0000001300000000
#027351:0000000000230000
#0273b1:0000000000000013
#028381:0033230000000000
#028321:0013
#028351:0000000000333333
#029351:23
#029321:0000001300000000
#029351:0000000000230000
#0293b1:0000000000000013
#030381:0023000000000000
#031381:0013000000230000
#0313b1:0000003300000000
#031381:0000000000000013
#0323b1:0023000000000000
#0323b1:00130000
#032381:00000023
#032350:00130000
#032320:00000023
#033320:13
#033350:0023
#0333b1:0013
#034381:23
#034320:1300330033000033
#035360:53
#035320:0033000033003300
#036320:23
#037350:0000001300000000
#037320:00000023
#0383b0:1300330033000033
#039370:53
#0393b0:0033000033003300
#0403b0:23
#040320:0000000000000013
#041350:0023000000000000
#0413b0:0000001300000000
#041380:00000023
#042320:1300330033000033
#043360:53
#043320:0033000033003300
#044320:23
#0443b0:0000000000000013
#045380:0023000000000000
#045320:0000001300000000
#045350:00000023
#0463b0:13
#046380:0000002300000000
#046320:00000013
#047350:0023000000000000
#0483b0:13
#049380:00230000
#048321:13
#049351:00230000
#0503b1:13
#050381:0000002300000000
#050320:13
#050350:0000002300000000
#0523b0:0000001300000000
#052380:0000000000230000
#052320:0000000000000013
#053350:00230000
#0533b0:0013
#053380:00000033
#0543b0:23
#0553b0:0013
#055380:00000023
#058320:13
#058350:0000002300000000
#0583b1:13
#058381:0000002300000000
#060321:0000001300000000
#060351:0000000000230000
#0603b1:0000000000000013
#061381:00230000
#061321:0013
#061351:00000033
#062321:23
#063321:0013
#063351:00000023
#0643a1:14000024
#064361:0000005400000000
#066321:1323
#066331:00330000000000330000000000000000
#066341:0033003300000000
#066351:00000033003300000000000000000000
#066361:00330000
#0663b0:0013
#0663a0:00000000000000000033000000000033
#066390:0000000000330033
#066380:00000000000000000000003300330000
#066370:00000033
#0673b0:23
#067321:13
#067351:00333333230000000000000000000000
#0673b1:0000001300000000
#067381:00000000000000333333230000000000
#067321:00000013
#067351:00000000000000000000000000333333
#068351:23
#068380:13
#0683b0:00333333230000000000000000000000
#068350:0000001300000000
#068320:00000000000000333333230000000000
#0683b0:00000013
#068380:00000000000000000000000000333333
#069380:23
#069320:0013000000000000
#069350:00000033333323000000000000000000
#069380:0013
#0693b0:00000000000000000033333323000000
#069320:0000000000000013
#069350:00000000000000000000000000000033
#070350:33230000
#0703b0:0000001300000000
#070380:00000000000000333300000023000000
#070350:0000000000000013
#070320:00000000000000000000000000000033
#071320:33230000
#0723b0:0013000000000000
#072380:00000033230000000000000000000000
#072320:0000001300000000
#072350:00000000000000332300000000000000
#0723b0:0000000000130000
#072380:00000000000000000000003323000000
#073320:13
#073350:00230000
#078320:000000143434000000343434
#078360:000000000000343434000000
#079360:343434000000240000000000
#079320:000000343434000000000000
#0793b0:0000000000000013
#081380:00230000
#079321:0000000000000013
#081351:00230000
#0823b1:13
#082381:0000002300000000
#082320:13
#082350:0000002300000000
#084320:0000001300000000
#084350:0000000000230000
#0843b0:0000000000000013
#085380:00230000
#085320:0013
#085350:00000033
#086320:23
#087320:0013
#087350:00000023
#0903b0:13
#090380:0000002300000000
#090321:13
#090351:0000002300000000
#0923b1:0000001300000000
#092381:0000000000230000
#092321:0000000000000013
#093351:00230000
#0933b1:0013
#093381:00000033
#0943b1:23
#0953b1:0013
#095381:00000023
#096321:14000024
#096361:0000005400000000
#100351:0013
#100321:0000000000003323
#101381:0013000000000000
#1013b1:0000003323000000
#104381:0013
#1043b1:0000000000003323
#105351:0013000000000000
#105321:0000003323000000
#1083b1:0013
#108381:0000000000003323
#108350:0013
#108320:0000000000003323
#109320:0013000000000000
#109350:0000003323000000
#109381:0013000000000000
#1093b1:0000003323000000
#110321:14
#110361:0000002400000000
#1103a1:00000014
#111361:0024000000000000
#111351:0000000000130000
#111321:00000000000000000000000000000053
#112351:00230000
