This file was generated by Ched 2.7.0.0.
#TITLE ""
#ARTIST ""
#DESIGNER ""
#DIFFICULTY 0
#PLAYLEVEL
#SONGID ""
#WAVE ""
#WAVEOFFSET 0
#JACKET ""
#REQUEST "ticks_per_beat 480"
#00002: 4
#BPM01: 185
#00008: 01
#TIL00: ""
#HISPEED 00
#MEASUREHS 00
#0001b:1300000000130000
#00012:1300131700000000
#00017:0000000000131700
#00112:1317000013001300
#00116:1300001300130000
#0021b:1300130000000013
#00216:0000130013131313
#00212:1313
#00316:0013000013001300
#00312:0013001300001300
#0031b:00131300
#01712:0012000000000000
#01717:00001200120012121200120012001200
#0171c:00120000
#01917:0013000000130000
#0191b:1300001300000000
#01912:0013000000000000
#01916:0000001300000013
#01919:0013
#02216:0013000000000000
#02215:0000001613160016
#02218:00130013
#02316:1300001300001300
#02312:0013000013130000
#02317:0013000013000013
#0231b:1300001300001300
#02412:0013000000000013
#0241b:13130013
#02416:00130013
#02417:0000000013000013
#02717:0013000000000000
#02716:0000001300000000
#02712:0013000000130000
#0271b:1300001300000000
#02714:0013
#0291c:0012000000000000
#0291a:12
#02912:0012001300000013
#02917:0000001300000000
#0291b:0000000000130000
#02919:0013
#04414:0014000000000014
#04416:00140014
#04418:0000001400140000
#04412:1214
#0441b:0000000000000013
#0441c:12
#0441a:0014
#04514:0014000000000014
#04516:00140014
#04512:1400001300000000
#04518:1300001400140000
#0451a:0014
#04515:00000000000000000013000000000000
#04712:1424141300000000
#0471b:0013
#04718:0000000000001313
#04716:0000001414000000
#04715:00000000000000000000000000130013
#0471a:00140000
#04912:0023000013000013
#0491b:2300000000130013
#04917:0013
#04916:2424000000130000
#05116:0000000000000014
#05112:130013002c2c0013
#05118:00130000001300000000000000000000
#05115:0013001300000000
#0511b:00000013000000130000000000000000
#05216:1400141400000000
#0521b:1300000013130000
#05212:0000001300001313
#05217:0013000000000000
#05210:41
#05316:0013
#05312:00000013
#05317:00130000130000000000000013000000
#0531b:0013
#05314:0000000000180018
#05412:1800131800131300
#05417:00131300
#05419:0013000000130000
#0541b:13
#05416:00000018
#05414:0000000000000013
#05517:0013
#05512:0000000013000013
#0551b:1300001300131300
#05516:1318130000000000
#05514:0000001300000000
#06412:0000001300000000
#06418:0000000000000014
#06416:0000001400000000
#06414:0000000000000013
#0641a:24
#06516:1400140014140000
#0651b:00130000
#06512:1324
#0651a:0000000000240000
#06716:00120012000000000000000012001200
#06712:1212120000000000
#06718:00000000000000120012000000120012
#0671c:0000001212120000
#06710:41
#0711c:00000012
#07117:0000001212001212
#07112:0000001212000012
#07817:001300
#07818:26000014
#07815:001300000000000000001300
#07812:000013000000000000000013
#07814:000000000013000000000000
#07816:000000000000001300000000
#07813:000013
#0781a:00240000
#07819:0024
#09812:1300002700131300
#0981b:0000131300000000
#09816:00130000
#09817:2700000000132700
#09814:0013000000000013
#09819:0013
#0991b:1313000013001300
#09916:1313
#09919:00130000
#09917:0000001300130000
#09912:0027001300000000
#09918:0000000000000013
#1001b:00131300
#10017:00000013
#10012:1600130000000018
#10016:0013
#10018:0013000000000000
#10014:0000001300000000
#10019:0000000000130000
#10116:0013000000001300
#10112:0000001318000000
#1011b:0013000000001300
#10117:0000000000000013
#10119:13
#10114:0000130000130000
#11219:0012
#1121c:00120012
#11218:0000000000000012
#11318:0012000000000000
#1131c:00120000
#11317:0012
#1131a:00000012
#11316:0000000000000012
#01017:00131300
#01012:00131300
#01016:1300000000000018
#0101b:1300001300001300
#01117:0013000000000000
#01116:0000001318000000
#01112:0013000000001800
#03317:13130013
#03312:1313
#03316:0013
#0331b:00000013
#03612:1212
#0361c:1212
#03614:0018000000000018
#03617:00160016
#0361a:0000001400140000
#04612:14001424
#0461a:2400142414001400
#05018:13000000000000000000001300130000
#0501b:00000013000000000000000000000013
#05015:1300000000130013
#05012:00000013000000000000000013000000
#06316:0013
#06312:1318001300001300
#0631b:0013000013000000
#06317:1300001300000000
#06319:00130000
#07416:00120000000000120000000022001200
#07418:0000120000120000
#07412:00000000000000000000000000120000
#0741a:2212002212000000
#07414:00000022001200000022001200000022
#0741f:11
#07518:1200001200001200
#07516:00000012000000002200120000000012
#07512:00000000000000000012000000000000
#07514:00120000002200120000002200120000
#0751a:0022120000000022
#07618:0012000012000012
#07612:00000000001200000000000000000000
#07616:00000000220012000000001200000000
#0761a:1200000000221200
#07614:00220012000000220012000000220012
#0771c:0000000000120000
#07718:00000000120000000022001200000000
#07712:00120000000000000000000026000000
#07716:22001200000000120000000000000000
#07714:00000022001200000000000000000000
#0771a:0000002212000000
#07715:0000000000000026
#08213:00000012
#08217:00000000000000000000000000120000
#08219:00000000000000000000000000000012
#08215:0000000000000012
#08212:23
#0821b:23
#08314:12
#08318:00120000000000000000000000000000
#08316:0012000000000014
#0831a:00000012000000000000000000000000
#08315:00120000
#08319:00000000001200000000000000000000
#08317:0000001200000000
#0831b:00000000000000120000000000000000
#08312:000000002c2c0013
#09318:0000001316000000
#09312:00131316
#09315:00000000000000130000160000001600
#0931b:00000013
#0931a:00140000000000000000000000000000
#10618:2600001300132600
#10615:00130013
#1061b:0013
#10612:0013002600000013
#10718:0013001300130000
#10715:1300001313000016
#1071b:00131313
#10712:0026000000131300
#1091b:0013000000001300
#10918:00000000000000000000000000130000
#10915:0000000000000013
#10916:0013000000000000
#10912:00000000000013001800000000000013
#10919:13
#10914:0000130000130000
#10812:1300130000000018
#1081b:1313
#10817:00130013
#10816:0013
#10819:0013000000130000
#10814:0000001300000000
#1101b:2300000000132300
#11017:0000000000132300
#11012:0000132300000000
#11416:0012000012000000
#1141a:00120000
#11418:0000001200000000
#11417:00000012
#1141b:0000000000000012
#11516:0012000000000000
#11518:0000001200000000
#1151a:0000000000120000
#1151c:0000000000000012
#00412:1300000000131700
#00417:0000001700000000
#0041b:13130000
#00416:0000000000130000
#00517:1317001300130000
#0051b:13001313
#00612:1300130000000013
#00617:0000130013131313
#0061b:1313
#00717:0013000013001300
#0071b:0013001300001300
#00712:00131300
#00817:1300000000131300
#0081b:0000131300001300
#00812:13
#00912:1313000013001300
#0091b:0000001300130000
#00916:0000001313131300
#01217:2300000000132300
#01212:23000023
#0121b:0000002300000000
#01216:0000232300000000
#0131c:12
#01319:001200000000000000000000
#01316:001200000000
#01318:000000120000001300000000
#01315:001213
#01312:000000000012000000130000
#0131b:0013
#01418:1200000000000012
#0141c:00120012
#0141a:0012
#01518:0012000000000012
#0151c:00120012
#01516:0012
#01618:0012000012000000
#0161a:00120012
#01616:0000001200000000
#0161c:0000000000000012
#01816:13130013
#01812:0013001300130013
#01817:0013001300130013
#0181b:1313
#01810:41
#02012:00130000000013000000130000001300
#0201b:00131313
#02017:0000001300130013
#02016:0033130013001300
#02116:0013000000130000
#02112:0000001300000000
#0211b:0013000000000000
#02117:0000001300000013
#02114:0013
#02518:0012000012000000
#02516:00000012000000000000001200000000
#0251a:0000120000120012
#02512:00000000000012000000000000000012
#02514:00000000000000000012000000120000
#0251c:0000001200001200
#02618:12120000000000001212000000000000
#02617:0014001400000000000000000000000000140014000000000000000000000000
#02613:00001212000000000000121200000000
#02612:0000000000140014000000000000000000000000001400140000000000000000
#0261b:00000000121200000000000012120000
#0261a:0000000000000000001400140000000000000000000000000014001400000000
#02616:00000000000012120000000000001212
#02615:0000000000000000000000000014001400000000000000000000000000140014
#02812:0012000000120000
#0281a:00120000
#0281c:0000001200000012
#0301b:0013000013000000
#03012:0000131600001316
#03018:0000000000160000
#0311b:13
#03118:0016000000000000
#03115:0000000000130013
#03112:13000013
#03218:13130013
#0321b:0013000000000013
#03215:0000001300130000
#03212:0013
#0341c:00121212
#03417:0000220000000022
#03412:0022
#03410:41
#0351c:12121212
#03517:0022000000002200
#03512:0022
#03712:1214001400001400
#0371c:12
#03716:00140000
#0371a:0000001400000000
#03812:12121212
#0381c:1222
#03817:0000220000000022
#03912:12121212
#03917:0022000000002200
#0391c:0022
#04012:12
#0401c:12
#04014:0012000000000012
#04016:00121212
#04018:0000001200120012
#0401a:0012
#04118:0012000000000000
#04115:00120000
#04119:00120000
#04112:0000001200000000
#04116:0000001200000000
#0411c:00000012
#0421c:12121212
#04212:1222
#04217:0000220000000022
#0431c:12121212
#04317:0022000000002200
#04312:0022
#05712:002a002800260013
#0571b:0000000000000013
#05815:13000000000000000000001300130000
#05812:00000013000000000000000000000013
#05818:1300000000130013
#0581b:00000013000000000000000013000000
#0591b:1300130000000013
#05915:00130000001300000000000000000000
#05918:0013001300000000
#05912:00000013000000132c002c0000000000
#05916:0000000000000014
#06016:1413141400000000
#06012:1300000013130000
#0601b:0000001300001313
#06216:1800131800130000
#06212:1300001300001800
#0621b:0000130000131300
#06214:0013000013000000
#06219:0000000000000013
#06116:00130000130000000000140000001400
#06118:0000001300000000
#0611b:00001313
#06115:00000000000000130000000000000000
#06112:00001313
#06612:12
#06616:00120000000000000000120000000000
#06614:0012000012000000
#06618:00000012000000000012000000000000
#06613:00120000
#06617:00000000001200000000000000001200
#06615:0000001200001200
#06619:00000000000000120000000000120000
#0661a:00000000000000000000001200000000
#0661b:00000000000000000000000000000012
#06812:1212120000001212
#06816:00120012000000000000000000120012
#06818:00000000000000120012000000000000
#0681c:0000001212120000
#06912:1200000012121200
#06918:00000012001200000000000000000012
#0691c:0012121200000012
#06916:00000000000000000012001200000000
#07018:00000000000012000000000000000012
#07014:00000000000000120000000000000000
#0701c:1200000000000012
#0721c:0012120000000000
#07218:00000012000000000000000000000000
#07215:0000001212000000
#07219:00000000000000120000000000000000
#07216:0000000000121200
#07212:00000000000000000000001200000000
#0731c:12120000
#07312:12120000
#07318:00001300000000000000001200001200
#07315:00000013000012000000000000000000
#07319:0000001200000000
#07314:0000000000120000
#07316:00000012
#0731a:00000000000000000000000000120000
#07916:001300000000000000000000
#07919:001300000000
#07917:001300
#0791a:000000000000000000001300240000240000000000240000
#07912:2400000024240024
#07913:00240000
#0801a:00000000000000000014000000000000
#08012:00000000000000000014000000000000
#0841b:2300001313000000
#08416:2400141400140014
#08412:00130013
#0841f:21
#08512:00140000000000001300000000000000
#08515:00000013
#0851b:00131300
#08514:0000000000180018
#08518:00000013
#08510:0041
#08612:1900131900131300
#08617:00131300
#08619:0013000000130000
#0861b:1300001300000000
#08615:00000019
#08614:0000000000000013
#08717:0013
#08712:0013000013000013
#0871b:1300001300131300
#08716:13130000
#08715:0019000000000000
#08714:0000001300000000
#09116:00120000000000000000000000001400
#0911b:0000000000000013
#0911a:12
#09118:0012000000000000
#09114:00000012000000000000000000000000
#09119:00120000
#09115:00000000001200000000000000000000
#09117:0000001200000000
#09113:00000000000000120000000000000000
#09112:000000002c2c0000
#09212:2300002313000000
#0921b:00130013
#09216:2400142400240024
#0961b:0000001300000000
#09614:0000000000000014
#09616:0000001400000000
#09619:0000000000000013
#09612:24
#09716:1400140014140000
#09712:0000130000240000
#0971b:13
#0971a:0024
#09517:0013
#0951b:1300001300001300
#09512:0013000013000000
#09516:1318001300000000
#09514:00130000
#09412:1800131800131300
#09417:0000130000130000
#0941b:1300001300000000
#09419:0013000013000000
#09416:00000018
#09414:0000000000000013
#10212:2700131300002700
#1021b:0000000000131300
#10217:0000132700000000
#10216:0000000000130000
#10219:0013000000000013
#10214:0013
#10210:41
#10312:1313000013001300
#10317:1327000013000000
#10314:00130000
#10316:0000001300130000
#1031b:0000001300000000
#10315:0000000000000013
#10412:00131300
#10416:0000000000001318
#10418:16
#1041b:00130000
#10417:0013
#10415:0013000000000000
#10419:0000001300000000
#10414:0000000000130000
#10517:0013000000001300
#1051b:0000001300000000
#10516:0000000018000013
#10512:0013000000001300
#10514:13
#10519:0000130000130000
#11116:1323000000130000
#11112:0000001300000016
#11117:0000001300000000
#11114:0013
#11119:0013
#1111b:0000000000130000
#11118:0000000000000026
#0901b:23000012
#09017:00000000000000000000000000120000
#09015:00000000000000000000000000000012
#09019:0000000000000012
#09012:23
#0811a:0000000024240000
#08112:0000000024240023
#0811b:0000000000000023
#05612:220000000000232c
#05618:0000002200000000
#05617:0023000000002300
#05619:00230000
#0561b:0000002300000000
#05614:0022000000000000
#05616:00220000
#0481b:23230023
#04816:0000242400000000
#04812:2300002300002300
#08812:2200000000002326
#08817:0023000000002300
#08818:0000002200000026
#08819:00230000
#0881b:0000002300000000
#08814:0022000000000000
#08816:00220000
#08912:0025002400230023
#08915:0000000000230000
#08916:0000002400000000
#08917:0025000000000000
#0891b:0000000000000023
#0005b:53
#00052:0000001700000000
#00057:00000017
#00252:0053
#00256:0000000000230000
#00356:0053000013000000
#0035b:00230000
#00352:00000013
#00157:00000013
#00152:0017000000001300
#01157:0053000000000000
#01156:0018
#01152:00000018
#01052:0053
#01056:0000000000000018
#0125b:0000001300000000
#01257:53
#01956:0000005300000053
#01957:0000000000530000
#01952:0000000000130000
#0235b:0000005300000000
#02352:0000000000530000
#02357:0000000023000053
#02356:00000023
#0245b:23
#02456:00530000
#0275b:0000005300000000
#02757:0000000000130000
#02752:0000000000530000
#03352:6363
#03357:00230023
#03356:0063
#0335b:00000023
#0445b:0000000000000053
#04552:0000005300000000
#04558:23
#04555:00000000000000000023000000000000
#04652:54
#0465a:0000001400006400
#04656:0000001400000000
#05058:5300001300000000
#0505b:00000023000000000000000000000000
#05055:6300001300000000
#05052:00000023000000000000000000000000
#05256:1400004400340044
#05252:0000005300000053
#0525b:5300000000530000
#05257:0023000000000000
#05357:00230000000000000000000000000000
#05452:1800001800000000
#05456:00000018
#05658:0000001200000000
#0565b:0000001300000000
#05652:000000000000004c
#05552:0053
#0555b:00000053
#05556:0018000000000000
#0635b:0063
#06352:0038000000005300
#0645a:54
#06456:0000002400000000
#06452:0000002300000000
#07152:0000000000000012
#07157:0000000000000012
#07858:16
#08252:6300001300000000
#0825b:5300001300000000
#0845b:1300001300000013
#08456:1400005400540054
#08452:0000000000130000
#10052:0000000000000018
#10056:0053
#10152:0018
#1015b:0053000000005300
#10157:0000000000000023
#10156:00000013
#1075b:00000013
#10752:00000013
#0995b:00000013
#09956:00000013
#1105b:53
#11057:00000063
#11056:0000001300000000
#11052:0000001300000000
#11156:0013000000130000
#11152:0013000000000056
#1115b:0000000000130000
#1155c:0000000000000012
#00452:63000017
#00457:0000001700000000
#00557:0017000000000000
#0055b:00000013
#00556:00000013
#00757:0063000013000000
#0075b:00000013
#00752:00230000
#0065b:0063
#00657:0000000000230000
#00852:53
#0085b:00000053
#00952:00000013
#00956:00000013
#01857:0053000000530000
#0185b:5353
#01856:00530053
#01852:0000005300000053
#02052:00230000000023000000230000002300
#0205b:00535353
#02057:0000002300230023
#02056:00535353
#02156:0000000000630000
#02157:0000006300000063
#0215b:0000000000130000
#02657:0024002400000000000000000000000000240024000000000000000000000000
#02658:52520000000000005252000000000000
#02653:00006262000000000000626200000000
#02652:0000000000240024000000000000000000000000002400240000000000000000
#0265b:00000000525200000000000052520000
#0265a:0000000000000000002400240000000000000000000000000024002400000000
#02656:00000000000062620000000000006262
#02655:0000000000000000000000000024002400000000000000000000000000240024
#0295b:0000000000630000
#02952:0000006300000053
#02956:0000000000130000
#03158:0016000000000000
#03452:0052
#03557:0052000000000000
#0385c:0062
#03957:0062000000000000
#04058:0000000000000052
#04152:0000005200000000
#0375a:0000005400000000
#04252:0052
#04357:0052000000000000
#04752:0014000000000000
#04756:0014000000000000
#04852:0000001300000000
#0485b:00130000
#0495b:13
#04952:0013000000000000
#05152:000000001c1c0000
#05752:004a004800460000
#05855:6300001300000000
#05852:00000023000000000000000000000000
#05858:5300001300000000
#0585b:00000023000000000000000000000000
#05952:000000001c1c0000
#06056:1423003400440034
#06052:6300000000630000
#0605b:0000006300000063
#06156:00230000000000000000000000000000
#06256:4800004800000000
#06252:00000038
#06556:14
#06552:0014
#0655a:0000000000140000
#06752:00120000
#0675c:0000000000120000
#06852:00120000
#0685c:0000000000120000
#06952:12000012
#0695c:0000001200000000
#0725c:00120000
#07255:0012
#07256:00000012
#07952:0000000000000054
#0795a:0000000000000064
#0805a:00000000000000000024000000000000
#08052:00000000000000000024000000000000
#08152:0000000014140000
#0815a:0000000014140000
#08352:000000003c4c0000
#08552:00240000000000000000000000000000
#08752:0053
#0875b:00000053
#08755:0049000000000000
#08852:0000000000000046
#08858:0000001200000046
#0885b:0000001300000000
#08952:0045004400430000
#08957:0045000000000000
#08956:0000004400000000
#08955:0000000000430000
#08652:3900003900000000
#08655:00000049
#0935a:00240000000000000000000000000000
#09152:000000004c3c0000
#0905b:5300001300000000
#09052:6300001300000000
#09252:1300001300000013
#09256:1400005400540054
#0925b:0000000000130000
#0965b:0000002300000000
#09656:0000002400000000
#09652:64
#09756:14
#0975a:0014
#09752:0000000000140000
#0955b:00000063
#09552:0053
#09556:0048000000000000
#09452:3800003800000000
#09456:00000048
#10456:0000000000000018
#10457:0063
#10556:0000000018000023
#10552:0063000000006300
#10557:00000013
#10352:00000013
#10357:00000013
#10852:0000000000000018
#10856:0053
#10952:0018
#1095b:0053000000000000
#0705c:52
#0003b0:13
#000360:00230000
#0013b0:0000001300330000
#001370:00003323
#002320:00001323
#002360:0000000000530000
#003360:0013002300000000
#0033b0:00530000
#004320:13
#004370:00230000
#005320:0000001300330000
#005360:00003323
#0063b0:00001323
#006370:0000000000530000
#007370:0013002300000000
#007320:00530000
#008320:13
#008370:0000002300000000
#0083b0:00000013
#009360:0023000000000000
#010320:0013
#010360:00000023
#011370:0013000000000000
#0113b0:0000002300000000
#012370:13
#0123b0:00230000
#014320:12320032
#015320:00320032
#016320:0000320000003222
#0183b0:13230000
#018370:0033000000000000
#018361:00132300
#018321:0000003300000000
#0183b0:00001323
#018370:0000000000330000
#018361:00000013
#018321:0000000000000033
#019361:23
#019361:0000001300000000
#019321:0000000000230000
#019370:0000000000130000
#0193b0:0000000000000023
#019361:0000000000000013
#020321:00530000000033000000330000003300
#020361:0033330033003300
#021361:23
#0203b0:00133333
#020370:0000003300330033
#0213b0:23
#021370:0000001300000000
#0213b0:0000000000230000
#021361:0000000000130000
#021321:0000000000000023
#021370:0000000000000013
#0223b0:0023000000000000
#022320:0000132300000000
#0223b0:0000000013230000
#022320:0000000000001323
#0233b0:0000001300230000
#023370:0053
#023321:0000000000130023
#023361:00000053
#023370:0000000000000013
#0243b0:53
#024370:0023000000000000
#024360:00130000
#024320:0023
#026380:12522200000000000000000000000000
#026370:0054005400000000000000000000000000000000000000000000000000000000
#026331:00001252220000000000000000000000
#026321:0000000000540054000000000000000000000000000000000000000000000000
#0263b0:00000000125222000000000000000000
#0263a0:0000000000000000005400540000000000000000000000000000000000000000
#026361:00000000000012522200000000000000
#026351:0000000000000000000000000054005400000000000000000000000000000000
#026380:00000000000000001252220000000000
#026370:0000000000000000000000000000000000540054000000000000000000000000
#026331:00000000000000000000125222000000
#026321:0000000000000000000000000000000000000000005400540000000000000000
#0263b0:00000000000000000000000012522200
#0263a0:0000000000000000000000000000000000000000000000000054005400000000
#026361:00000000000000000000000000001252
#026351:0000000000000000000000000000000000000000000000000000000000540054
#027361:22
#0273b1:0000001300000000
#027371:0000000000230000
#027320:0000000000130000
#027360:0000000000000023
#0273c1:0000000000000012
#028381:5222000000000000
#028341:00122200
#028361:0000003200000000
#0283a0:00001222
#028380:0000000000320000
#028341:00000012
#028361:0000000000000032
#029341:22
#029321:0000001300000000
#029361:0000000000230000
#0293b0:0000000000130000
#029370:0000000000000023
#029321:0000000000000013
#030361:0023000000000000
#030381:0000132300000000
#030351:0000000013230000
#030381:0000000000001323
#031351:0013002300000000
#031321:00330000
#031380:0000001300230000
#0313b0:0033
#032320:13
#032350:0023000000000000
#032380:0013
#0323b0:0000000000230000
#033320:1333
#033370:00530053
#034320:23
#033361:0013
#0333b1:00000053
#034361:23
#034321:0012
#034371:00000022
#035371:0012000000000000
#035321:0000002200000000
#0373a1:0000001400000000
#037361:00000024
#0383c1:0012
#038371:00000022
#039371:0012000000000000
#0393c1:0000002200000000
#040381:0000000000000012
#0413c1:0022000000000000
#041321:0000001200000000
#041381:00000022
#042321:0012
#042371:00000022
#043371:0012000000000000
#043321:0000002200000000
#0443b1:0000000000000013
#045381:53
#0453b1:0023000000000000
#045321:0000001300002300
#045351:00000000000000000053000000000000
#046321:14
#046361:0000002400000000
#0463a1:00000014
#047361:0024000000000000
#050381:1300002300000000
#0503b1:00000053000000000000000000000000
#050350:1300002300000000
#050320:00000053000000000000000000000000
#0523b0:13230000
#052370:0053000000000000
#052320:0000001300000000
#052360:0000000000240000
#0523b1:0000000000130000
#052361:0000000000000024
#052320:0000000000000013
#053370:00530000000000000000000000000000
#053320:00230000
#055320:0013
#055360:00000023
#0553b1:00000013
#056371:23
#058351:1300002300000000
#058321:00000053000000000000000000000000
#058380:1300002300000000
#0583b0:00000053000000000000000000000000
#060320:13230000
#060360:0053000000000000
#0603b0:0000001300000000
#060360:0000000000240000
#060321:0000000000130000
#060361:0000000000000024
#0603b0:0000000000000013
#061360:00530000000000000000000000000000
#0613b0:00230000
#0633b0:0013
#063370:00000023
#063321:00000013
#064361:23
#0643a0:14000024
#064360:0000005400000000
#064321:0000001300000000
#064361:00000023
#0703c1:12
#070381:00220000
#070381:00001222
#0713c1:12220000
#079321:0000000000000014
#0803a1:00000000000000000054000000000000
#081321:00240000
#0793a0:0000000000000014
#080320:00000000000000000054000000000000
#0813a0:00240000
#082320:13
#0823b0:0000002300000000
#0823b1:13
#082321:0000002300000000
#084361:0000001400000000
#084321:0000000000230000
#084360:0000000000140000
#0843b0:0000000000000023
#084361:0000000000000014
#085321:00540000000000000000000000000000
#085361:00240000
#087321:0013
#087361:00000023
#0873b0:00000013
#088370:23
#0903b0:13
#090320:0000002300000000
#090321:13
#0903b1:0000002300000000
#092361:0000001400000000
#0923b1:0000000000230000
#092360:0000000000140000
#092320:0000000000000023
#092361:0000000000000014
#0933a1:00540000000000000000000000000000
#093361:00240000
#095321:0013
#095361:00000023
#0953b0:00000013
#096370:23
#096321:14000024
#096361:0000005400000000
#0963b0:0000001300000000
#096370:00000023
#099320:0000000000130000
#099360:00000023
#100360:0013
#100320:00000023
#1013b0:0013000000000000
#101370:0000002300000000
#1013b0:00000013
#101370:0000000000000053
#1023b0:23
#1033b0:0000000000130000
#103370:00000023
#104370:0013
#1043b0:00000023
#105320:0013000000000000
#105360:0000002300000000
#105320:00000013
#105360:0000000000000053
#106320:23
#106381:16
#106351:0023000000000000
#106321:0000001600000000
#106381:0023
#106381:00000016
#106351:0000000000000023
#107321:0016000000000000
#107381:00230000
#108361:0013
#108321:00000023
#1093b1:0013000000000000
#109371:0000002300000000
#1103b1:13
#110361:0000002300000000
#110371:00000013
#111321:0023000000000000
#111321:0000000000000016
#115321:0000000000000022
