This file was generated by Ched 2.7.0.0.
#TITLE ""
#ARTIST ""
#DESIGNER ""
#DIFFICULTY 0
#PLAYLEVEL
#SONGID ""
#WAVE ""
#WAVEOFFSET 0
#JACKET ""
#REQUEST "ticks_per_beat 480"
#00002: 4
#BPM01: 185
#00008: 01
#TIL00: ""
#HISPEED 00
#MEASUREHS 00
#0081a:14
#00814:0014
#01012:14
#01018:0014
#0121a:14
#01214:0014
#0651a:0014
#0981a:2414
#09814:00140014
#1061a:14
#10618:0014
#10614:00140000
#10612:00000014
#10718:14
#1071a:0014
#10714:00140000
#06616:00140000
#0661a:0014
#06612:24
#0681a:14
#06816:00140000
#06812:0014
#07012:14
#07016:0014
#0711a:14
#07112:0014
#0721a:14
#07214:00140000
#07218:0014
#07212:00000014
#08414:00140000
#08418:0014
#08412:00000014
#0841a:24
#0841f:21
#05318:14
#05312:0014
#05214:0014
#0521a:24
#05210:41
#06018:0014
#06012:24
#0731a:14
#07312:0014
#07418:0014
#07414:00140000
#07412:00000014
#0741f:11
#0741a:24
#07518:14
#0751a:0014
#07514:00140000
#07612:14
#07618:00140000
#07614:0014
#0761a:00000014
#07714:14
#07718:00140000
#07712:0014
#09218:00140000
#09214:0014
#0921a:00000014
#09212:24
#10812:14
#10814:0014
#10818:00140000
#0541a:1414
#05414:00140000
#0561a:1400000000000034
#05614:0000000000000034
#0001a:14
#00014:0014
#0011a:14
#00412:14
#00418:0014
#00512:14
#0831a:0014
#08314:0014
#05912:0014
#05918:0014
#09112:0014
#09118:0014
#08612:14
#08618:00140000
#08614:0014
#0861a:00000014
#08712:14
#08718:00140000
#08714:0014
#05512:1414
#05518:00140000
#02214:14
#0221a:0014
#02418:14
#02412:0014
#02814:1414
#0281a:00140000
#03012:1414
#03018:00140000
#03216:0014
#03212:14
#0181a:0014
#01810:41
#01914:14
#0191a:0014
#02012:14
#02018:0014
#02112:14
#02118:0014
#02612:2414
#02618:00140000
#03618:1414
#02718:1414
#02712:00140000
#0291a:1414
#02914:00140000
#0311a:1414
#03114:00140000
#03412:2414
#03410:41
#0401a:1414
#03814:1414
#04312:0014
#0451a:0014
#04612:14
#04614:0014
#04716:14
#04718:0014
#0511a:0014
#05114:0014
#09918:1414
#09912:00140000
#10012:1414
#10018:00140000
#1011a:1414
#10114:00140000
#10212:1414
#10218:00140014
#10210:41
#10314:1414
#1031a:00140000
#1041a:1414
#10414:00140000
#10512:1414
#10518:00140000
#1091a:14
#10918:0014
#10914:00140000
#08512:0014
#0851a:00000014
#08518:14
#08510:0041
#0881a:1400000000000034
#08814:0000000000000034
#0941a:24
#09418:0024
#09516:24
#09514:0024
#09612:24
#11014:00000024
#11018:24
#11012:24
#1101a:00000024
#0581a:24
#05814:24
#11116:0028
#01412:26360036
#05012:24
#05018:24
#08212:24
#08218:24
#0901a:24
#09014:24
#01612:00360036
#01512:00360036
#08914:0034000000000000
#0891a:0034000000000000
#05714:0034000000000000
#0571a:0034000000000000
#11216:0000000000000038
#11316:0000000000000038
#11416:0000000000000038
#11516:0038003800380000
#06710:41
#09754:0014
#0655a:0014
#0815a:0014
#0565a:14
#0335a:0014
#09958:0014
#10354:0014
#1075a:0014
#0885a:14
#08354:0014
#0835a:0014
#09152:0014
#09158:0014
#05154:0014
#0515a:0014
#05952:0014
#05958:0014
#002340:1424
#0033a0:1424
#006380:1424
#007320:1424
#0093a0:1424
#011320:1424
#0133a0:1424
#014320:16360036
#015320:00360036
#016320:00360036
#017350:00363636
#018350:26
#023340:14
#023320:0024
#025380:14
#0253a0:0024
#0333a0:1424
#035320:1424
#037380:1424
#039340:1424
#0413a0:1424
#042320:14
#042340:0034
#043320:24
#0443a0:14
#044380:0034
#0453a0:24
#0483a0:1400343400003400
#0493a0:3434000024000000
#050320:1400002400000000
#050381:1400002400000000
#056341:0000000000001434
#057341:0034000000000000
#057321:0000003400240000
#0563a0:0000000000001434
#0573a0:0034000000000000
#057380:0000003400240000
#0583a0:1400002400000000
#058341:1400002400000000
#061341:1424
#0623a1:14
#062391:0000003400000000
#062381:00000034
#063391:0034000000000000
#0633a1:0024
#064341:14
#065321:24
#067321:1424
#0693a1:1424
#0783a1:14
#079381:3400000034000034
#0813a1:3424
#082321:1400002400000000
#082380:1400002400000000
#088340:0000000000001434
#089340:0034000000000000
#089320:0000003400240000
#0883a1:0000000000001434
#0893a1:0034000000000000
#089381:0000003400240000
#0903a1:1400002400000000
#090340:1400002400000000
#093340:14
#093320:0024
#096320:14
#097340:34342400
#110380:14
#1103a0:0000002400000000
#110321:14
#110341:0000002400000000
#110341:00000014
#111321:0024000000000000
#1103a0:00000014
#111380:0024000000000000
#111360:0000000018000038
#112360:0000000000000038
#113360:0000000000000038
#114360:0000000000000038
#115360:0038003800380000
#1153a0:0000000000000024
