This file was generated by Ched 2.7.0.0.
#TITLE ""
#ARTIST ""
#DESIGNER ""
#DIFFICULTY 0
#PLAYLEVEL
#SONGID ""
#WAVE ""
#WAVEOFFSET 0
#JACKET ""
#REQUEST "ticks_per_beat 480"
#00002: 4
#BPM01: 220
#00008: 01
#TIL00: ""
#VOLUME: ""
#HISPEED 00
#MEASUREHS 00
#0011a:14
#00214:14
#00318:14
#00412:14
#0051a:14
#00614:14
#00718:14
#00812:14
#0171a:14
#01710:41
#0181a:14
#01914:14
#02014:14
#02118:14
#02218:14
#02312:14
#02412:14
#0251a:14
#02614:14
#02912:14
#03018:14
#03714:14
#03818:14
#03914:14
#04018:14
#04112:14
#0421a:14
#04512:0016
#04518:26
#04510:41
#04712:16
#04718:0016
#04918:1616
#05018:1616
#05112:1616
#05318:0016
#05312:26
#05518:16
#05512:0016
#05712:1616
#05812:1616
#05918:1616
#0851a:14
#08614:14
#08718:14
#08812:14
#0891a:14
#09014:14
#09118:14
#09212:14
#0931a:14
#09518:0016
#09512:26
#0951f:21
#09718:16
#09712:0016
#09710:41
#09912:1616
#10012:1616
#10118:1616
#10312:0016
#10318:26
#10512:16
#10518:0016
#10718:1616
#10818:1616
#10912:1616
#1141a:14
#11410:41
#11514:14
#11618:14
#11712:14
#1181a:14
#11914:14
#12018:14
#12112:14
#1221a:14
#12314:14
#12612:14
#12718:14
#0841f:0011
#05212:2626
#05218:00260000
#06018:2626
#06012:00260000
#10218:2626
#10212:00260000
#0621a:34
#0631a:34
#06612:34
#06712:34
#07018:34
#07118:34
#07414:34
#07514:34
#06110:41
#07710:41
#0093a0:14
#0103a0:24
#011340:14
#012340:24
#013380:14
#014380:24
#015320:14
#016320:24
#0273a0:14
#0283a0:24
#031320:14
#032320:24
#033390:14
#036390:24
#043340:14343434
#044340:34343424
#046380:1626
#048320:1626
#054320:1626
#056380:1626
#0613a0:14
#0623a0:34
#0633a0:34
#064380:24
#065320:14
#066320:34
#067320:34
#068340:24
#069380:14
#070380:34
#071380:34
#0723a0:24
#073340:14
#074340:34
#075340:34
#076320:24
#0773a0:14
#078380:24
#079340:14
#080320:24
#081320:14
#082340:24
#083380:14
#0843a0:24
#096320:1626
#098380:1626
#104380:1626
#106320:1626
#110320:16363626
#111380:16363626
#112320:16363636
#113320:36362600
#1243a0:14
#1253a0:24
#128320:14
#129320:24
#130380:14
#1313a0:34
#132380:34
#1333a0:24
#134340:14
#135320:34
#136340:34
#137320:34343424
