This file was generated by Ched 2.7.0.0.
#TITLE ""
#ARTIST ""
#DESIGNER ""
#DIFFICULTY 0
#PLAYLEVEL
#SONGID ""
#WAVE ""
#WAVEOFFSET 0
#JACKET ""
#REQUEST "ticks_per_beat 480"
#00002: 4
#BPM01: 220
#00008: 01
#TIL00: ""
#VOLUME: ""
#HISPEED 00
#MEASUREHS 00
#0841f:0011
#08418:00000013
#08415:0000000000130013
#0841a:0024
#00812:0013
#00815:00000026
#07612:0012000012000013
#0761c:1200001200000000
#07616:12
#07618:00120000
#07715:13
#07718:0013000000000000
#07712:00001313
#07717:0000000000130000
#0771b:00130000
#07710:41
#0781b:1313
#07812:0013000000130000
#07815:00130000
#07818:0000001300000000
#07817:00000013
#0801b:0000000000000013
#08118:13
#08115:0013000000000000
#0811b:00001313
#08116:0000000000130000
#08112:00130000
#08212:1313
#0821b:0013000000000000
#08218:00130000
#08215:0000001300000000
#07312:13131300
#0731b:13001313
#07319:0000001300000000
#07314:0000000000000013
#04812:0000130000000013
#04815:00000013
#04818:0000000000130000
#0481b:0013
#04615:00000013
#04612:0013130000000000
#04618:0000000000130000
#0461b:0013
#04617:00130000
#04516:0000000000001313
#0451b:2300000000001313
#04515:00130000
#04518:0013000013000000
#04514:0000000000130000
#04512:23
#04510:41
#00118:00001313
#00115:0000000000130000
#00112:1300000000000013
#0011b:0013000000000000
#0021b:0013
#00218:0000130000130000
#00215:00000013
#00212:0013000000000000
#0061b:0013000000000000
#00615:0000130000130000
#00618:00000013
#00612:0013
#0051b:1300000000000013
#00512:0013000000000000
#00515:00001313
#00518:0000000000130000
#0211b:1300000000000013
#02116:13
#02112:0000130000000013
#02117:00130000
#01912:13000013
#01917:13
#0191b:00130000
#01916:00130000
#00416:0000001300000000
#00412:0000130000000013
#0041b:0013
#00418:0000000000130000
#00415:00000013
#12815:00000013
#12812:0000130000000013
#12818:00000000000000000000130000000013
#1281b:00000013
#12418:00000013
#1241b:0000130000000013
#12415:00000000000000000000130000000013
#12412:00000013
#07212:0000000000000000000000000000000000000000000000000000000000000000260000000000000000000000000000000000000000000016000014000000000000000000000000000000000000000000130000000000000000000000000000000000000000000000000000000000000000000000000000000000000000000000
#0721a:00000000000000000000000000000000000000000000000000000000001400000000000000000000000000000000000000000000000000000000000000000000
#07218:0000000000000000000000000000000000000000000000000000000000000000260000000000000000000000000000000000000000000016000000000000000000000000000000000000000000000000000000000000000000000000000000000000000000000000000000000000000013000000000000000000000000000000
#07215:00000013
#07112:00120012
#07118:00120012
#0711c:1212
#07116:1212
#02812:1300000013000013
#02815:0013000000001300
#02818:0000130000130000
#0281b:1300001313000000
#0291b:13
#02918:0000130000000013
#02915:0013000000001300
#02912:1300002300130000
#1271b:0013130013000013
#12716:00130000
#12712:13001313
#12717:00000013
#12715:00000000000000000000000000000013
#12714:0000001300000000
#12719:0000000000130000
#12915:13
#12916:00130013
#1291b:00130013
#12917:0013
#12918:0013000000000000
#12919:0000001300000000
#12912:0013
#12914:0000000000130000
#12312:0013130013000013
#12317:00130000
#1231b:13001313
#12316:00000013
#12318:00000000000000000000000000000013
#12319:0000001300000000
#12314:0000000000130000
#12112:13131313
#1211b:13001313
#12118:0000130000130000
#12115:0013001300000000
#12117:0000000000000013
#12618:00000000000000000000000000000013
#12615:0000000000001313
#1261b:0000000000131300
#12616:00130000
#11715:0000130000130000
#11718:0013001300000000
#1171b:00000000130000001300000013000013
#11712:13001313
#11716:0000000000000013
#11912:0013001313001300
#1191b:1300130000130000
#11918:00000000000000001300000013000013
#11915:0000130000000013
#12518:13
#12517:00130013
#12512:00000000130000000000000013000013
#12516:0013
#1251b:0000000013000013
#12515:0013000000000000
#12514:0000001300000000
#12519:0000000000130000
#12215:00000000000000000000000000000013
#12218:0000000000001313
#12212:0000000000131300
#12217:00130000
#1221b:23
#12019:00000013
#12017:0000000000130000
#1201b:0000000000000013
#12012:00000013
#1181b:00000013
#11818:0000000000130013
#11812:00000013
#11815:00000000000000000000000000000013
#11614:00000013
#11616:0000000000130000
#11612:0000000000000013
#11618:00000000000000000000000000000013
#1161b:00000013
#11415:0000000000130013
#11412:23000013
#1141b:00000013
#11418:00000000000000000000000000000013
#11410:41
#11515:00000000000000001300000013000013
#11518:0000130000000013
#1151b:0013001313001300
#11512:1300130000130000
#09018:0013001300001300
#09015:0000130000130013
#09012:1313
#0901b:1313
#08912:1313
#08915:0000130000130013
#08918:0013001300001300
#0891b:1313
#01618:1300000000131300
#01612:0000131300001300
#0161b:00131300
#01615:0013000013000000
#01518:0000000000000013
#01517:1313
#01512:00000013
#01516:00130000
#0141b:13130013
#01412:00001300000000001300000013000013
#01415:0000131300000000
#01418:0000000013130000
#01417:0000000000000013
#01315:00000000000000000000000000000013
#0131b:1300000013000013
#01312:00130013
#01215:13000000000000000000130013000013
#0121b:0000131300001313
#01212:00131300
#01218:0013000013000000
#0111b:00000000000000000000000013000013
#01115:0000000000000013
#01116:1313
#01117:00130000
#01012:13130013
#0101b:00001300000000001300000013000013
#01018:0000131300000000
#01015:0000000013130000
#01016:0000000000000013
#00918:00000000000000000000000000000013
#00912:1300000013000013
#0091b:23130013
#10812:000000000014000000000000000000000000000000000000000000000000000000000000000000000000000000000000000000000000000000000000000000000000140000000000000000000000001400000000000000000000000000000000
#10814:140000000000000000000000001400000000000000000000000000000000000000000000140000000000000000000000140000000000000000000000000000000000000000000014000000000000000000000000000000000000000000000000
#10813:0000001400000000000000000000000000000000000000000014000000000000
#10818:140000000000000000000000000000000000000000000014000000000000000000000000000000000000000000000000140000000000000000000000001400000000000000000000000000000000000000000000140000000000000000000000
#1081a:000000000000000000000000000000000000140000000000000000000000001400000000000000000000000000000000000000000014000000000000000000000000000000000000000000000000000000000000000000000000000000000000
#10819:0000000000000000001400000000000000000014000000000000000000000000
#03519:00000000000000000000120000150000000000000000000000000000000000000000000000000000000000000000000000000000000000000000000000000000
#03517:0022
#0351b:22
#03513:22
#0271b:0000000000130000
#02718:00000013
#02715:0000000000000013
#01712:00130000
#01717:00130000
#0171b:13
#01716:13
#01713:00000023
#01718:00000023
#01710:41
#02018:0000001300160000
#02012:00001300000000000000001500000000
#02014:0000000000130000
#02016:13
#02015:00132200
#0201a:0022
#0361a:14000024
#03616:00140000
#03618:0014000000000000
#03614:0000001400000000
#03612:00000024
#04312:2313000023000000
#04315:0000001300002300
#0431b:2300000023130000
#04318:0000230000000013
#0611a:12
#06117:0000001200000012
#06114:0012
#06110:41
#0621a:12
#06217:00120012
#06214:0012
#0631a:1200000000000012
#06317:0000001200001200
#06314:0012
#06417:12120000
#06414:0012001212000000
#0651a:1200000000000012
#06517:0000001200001200
#06514:0012
#0661c:0000001200000000
#0661a:00001212
#06617:1200120000000012
#06614:0012000000000000
#06717:0000001200001200
#0671a:0012
#06714:1200000000000012
#06817:1200000000130000
#06814:0012
#0681a:00120000
#06816:0000000000000013
#0691b:1300001300000000
#06912:0000130000000013
#06917:00000013
#06916:0013
#0701b:13
#07012:0000001313000000
#07015:00130000
#07018:0013000000000000
#07017:0013
#07417:1313
#07419:0013001300000000
#0741b:00130000
#07416:00130012
#07412:13
#07512:12
#0751c:0012
#07518:00000012
#02512:00000000000013000000130000140000
#02513:0000000000002414
#02514:00000000000000000000000000000014
#02518:00001300000013000000000000140000
#02519:0000000000002414
#0251a:00000000000000000000000000000014
#0251b:13
#02515:13131300
#02613:1414000000000000
#02612:00140000000000000000130000000000
#02614:00000014000000000000000000000000
#02619:1414000000000000
#02618:00140000000000001300000000001300
#0261a:00000014000000000000000000000000
#02615:0000001300001300
#04114:00130000
#04119:00130000
#04118:0000000013000013
#04115:00000000000000000000001300000000
#04112:13
#04215:1313
#04218:00130013
#0421b:1313
#04212:00130013
#1131b:1313
#11318:00130000
#11317:0000000000130000
#11312:0013000000001300
#11316:0000000000000013
#11315:0000001300000000
#1301a:1200000000000012
#13016:12000000000000001200000000000012
#13018:00120000
#13014:00120000
#13116:0012001200120012
#13118:12000000000000001200000000000012
#13114:00120012
#13214:1200000000000012
#13216:00120000
#1321a:00120000
#13218:00000000000000001200000000000012
#13416:0000120000000012
#1341a:00120000
#13418:12000000000000001200000000000012
#1351a:0000001212000000
#13518:00000000120000000000120000000012
#13516:0012000000001200
#13514:1200000000000012
#13618:0000120000000012
#13614:00120000
#13616:1212
#13716:1212000012000000
#13718:0000120000120000
#1371a:0000001200001200
#13714:00000012
#05215:0016001600000000
#05212:13261326
#0521b:00130013
#05218:2626
#05112:1300000026000013
#05115:0013000000001300
#05118:2600130000130000
#0511b:0000001313000000
#03118:00000014
#03114:0000000013000014
#03112:13
#0311b:13
#03113:00130000
#0311a:00130000
#03119:0013
#03012:1314
#03018:0000130000140014
#03014:00000014
#0301b:13
#0301a:0014
#03015:0013001300000000
#03718:0013000000000000
#03712:00130000000000000000000000000000
#03713:00000013000000000000000000000000
#03715:00000000000000130000000000000000
#0371a:0000001300000000
#03714:00000000001300000000000000000000
#03719:00130000
#03717:23
#04013:00000000000000130000000000000000
#04018:00000000000013000033000000000000
#04014:00000000001300000000000000000000
#04019:0000130000330000
#04015:00000013000000000000000000000000
#0401a:00001300000000000000003300000000
#04016:00130000000000000000000000000000
#0401b:23000000000000000000000033333333
#04017:0023
#03915:00000000000000130000000000000000
#0391a:0000001300000000
#03914:00000000001300000000000000000000
#03919:00130000
#03913:00000013000000000000000000000000
#03918:0013000000000000
#03912:00130000000000000000000000000000
#03917:23
#03813:00000000000000130000000000000000
#03818:0000001300000000
#03814:00000000001300000000000000000000
#03819:00130000
#03815:00000013000000000000000000000000
#0381a:0013000000000000
#03816:00130000000000000000000000000000
#0381b:23
#05315:0013000013000000
#05319:0000000000130000
#05317:0000000000001313
#05318:00130000
#05312:2300001300001313
#0531b:2313
#0541b:0013000013000000
#05412:00131300
#05415:0000000000130000
#05418:0000001300001300
#13318:0012001200120012
#13316:12000000000000001200000000000012
#1331a:00120012
#0561b:0013
#05618:0000000000130000
#05615:00000013
#05612:0000000000000013
#06014:00230018
#06016:0024
#06019:00230000
#0601b:23
#06012:23
#05718:0013001300001300
#05715:0000130000130013
#05712:0013
#0571b:0013
#05812:13
#05818:0000001300000000
#0581b:0013
#05815:0000000000000013
#05912:0000000000001713
#0591b:0000000000000013
#05913:0000000000170000
#05914:0017
#05915:0000001700000000
#05916:00170000
#05917:0017000000000000
#0181b:0000001300000000
#01818:0013
#01812:00000013
#01815:0000000000130000
#02218:13130000
#02215:0013001300000000
#02212:0013
#0221b:0013
#0231b:00000013
#02318:0000000000000013
#02415:13130000
#02412:0013000000002300
#02418:0000001300000000
#0241b:00001323
#08512:1300000013000024
#08515:0000130000130000
#08518:0013001300001300
#0851b:1313
#0861b:13
#08618:0013001300001300
#08615:0000130000130013
#08612:0013
#0861a:0024
#08812:1313
#08818:0013001300001300
#08815:0000130000130013
#0881b:13
#0881a:0024
#08715:0000130000130013
#08718:0013001300001300
#08712:2413
#0871b:1313
#09118:0013001300001300
#09115:0000130000130013
#0911b:1313
#09112:2413
#09212:1300001300000000
#09218:13000023
#0921b:0013000000000000
#09215:00130023
#1011a:2400000000000000000000000014000000000000140000000000000000000000
#10116:00000014
#10112:2400000000000000000000000000000000140000000000000000000014000000
#10118:0000000014001400000000000000001400000000000000000000000000000000
#10119:0000000000140000000000001400140000000000000000000000000000000000
#10117:0000000000000014000000000000000000000000000000000000000000000000
#10114:0000000000000000140014000000000000000014000000000000000000000000
#10113:0000000000000000001400000000000014001400000000000000000000000000
#10115:0000000000000000000000140000000000000000000000000000000000000000
#09414:00000000000000000000000000000000000000000000000000000000000000000000000000000000000000000000000000140000001400000014000000140000
#09413:0000000000000000000000000000000000000000000000002414141414141414
#09412:00000000000000000000000000000000000000000000000000000000000000000000000000000000000000000000000000000014000000140000001400000014
#0971a:14
#09712:0018001600140016
#09718:00140000
#09716:00001414
#09710:41
#09818:14
#09812:0018000014000014
#0981a:0000140000001414
#09816:0000001400140000
#09912:0014000014001400
#0991a:0014001414000014
#09916:0000140000140000
#10012:1414240014000000
#1001a:2400141424000000
#10016:00000014
#1091a:0014000000000000
#10918:00140000
#10916:0000001400000014
#10914:00001414
#10912:0000000000140000
#09516:0014001400140000
#0951a:2400140014001414
#09512:0000140000001414
#0951f:21
#09616:1414001414000000
#0961a:0000140000141400
#09612:00140014
#10316:0014001400140000
#10312:2400140014001414
#1031a:2400140000001414
#10416:1414001414000000
#10412:0000140000141400
#1041a:00140014
#10512:14
#10516:0018000014001400
#10514:00140000
#10518:0000001600000016
#1051a:0000000000140000
#10614:14
#10616:0018001400140000
#10612:0000140000001414
#1061a:0000000014000014
#1071a:0014000014000000
#10712:0014000014000000
#10716:0000141400141414
#11018:24140000
#11013:0014
#1101a:00000014
#11014:00240000
#11019:0024
#11012:00000024
#11113:1414
#11118:00140000
#1111a:00000014
#11119:2424
#11114:00240000
#11112:00000024
#03215:00000026
#0321a:00242400
#03212:2424
#03216:24240000
#0441a:24242400
#04416:0024002400000000
#04412:24242400
#10212:23000024
#1021b:23330000
#1021a:00000024
#11217:00250000
#11218:0026
#11215:00000027
#11212:0024000000260000
#11214:0000002500000027
#1121a:24
#05056:00000014
#07256:12
#0725c:12
#07252:0000000000000000000000000000000000000000000000000000000000000000000000000000000000000000000000000000000000000066000024000000000000000000000000000000000000000000000000000000000000000000000000000000000000000000000000000000000000000000000000000000000000000000
#0725a:00000000000000000000000000000000000000000000000000000000002400000000000000000000000000000000000000000000000000000000000000000000
#07258:0000000000000000000000000000000000000000000000000000000000000000000000000000000000000000000000000000000000000056000000000000000000000000000000000000000000000000000000000000000000000000000000000000000000000000000000000000000000000000000000000000000000000000
#12056:00130000
#12052:00000013
#11852:00130013
#11657:00130000
#1165b:00000013
#1145b:00130013
#11452:33
#0155b:00130000
#01552:00000013
#01556:00630000
#01557:53
#01357:00130000
#01352:00530013
#0135b:63
#01152:00130000
#0115b:00000013
#01157:00530000
#01156:63
#00956:00130000
#0095b:43630013
#00952:53
#0175b:2313
#01756:2313
#01752:00530000
#01757:00530000
#0215b:6343
#02156:6343
#02152:00230000
#02157:00230000
#02053:00000013
#0205a:00006212
#02058:0000000000260000
#02052:00000000000000000000002500000000
#02054:0000000000630000
#01952:2313
#01957:2313
#0195b:00630000
#01956:00630000
#1025b:0043
#10252:00003334
#1025a:00000044
#0445a:00000014
#04452:00000014
#04552:13
#0455b:0000000000000063
#04556:0000000000000013
#04555:00630000
#02952:0000001300000000
#1225b:43
#12252:00000013
#12257:00130000
#03255:00000056
#0325a:00144400
#03252:1434
#03256:14140000
#02553:0000000000006464
#02559:0000000000006464
#02552:00000000000000000000000000240000
#02554:00000000000000000000000000000024
#02558:00000000000000000000000000240000
#0255a:00000000000000000000000000000024
#05158:46
#05152:0036
#05258:4646
#05252:00360036
#0535b:13
#05357:0000000000000013
#05352:0000000000000053
#0245b:00000013
#02452:00000013
#0845a:0044
#08552:1300000053000034
#0855b:6313
#08555:0000000000230000
#08558:0023000000000000
#0865a:0044
#08752:34
#0875b:6313
#08758:0023000000000000
#0885a:0044
#08852:13
#09152:3453
#0915b:63
#09158:0023000000000000
#09155:0000000000230000
#09258:53000013
#09255:00630013
#0925b:0023000000000000
#09252:0000002300000000
#0955a:1400000000000064
#09552:0000540000000014
#09556:0000002400000000
#10352:1400000000000054
#1035a:0000640000000014
#10356:0000002400000000
#03652:00000014
#0365a:00000014
#09453:0000000000000000000000000000000000000000000000005454545454545454
#09454:00000000000000000000000000000000000000000000000000000000000000000000000000000000000000000000000000240000002400000024000000240000
#09452:00000000000000000000000000000000000000000000000000000000000000000000000000000000000000000000000000000024000000240000002400000024
#11058:44
#11054:00340000
#11059:0044
#11052:00000034
#11257:00450000
#11258:0046
#11255:00000047
#11252:0034000000360000
#11254:0000003500000037
#1125a:44
#11159:4444
#11154:00340000
#11152:00000034
#0775b:00630000
#07752:00000053
#07857:00000053
#0815b:00000063
#08152:00530000
#04852:00530000
#04652:00530000
#00456:0000002300000000
#00452:00530000
#07152:00520052
#07158:00520052
#0715c:6262
#07156:6262
#1275b:00130000
#12752:00000013
#12956:00130000
#1295b:00000013
#1285b:00000013
#12852:00130000
#12352:00130000
#1235b:00000013
#1265b:00000013
#12656:00130000
#11755:00130000
#1175b:00000013
#1215b:00000063
#12152:00000013
#12158:00130000
#12157:0000000000000023
#1195b:00130000
#11958:00000013
#12557:00130000
#12552:00000013
#12452:00000013
#1245b:00130000
#11552:00130000
#11555:00000013
#08952:1353
#0895b:6313
#08955:0000000000230000
#08958:0023000000000000
#09052:1353
#0905b:0013
#09055:0000000000230000
#0165b:00130000
#01652:00000013
#01452:00000013
#0145b:00130000
#01252:00130000
#0125b:00000013
#0105b:00000013
#01052:00130000
#10852:000000000024000000000000000000000000000000000000000000000000000000000000000000000000000000000000000000000000000000000000000000000000540000000000000000000000002400000000000000000000000000000000
#10854:640000000000000000000000002400000000000000000000000000000000000000000000000000000000000000000000000000000000000000000000000000000000000000000024000000000000000000000000000000000000000000000000
#10853:0000006400000000000000000000000000000000000000000054000000000000
#10858:000000000000000000000000000000000000000000000024000000000000000000000000000000000000000000000000540000000000000000000000002400000000000000000000000000000000000000000000000000000000000000000000
#1085a:000000000000000000000000000000000000640000000000000000000000002400000000000000000000000000000000000000000024000000000000000000000000000000000000000000000000000000000000000000000000000000000000
#10859:0000000000000000006400000000000000000054000000000000000000000000
#03559:00000000000000000000520000250000000000000000000000000000000000000000000000000000000000000000000000000000000000000000000000000000
#02653:6464000000000000
#02652:00240000000000000000000000000000
#02654:00000024000000000000000000000000
#02659:6464000000000000
#02658:00240000000000000000000000001300
#0265a:00000024000000000000000000000000
#1135b:4363
#11358:00430000
#11357:0000000000230000
#11352:0033000000005300
#11356:0000000000000023
#11355:0000003300000000
#07656:62
#07652:0022000000000000
#07658:00520000
#0765c:0000002200000000
#07452:53
#07456:00230000
#07352:0053
#0735b:63
#06857:0000000000530000
#06956:0063
#07057:0053
#07052:0053
#06054:00000018
#02252:0053
#0225b:0063
#0975a:44
#09752:0038003600340036
#09758:00440000
#09756:00004444
#09858:44
#09852:0038000000000000
#0985a:00640000
#09856:0000002400000000
#10056:00000014
#10552:34
#10556:0048000034003400
#10554:00340000
#10558:0000004600000046
#1055a:0000000000440000
#10654:34
#10656:0048002400000000
#10652:00540000
#09656:2400002400000000
#09652:00540000
#10456:2400002400000000
#1045a:00640000
#10158:0000000054005400000000000000002400000000000000000000000000000000
#10159:0000000000240000000000005400540000000000000000000000000000000000
#10157:0000000000000024000000000000000000000000000000000000000000000000
#10154:0000000000000000640064000000000000000024000000000000000000000000
#10153:0000000000000000002400000000000064006400000000000000000000000000
#10155:0000000000000000000000240000000000000000000000000000000000000000
#10152:0000000000000000000000000000000000240000000000000000000000000000
#1015a:0000000000000000000000000024000000000000000000000000000000000000
#001350:00132300
#0013b0:0000000000000013
#0023b0:0023000000000000
#002350:00132300
#003340:13
#003360:0023000000000000
#0033b1:0013000000000000
#003391:00230000
#003320:00130000
#003340:0000002300000000
#003391:0000001300000000
#003371:0023
#003340:0013
#003320:0000000000230000
#003371:0000000000130000
#003391:00000023
#003360:00000013
#003340:0000000000000023
#003391:0000000000000013
#0043b1:23
#004320:13
#004340:0023000000000000
#004391:0013000000000000
#004371:00230000
#004320:00132300
#004360:0000005300000000
#005380:00132300
#005320:0000000000000013
#006320:0023000000000000
#006380:00132300
#007320:13
#007340:0023000000000000
#007391:0013000000000000
#007371:00230000
#007340:00130000
#007320:0000002300000000
#007371:0000001300000000
#007391:0023
#007340:0013
#007360:0000000000230000
#0073b1:0000000000130000
#007391:00000023
#007360:00000013
#007340:0000000000000023
#007391:0000000000000013
#0083b1:23
#008340:13
#008360:0023000000000000
#0083b1:0013000000000000
#008391:00230000
#008340:00130000
#008320:0000002300000000
#008371:0000001300000000
#008391:0023
#009321:13
#009361:00230000
#0093b0:00130000
#009370:0023
#009360:0000000000132300
#011360:13
#011320:00230000
#011371:00130000
#0113b1:0023
#011321:0000000000132300
#0133b1:13
#013371:00230000
#013320:00130000
#013360:0023
#013370:0000000000132300
#015370:13
#0153b0:00230000
#015361:00130000
#015321:0023
#0153b1:0000000000132300
#0173b1:1323
#017371:00330000
#017360:1323
#017320:00330000
#017330:00000013
#018330:00230000
#017381:00000013
#0183a1:000000000000000000000000000000000000000000000000000000000000000000000000000000000000000000000000000000000000000000000000000000000000000000000000000000000000000000000000000000000000000000000000000000000000000000000000000000000000000000000000000000000000000000000000000000000000000000000000000000000000000000000000000000000000000000000000000000000000000000000000000000000000000000000000000000000000000000000000000000000000000000000000000000000000000000000000000000000000000000000053000000000000000000000000000000000000000000000000000000000000000000000000000000000000000000000000000000000000000000000000000000000000000000000000000000000000000000000000000000000000000000000000000000000000000000000000000000000000000000000000000000000000000000000000000000000000000000000000000000000000000000000000000000000000000000000000000000000000000000000000000000000000000000000000000000000000000000000000000000000000000000000000000000000000000000000000000000000000000000000000000000000000000000000000000000000000000000000000000000000000000000000000000000000000000000000000000000000000000000000000000000000000000000000000000000000000000000000000000000000000000000000000000000000000000000000000000000000000000000000000000000000000000000000000000000000000000000000000000000000000000000000000000000000000000000000000000000000000000000000000000000000000000000000000000000000000000000000000000000000000000000000000000000000000000000000000000000000000000000000000000000000000000000000000000000000000000000000000000000000000000000000000000000000000000000000000000000000000000000000000000000000000000000000000000000000000000000000000000000000000000000000000000000000000000000000000000000000000000000000000000000000000000000000000000000000000000000000000000000000000000000000000000000000000000000000000000000000000000000000000000000000000000000000000000000000000000000000000000000000000000000000000000000000000000000000000000000000000000000000000000000000000000000000000000000000000000000000000000000000000000000000000000000000000000000000000000000000000000000000000000000000000000000000000000000000000000000000000000000000000000000000000000000000000000000000000000000000000000000000000000000000000000000000000000000000000000000000000000000000000000000000000000000000000000000000000000000000000000000000000000000000000000000000000000000000000000000000000000000000000000000000000000000000000000000000000000000000000000000000000000000000000000000000000000000000000000000000000000000000000000000000000000000000000000000000000000000000000000000000000000000000000000000000000000000000000000000000000000000000000000000000000000000000000000000000000000000000000000000000000000000000000000000000000000000000000000000000000000000000000000000000000000000000000000000000000000000000000000000000000000000000000000000000000000000000000000000000000000000000000000000000000000000000000000000000000000000000000000000000000000000000000000000000000000000000000000000000000000000000000000000000000000000000000000000000000000000000000000000000000000000000000000000000000000000000000000000000000000000000000000000000000000000000000000000000000000000000000000000000000000000000000000000000000000000000000000000000000000000000000000000000000000000000000000000000000000000000000000000000000000000000000000000000000000000000000000000000000000000000000000000000000000000000000000000000000000000000000000000000000000000000000000000000000000000000000000000000000000000000000000000000000000000000000000000000000000000000000000000000000000000000000000000000000000000000000000000000000000000000000000000000000000000000000000000000000000000000000000000000000000000000000000000000000000000000000000000000000000000000000000000000000000000000000000000000000000000000000000000000000000000000000000000000000000000000000000000000000000000000000000000000000000000000000000000000000000000000000000000000000
#018371:0056260000000000
#019321:1323
#019361:00330000
#019370:1323
#0193b0:00330000
#019370:00000013
#0203b0:23
#020350:000000000000000000000000000000000000000000000000000000000000000000000000000000000000000000000000000000000000000000000000000000000000000000000000000000000000000000000000000000000000000000000000000000000000000000000000000000000000000000000000000000000000000000000000000000000000000000000000000000000000000000000000000000000000000000000000000000000000000000000000000000000000000000000000000000000000000000000000000000000000000000000000000000000000000000000000000000000000000000000000000000000000000000000000000000000000000000000000000000000000000000000000000000000000000000000000000000000000000000000000000000000000000000000000000000000000000000000000000000000000000000000000000000000000000000000000000000000000000000000000000000000000000000000000000000000000000000000000000000000000000000000000000000000000000000000000000000000000000000000000000000000000000000000000000000000000000000000000000000000000000000000000000000000000000000000000000000000000000000000000000000000000000000000000000000000000000000000000000000000000000000000000000000000000000000000000000000000000000000000000000000000000000000000000000000000000000000000000000000000000000000000000000000000000000000000000000000000000000000000000000000000000000000000000000000000000000000000000000000000000000000000000000000000000000000000000000000000000000000000000000000000000000000000000000000000000000000000000000000000000000000000000000000000000000000000000000000000000000000000000000000000000000000000000000000000000000000000000000000000000000000000000000000000000000000000000000000000000000000000000000000000000000000000000000000000000000000000000000000000000000000000000000000000000000000000000000000000000000000000000000000000000000000000000000000000000000000000000000000000000000000000000000000000000000000000000000000000000000000000000000000000000000000000000000000000000000000000000000000000000000000000000000000000000000000000000000000000000000000000000120000000000000000000000000000000000000000000000000000000000000000000000000000000000000000000000000000000000000000000000000000000000000000000000000000000000000000000000000000000000000000000000000000000000000000000000000000000000000000000000000000000000000000000000000000000000000000000000000000000000000000000000000000000000000000000000000000000000000000000000000000000000000000000000000000000000000000000000000000000000000000000000000000000000000000000000000000000000000000000052000000000000000000000000000000000000000000000000000000000000000000000000000000000000000000000000000000000000000000000000000000000000000000000000000000000000000000000000000000000000000000000000000000000000000000000000000000000000000000000000000000000000000000000000000000000000000000000000000000000000000000000000000000000000000000000000000000000000000000000000000000000000000000000000000000000000000000000000000000000000000000000000000000000000000000000000000000000000000000000000000000000000000000000000000000000000000000000000000000000000000000000000000000000000000000000000000000000000000000000000000000000000000000000000000000000000000000000000000000000000000000000000000000000000000000000000000000000000000000000000000000000000000000000000000000000000000000000000000000000000000000000000000000000000000000000000000000000000000000000000000000000000000000000000000000000000000000000000000000000000000000000000000000000000000000000000000000000000000000000000000000000000000000000000000000000000000000000000000000000000000000000000000000000000000000000000000000000000000000000000000000000000000000000000000000000000000000000000000000000000000000000000000000000000000000000000000000000000000000000000000000000000000000000000000000000000000000000000000000000000000000000000000000000000000000000000000000000000000000000000000000000000000000000000000000000000000000000000000000000000000000000000000000000000000000000000000000000000000000000000
#020340:0000000000530000
#020320:00000000000000000000005500000000
#020330:00000023
#0203a1:00001222
#020381:0000000000560000
#0213b1:1323
#021371:00330000
#021360:1323
#021320:00330000
#0223b0:0013
#022380:00000023
#022321:0013
#022351:00000023
#023321:0013230000000000
#0233b0:0000132300000000
#023341:0000001323000000
#023390:0000000013230000
#023361:0000000000132300
#025331:0000000000001454
#025321:00000000000000000000000000540000
#025341:00000000000000000000000000000054
#026331:5454240000000000
#026321:00540000000000000000000000000000
#026341:00000054000000000000000000000000
#025390:0000000000001454
#025380:00000000000000000000000000540000
#0253a0:00000000000000000000000000000054
#026390:5454240000000000
#026380:00540000000000000000000000000000
#0263a0:00000054000000000000000000000000
#027350:0013230000000000
#0273b1:0013230000000000
#027381:0000001323000000
#027320:0000001323000000
#0293b0:0000001300230000
#032350:00000016
#034370:0022
#0353b0:12
#035390:000000000000000000000000000000000000000000000000000000000000000000000000000000000000000000000000000000000000000000000000000000000000000000000000000000000000000000000000000000000000000000000000000000000000000000000000000000000000000000000000000000000000000000000000000000000000000000000000000000000000000000000000000000000000000000000000000000000000000000000000000000000000000000000000000000000000000000000000000000000000000000000000000000000000000000000000000000000000000000000000000000000000000000000000000000000000000000000000000000000000000000000000000000000000000000000000000000000000000000000000520000000000000000000000000000000000000000000000000000000000000000000000000000000000000000000000000000000000000000000000000000000000000000000000000000000000000000000000000000000000550000000000000000000000000000000000000000000000000000000000000000000000000000000000000000000000000000000000000000000000000000000000000000000000000000000000000000000000000000000053220000000000000000000000000000000000000000000000000000000000000000000000000000000000000000000000000000000000000000000000000000000000000000000000000000000000000000000000000000000000000000000000000000000000000000000000000000000000000000000000000000000000000000000000000000000000000000000000000000000000000000000000000000000000000000000000000000000000000000000000000000000000000000000000000000000000000000000000000000000000000000000000000000000000000000000000000000000000000000000000000000000000000000000000000000000000000000000000000000000000000000000000000000000000000000000000000000000000000000000000000000000000000000000000000000000000000000000000000000000000000000000000000000000000000000000000000000000000000000000000000000000000000000000000000000000000000000000000000000000000000000000000000000000000000000000000000000000000000000000000000000000000000000000000000000000000000000000000000000000000000000000000000000000000000000000000000000000000000000000000000000000000000000000000000000000000000000000000000000000000000000000000000000000000000000000000000000000000000000000000000000000000000000000000000000000000000000000000000000000000000000000000000000000000000000000000000000000000000000000000000000000000000000000000000000000000000000000000000000000000000000000000000000000000000000000000000000000000000000000000000000000000000000000000000000000000000000000000000000000000000000000000000000000000000000000000000000000000000000000000000000000000000000000000000000000000000000000000000000000000000000000000000000000000000000000000000000000000000000000000000000000000000000000000000000000000000000000000000000000000000000000000000000000000000000000000000000000000000000000000000000000000000000000000000000000000000000000000000000000000000000000000000000000000000000000000000000000000000000000000000000000000000000000000000000000000000000000000000000000000000000000000000000000000000000000000000000000000000000000000000000000000000000000000000000000000000000000000000000000000000000000000000000000000000000000000000000000000000000000000000000000000000000000000000000000000000000000000000000000000000000000000000000000000000000000000000000000000000000000000000000000000000000000000000000000000000000000000000000000000000000000000000000000000000000000000000000000000000000000000000000000000000000000000000000000000000000000000000000000000000000000000000000000000000000000000000000000000000000000000000000000000000000000000000000000000000000000000000000000000000000000000000000000000000000000000000000000000000000000000000000000000000000000000000000000000000000000000000000000000000000000000000000000000000000000000000000000000000000000000000000000000000000000000000000000000000000000000000000000000000000000000000000000000000000000000000000000000000000000000000000000000000000000000000000000000000000000000000000000000000000000000000000000000000000000000000000000000000000000000
#035331:12
#035351:00220000
#035371:00001222
#036321:00001424
#0363a0:00001424
#0373b0:0013
#0373a0:00000000000000000033000000000000
#037390:0000000000330000
#037380:00000000000000000000003300000000
#037370:00000023
#037321:00000013
#037331:00000000000000000000000000330000
#037341:0000000000000033
#037351:00000000000000000000000000000033
#038361:23
#038371:0013
#038381:00000000000000000033000000000000
#038391:0000000000330000
#0383a1:00000000000000000000003300000000
#0383b1:00000023
#038360:00000013
#038350:00000000000000000000000000330000
#038340:0000000000000033
#038330:00000000000000000000000000000033
#039320:23
#0393b0:0013
#0393a0:00000000000000000033000000000000
#039390:0000000000330000
#039380:00000000000000000000003300000000
#039370:00000023
#039321:00000013
#039331:00000000000000000000000000330000
#039341:0000000000000033
#039351:00000000000000000000000000000033
#040361:23
#040371:0013
#040381:00000000000000000033000000000000
#040391:0000000000330000
#0403a1:00000000000000000000003300000000
#0403b1:00000000000000000000000033333333
#0413b1:23
#0443a1:00000000000000001400005424000000
#044371:000000000000000000000000000000000000000000000000000000000000000000000000000000000000000000000000000000000000000000000000000000000000000000000000000000000000000000000000000000000000000000000000000000000000000000000000000000000000000000000000000000000000000000000000000000000000000000000000000000000000000000000000000000000000000000000000000000000000000000000000000000000000000000000000000000000000000000000000000000000000000000000000000000000000000000000000000000000000000000000000000000000000000000000000000000000000000000000000000000000000000000000000000000000000000000000000000000000000000000000000000000000000000000000000000000000000000000000000000000000000000000000000000000000000000000000000000000000000000000000000000000000000000000000000000000000000000000000000000000000000000000000000000000000000000000000000000000000000000000000000000000000000000000000000000000000000000000000000000000000000000000000000000000000000000000000000000000000000000000000000000000000000000000000000000000000000000000000000000000000000000000000000000000000000000000000000000000000000000000000000000000000000000000000000000000000000000000000000000000000000000000000000000000000000000000000000000000000000000000000000000000000000000000000000000000000000000000000000000000000000000000000000000000000000000000000000000000000000000000000000000000000000000000000000000000000000000000000000000000000000000000000000000000000000000000000000000000000000000000000000000000000000000000000000000000000000000000000000000000000000000000000000000000000000000000000000000000000000000000000000000000000000000000000000000000000000000000000000000000000000000000000000000000000000000000000000000000000000000000000000000000000000000000000000000000000000000000000000000000000000000000000000000000000000000000000000000000000000000000000000000000000000000000000000000000000000000000000000000000000000000000000000000000000000000000000000000000000000000000000000000000000000000000000000000000000000000000000000000000000000000000000000000000000000000000000000000000000000000000000000000000000000000000000000000000000000000000000000000000000000000000000000000000000000000000000000000000000000000000000000540000000000000000000000000000000000000000000000000000000000000000000000000000000000000000000000000000000000000000000000000000000000000000000000000000000000000000000000000000000000000000000000000000000000000000000000000000000000000000000054000000000000000000000000000000000000000000000000000000000000000000000000000000000000000000000000000000000000000000000000000000000000000000000000000000000000000000000000000000000000000000000000000000000000000000000000000000000000000000000000000000000000000000000000000000000000000000000000000000000000000000000000000000000000000000000000000000000000000000000000000000000000000000000000000000000000000000000000000000000000000000000000000000000000000000000000000000000000000000000000000000000000000000000000000000000000000000000000000000000000000000000000000000000000000000000000000000000000000000000000000000000000000000000000000000000000000000000000000000000000000000000000000000000000000000000000000000000000000000000000000000000000000000000000000000000000000000000000000000000000000000000000000000000000000000000000000000000000000000000000000000000000000000000000000000000000000000000000000000000000000000000000000000000000000000000000000000000000000000000000000000000000000000000000000000000000000000000000000000000000000000000000000000000000000000000000000000000000000000000000000000000000000000000000000000000000000000000000000000000000000000000000000000000000000000000000000000000000000000000000000000000000000000000000000000000000000000000000000000000000000000000000000000000000000000000000000000000000000000000000000000000000000000000000000000000000000000000000000000000000000000000000000000000000000000000000000000000000000000000000
#044320:00000000000000001400005424000000
#044350:000000000000000000000000000000000000000000000000000000000000000000000000000000000000000000000000000000000000000000000000000000000000000000000000000000000000000000000000000000000000000000000000000000000000000000000000000000000000000000000000000000000000000000000000000000000000000000000000000000000000000000000000000000000000000000000000000000000000000000000000000000000000000000000000000000000000000000000000000000000000000000000000000000000000000000000000000000000000000000000000000000000000000000000000000000000000000000000000000000000000000000000000000000000000000000000000000000000000000000000000000000000000000000000000000000000000000000000000000000000000000000000000000000000000000000000000000000000000000000000000000000000000000000000000000000000000000000000000000000000000000000000000000000000000000000000000000000000000000000000000000000000000000000000000000000000000000000000000000000000000000000000000000000000000000000000000000000000000000000000000000000000000000000000000000000000000000000000000000000000000000000000000000000000000000000000000000000000000000000000000000000000000000000000000000000000000000000000000000000000000000000000000000000000000000000000000000000000000000000000000000000000000000000000000000000000000000000000000000000000000000000000000000000000000000000000000000000000000000000000000000000000000000000000000000000000000000000000000000000000000000000000000000000000000000000000000000000000000000000000000000000000000000000000000000000000000000000000000000000000000000000000000000000000000000000000000000000000000000000000000000000000000000000000000000000000000000000000000000000000000000000000000000000000000000000000000000000000000000000000000000000000000000000000000000000000000000000000000000000000000000000000000000000000000000000000000000000000000000000000000000000000000000000000000000000000000000000000000000000000000000000000000000000000000000000000000000000000000000000000000000000000000000000000000000000000000000000000000000000000000000000000000000000000000000000000000000000000000000000000000000000000000000000000000000000000000000000000000000000000000000000000000000000000000000000000000000000000000000000000054000000000000000000000000000000000000000000000000000000000000000000000000000000000000000000000000000000000000000000000000000000000000000000000000000000000000000000000000000000000000000000000000000000000000000000000000000000000000000000000000540000000000000000000000000000000000000000000000000000000000000000000000000000000000000000000000000000000000000000000000000000000000000000000000000000000000000000000000000000000000000000000000000000000000000000000000000000000000000000000000000000000000000000000000000000000000000000000000000000000000000000000000000000000000000000000000000000000000000000000000000000000000000000000000000000000000000000000000000000000000000000000000000000000000000000000000000000000000000000000000000000000000000000000000000000000000000000000000000000000000000000000000000000000000000000000000000000000000000000000000000000000000000000000000000000000000000000000000000000000000000000000000000000000000000000000000000000000000000000000000000000000000000000000000000000000000000000000000000000000000000000000000000000000000000000000000000000000000000000000000000000000000000000000000000000000000000000000000000000000000000000000000000000000000000000000000000000000000000000000000000000000000000000000000000000000000000000000000000000000000000000000000000000000000000000000000000000000000000000000000000000000000000000000000000000000000000000000000000000000000000000000000000000000000000000000000000000000000000000000000000000000000000000000000000000000000000000000000000000000000000000000000000000000000000000000000000000000000000000000000000000000000000000000000000000000000000000000000000000000000000000000000000000000000000000000000000000000000000000000000
#045350:00130000
#045320:0023
#0453b0:0000000000000013
#046370:0023000000000000
#046320:00130000
#046360:0023
#047320:1626000000000000
#047381:0016260000000000
#047340:0000142400000000
#047381:0000001424000000
#047360:0000000012220000
#047381:0000000000122200
#047340:0000000000001424
#047381:0000000000000014
#048381:24
#048320:1626000000000000
#048381:0016260000000000
#048320:00130000
#048360:0023
#0493a0:0012220000000000
#049341:0000122200000000
#049380:0000001222000000
#049321:0000000012220000
#0493c0:0000000000122200
#049361:0000000000001222
#0493a0:0000000000000012
#0503a0:22
#050321:1222000000000000
#0503c0:0012220000000000
#050341:0000122200000000
#0503a0:0000001222000000
#050361:00001424
#053321:0000000000000013
#054361:0023000000000000
#0553a1:12
#055381:0026000000000000
#055320:0016000000000000
#055340:00220000
#055381:0000162200000000
#055320:0000001600000000
#055360:0022
#0553c1:0012
#055381:0000000000260000
#055360:0000000000120000
#055320:00000026
#055381:00000016
#0553c1:0000000000000022
#055320:0000000000000016
#056320:22
#056381:1226000000000000
#056320:0012260000000000
#056381:00160000
#0563a1:0000002200000000
#056340:0000001200000000
#056320:0026
#0583b0:13000023000000000000000000000000
#058351:00000013000023000000000000000000
#058321:00000000000000001300002300000000
#058380:00000000000000000000001300002300
#068370:0000000000130000
#0683b0:0000000000000023
#069360:0013
#069320:00000023
#070320:0013
#070360:00000023
#070371:0013
#0703b1:00000023
#071361:1200005232000052
#071321:0052320000523200
#072361:22
#0713c0:1200005232000052
#071380:0052320000523200
#0723c0:22
#072320:00000000000000000000000000000000000000000000000000000000000000000000000000000000000000000000000000000000000000000000000000000000000000000000000000000000000000000000000000000000000000000000000000000000000000000000000000000000000000000000000000000000000000000000000000000000000000000000000000000000000000000000000000000000000000000000000000000000000000000000000000000000000000000000000000000000000000000000000000000000000000000000000000000000000000000000000000000000000000000000000000000000000000000000000000000000000000000000000000000000000000000000000000000000000000000000000000000000000000000000000000000000000000000000000000000000000000000000000000000000000000000000000000000000000000000000000000000000000000000000000000000000000000000000000000000000000000000000000000000000000000000000000000000000000000000000000000000000000000000000000000000000000000000000000000000000000000000000000000000000000000000000000000000000000000000000000000000000000000000000000016005c000000000000000000000000000000000000000000000000000000000000000000000000000000000000000000000000000000000000000000000000000000000000000000000000000000000000000000000000000000000000000000000000000000000000000000000000000000000000000000000000000000000000000000000000000000000000000000000000000000000000000000000000000000000000000000000000000000000000000000000000000000000000000000000000000000000000000000000000000000000000000000000000000000000000000000000000000000000000000000000000000000000000000000000000000000000000000000000000000000000000000000000000000000000000000000000000000000000000005c00560000000000000000000000000000000000000000000000000000000000000000000000000000000000000000560000000000000000000000000000000000000000000000000000000000000000000000000000000000000000540000000000000000000000000000000000000000000000000000000000000000000000000000000000000000560000000000000000000000000000000000000000000000000000000000000000000000000000000000000000260000000000000000000000000000000000000000000000000000000000000000000000000000000000000000000000000000000000000000000000000000000000000000000000000000000000000000000000000000000000000000000000000000000000000000000000000000000000000000000000000000000000000000000000000000000000000000000000000000000000000000000000000000000000000000000000000000000000000000000000000000000000000000000000000000000000000000000000000000000000000000000000000000000000000000000000000000000000000000000000000000000000000000000000000000000000000000000000000000000000000000000000000000000000000000000000000000000000000000000000000000000000000000000000000000000000000000000000000000000000000000000000000000000000000000000000000000000000000000000000000000000000000000000000000000000000000000000000000000000000000000000000000000000000000000000000000000000000000000000000000000000000000000000000000000000000000000000000000000000000000000000000000000000000000000000000000000000000000000000000000000000000000000000000000000000000000000000000000000000000000000000000000000000000000000000000000000000000000000000000000000000000000000000000000000000000000000000000000000000000000000000000000000000000000000000000000000000000000000000000000000000000000000000000000000000000000000000000000000000000000000000000000000000000000000000000000000000000000000000000000000000000000000000000000000000000000000000000000000000000000000000000000000000000000000000000000000000000000000000000000000000000000000000000000000000000000000000000000000000000000000000000000000000000000000000000000000000000000000000000000000000000000000000000000000000000000000000000000000000000000000000000000000000000000000000000000000000000000000000000000000000000000000000000000000000000000000000000000000000000000000000000000000000000000000000000000000000000000000000000000000000000000000000000000000000000000000000000000000000000000000000000000000000000000000000000000000000000000000000000
#072381:0000000000000000000000000000000000000000000000000000000000000000160000000000000000000000000000000000000056000056000000000056000026000000000000000000000000000000000000000000000000000000000000000000000000000000000000000000000000000000000000000000000000000000
#072321:000000000000000000000000000000000000000000000000000000000000000000000000000000000000000000000000000000000000000000000000000000000000000000000000000000000000000000000000000000000000000000000000000000000000000000000000000000000000000000000000000000000000000000000000000000000000000000000000000000000000000000000000000000000000000000000000000000000000000000000000000000000000000000000000000000000000000000000000000000000000000000000000000000000000000000000000000000000000000000000000000000000000000000000000000000000000000000000000000000000000000000000000000000000000000000000000000000000000000000000000000000000000000000000000000000000000000000000000000000000000000000000000000000000000000000000000000000000000000000000000000000000000000000000000000000000000000000000000000000000000000000000000000000000000000000000000000000000000000000000000000000000000000000000000000000000000000000000000000000000000000000000000000000000000000000000000000000000000000000000000005c0000000000000000000000000000000000000000000000000000000000000000000000000000000000000000000000000000000000000000000000000000000000000000000000000000000000000000000000000000000000000000000000000000000000000000000000000000000000000000000000000000000000000000000000000000000000000000000000000000000000000000000000000000000000000000000000000000000000000000000000000000000000000000000000000000000000000000000000000000000000000000000000000000000000000000000000000000000000000000000000000000000000000000000000000000000000000000000000000000000000000000000000000000000000000000000000000000000000000000005c000000000000000000000000000000000000000000000000000000000000000000000000000000000000000000000000000000000000000000000000000000000000000000000000000000000000000000000000000000000000000000000000000000000000000000000000000000000000000000000000000000000000000000000000000000000000000000000000000000000000000000000000000000000000000000000000000000000000000000000000000000000000000000000000000000000000000000000000000000000000000000000000000000000000000000000000000000000000000000000000000000000000000000000000000000000000000000000000000000000000000000000000000000000000000000000000000000000000000000000000000000000000000000000000000000000000000000000000000000000000000000000000000000000000000000000000000000000000000000000000000000000000000000000000000000000000000000000000000000000000000000000000000000000000000000000000000000000000000000000000000000000000000000000000000000000000000000000000000000000000000000000000000000000000000000000000000000000000000000000000000000000000000000000000000000000000000000000000000000000000000000000000000000000000000000000000000000000000000000000000000000000000000000000000000000000000000000000000000000000000000000000000000000000000000000000000000000000000000000000000000000000000000000000000000000000000000000000000000000000000000000000000000000000000000000000000000000000000000000000000000000000000000000000000000000000000000000000000000000000000000000000000000000000000000000000000000000000000000000000000000000000000000000000000000000000000000000000000000000000000000000000000000000000000000000000000000000000000000000000000000000000000000000000000000000000000000000000000000000000000000000000000000000000000000000000000000000000000000000000000000000000000000000000000000000000000000000000000000000000000000000000000000000000000000000000000000000000000000000000000000000000000000000000000000000000000000000000000000000000000000000000000000000000000000000000000000000000000000000000000000000000000000000000000000000000000000000000000000000000000000000000000000000000000000000000000000000000000000000000000000000000000000000000000000000000000000000000000000000000000000000000000000000000000000000000000000000000000000000000000000000000000000000000000000000000000000000000000000000000000000000000000000000000000000000000000000000000000000000000000
#0723a1:00000000000000000000000000000000000000000000000000000000005400000000000000000000000000000000000000000000000000000000000000000000
#0733b1:13
#073371:00230000
#073321:0013
#073361:00000023
#074321:1323
#074361:00530000
#0743c1:00000012
#075381:32
#0753c1:00220000
#075320:00120022
#075360:0032
#076360:12220000
#076320:0052000000000000
#076381:00122200
#0763c1:0000005200000000
#0773b1:00130000
#077371:0023
#077321:00000013
#078361:23
#078371:00000013
#0793b1:23
#079320:12
#079360:00220000
#079381:00122200
#079320:0012
#079360:00000022
#0793c1:00000012
#080381:22
#080360:12220000
#0803c1:00120000
#080381:0022
#080320:0012
#080360:0000000000000022
#081320:00130000
#081360:0023
#0813b0:00000013
#082370:23
#082380:00000012
#0833c0:22
#083321:12220000
#083380:00120000
#0833c0:0022
#083361:0012
#083321:00000022
#0833c0:00000012
#0843c0:22
#084361:12
#084321:0022
#0853b1:13230000
#085381:0053000000000000
#085321:00001323
#085351:0000000000530000
#0873b1:13230000
#087381:0053000000000000
#0893b1:13230000
#089381:0053000000000000
#089321:00001323
#089351:0000000000530000
#090321:00001323
#090351:0000000000530000
#0913b1:13230000
#091381:0053000000000000
#091321:00001323
#091351:0000000000530000
#092381:13230000
#0923b1:0053000000000000
#092350:00133323
#092320:0000005300000000
#092381:00001323
#094331:0000000000000000000000000000000000000000000000001454545454545454
#094341:00000000000000000000000000000000000000000000000000000000000000000000000000000000000000000000000000540000005400000054000000540000
#094321:00000000000000000000000000000000000000000000000000000000000000000000000000000000000000000000000000000054000000540000005400000054
#095331:24
#095321:00142400
#095361:0000005400000000
#0953a1:0000000000000014
#096361:54
#0963a1:0024000000000000
#096321:00142400
#096361:0000005400000000
#0983a1:00142400
#098361:0000005400000000
#101381:00001454240000000000000000000000
#101391:0000000000540000000000000000000000000000000000000000000000000000
#101371:0000000000000054000000000000000000000000000000000000000000000000
#101340:00000000145424000000000000000000
#101330:0000000000000000005400000000000000000000000000000000000000000000
#101350:0000000000000000000000540000000000000000000000000000000000000000
#101391:00000000000014542400000000000000
#1013a1:0000000000000000000000000054000000000000000000000000000000000000
#101381:0000000000000000000000000000005400000000000000000000000000000000
#101330:00000000000000001454240000000000
#101320:0000000000000000000000000000000000540000000000000000000000000000
#101340:0000000000000000000000000000000000000054000000000000000000000000
#102320:13
#1023b0:0023
#1023b1:13330000
#102321:0023
#1033a1:00142400
#103361:0000005400000000
#103321:0000000000000014
#104361:54
#104321:0024000000000000
#1043a1:00142400
#104361:0000005400000000
#106321:00142400
#106361:0000005400000000
#108341:140000000000000000000000005400000000000000000000000000000000000000000000000000000000000000000000000000000000000000000000000000000000000000000000000000000000000000000000000000000000000000000000
#108321:000000000054000000000000000000000000240000000000000000000000000000000000000000000000000000000000000000000000000000000000000000000000000000000000000000000000000000000000000000000000000000000000
#108331:0000005400000000000000000000000000000000000000000000000000000000
#1083a0:000000000000000000000000000000000000140000000000000000000000005400000000000000000000000000000000000000000000000000000000000000000000000000000000000000000000000000000000000000000000000000000000
#108380:000000000000000000000000000000000000000000000054000000000000000000000000240000000000000000000000000000000000000000000000000000000000000000000000000000000000000000000000000000000000000000000000
#108390:0000000000000000005400000000000000000000000000000000000000000000
#108380:000000000000000000000000000000000000000000000000000000000000000000000000000000000000000000000000140000000000000000000000005400000000000000000000000000000000000000000000000000000000000000000000
#1083a0:000000000000000000000000000000000000000000000000000000000000000000000000000000000000000000000000000000000054000000000000000000000000240000000000000000000000000000000000000000000000000000000000
#108390:0000000000000000000000000000000000000054000000000000000000000000
#108321:000000000000000000000000000000000000000000000000000000000000000000000000000000000000000000000000000000000000000000000000000000000000140000000000000000000000005400000000000000000000000000000000
#108341:000000000000000000000000000000000000000000000000000000000000000000000000000000000000000000000000000000000000000000000000000000000000000000000054000000000000000000000000240000000000000000000000
#108331:0000000000000000000000000000000000000000000000000054000000000000
#110341:0014240000000000
#110391:0000001424000000
#110321:0000000000142400
#110391:0000000000000014
#111391:24
#111341:0014240000000000
#111391:0000001424000000
#111321:0000000000142400
#1113a1:0000000000000014
#1123a1:24
#1133b1:00001323
#113371:0000000000530000
#113320:00000013
#113360:0000000000000053
#114320:23
#114371:13
#1143b1:0000005300000000230000000000000000000000000000000000000000000000
#114360:00130000
#114320:0000000000000000000000530000000023000000000000000000000000000000
#114381:0000000013230000
#1163b1:13
#116371:0000005300000000230000000000000000000000000000000000000000000000
#116320:00130000
#116360:0000000000000000000000530000000023000000000000000000000000000000
#1163b1:0000000013230000
#118361:13
#118321:0000005300000000230000000000000000000000000000000000000000000000
#118370:00130000
#1183b0:0000000000000000000000530000000023000000000000000000000000000000
#118351:0000000013230000
#120321:13
#120361:0000005300000000230000000000000000000000000000000000000000000000
#1203b0:00130000
#120370:0000000000000000000000530000000023000000000000000000000000000000
#120321:0000000013230000
#1213b1:00000013
#121371:0000000000000053
#1223b1:23
#122360:1300000000000000000000530000000023000000000000000000000000000000
#122320:0000005300000000330000000000000000000000000000000000000000000000
#1223b1:0013
#122381:0000000000230000
#124321:1300000000000000000000530000000023000000000000000000000000000000
#124361:0000005300000000330000000000000000000000000000000000000000000000
#124380:0013
#1243b0:0000000000230000
#126370:1300000000000000000000530000000023000000000000000000000000000000
#1263b0:0000005300000000330000000000000000000000000000000000000000000000
#126321:0013
#126351:0000000000230000
#1283b1:1300000000000000000000530000000023000000000000000000000000000000
#128371:0000005300000000330000000000000000000000000000000000000000000000
#128350:0013
#128320:0000000000230000
#130380:00000000000000000012002200000000
#130341:00000000000000000000001200002200
#132361:00000000000000000012002200000000
#1323a0:00000000000000000000001200002200
#134340:00000000000000000012002200000000
#1343a1:00000000000000000000001200002200
#1363a1:00000000000000000012002200000000
#136340:00000000000000000000001200002200
