This file was generated by Ched 2.7.0.0.
#TITLE ""
#ARTIST ""
#DESIGNER ""
#DIFFICULTY 0
#PLAYLEVEL
#SONGID ""
#WAVE ""
#WAVEOFFSET 0
#JACKET ""
#REQUEST "ticks_per_beat 480"
#00002: 4
#BPM01: 220
#00008: 01
#TIL00: ""
#VOLUME: ""
#HISPEED 00
#MEASUREHS 00
#04618:00130013
#04615:0000000000130000
#0301b:0000001300000013
#03015:00130013
#03018:0013000000130000
#03012:1313
#02212:0013
#02218:0000001300000000
#02215:00130000
#0221b:0013000000000000
#04515:0013000000130013
#04518:00130013
#0451b:23
#04510:41
#02018:00130000
#02015:13
#02012:0023
#0191b:00000013
#01912:00130000
#01915:13
#0231b:0013000000000013
#02315:00130013
#02318:0000001300130000
#02312:0013
#02112:0000000000000013
#0211b:00130000
#02118:13
#01818:00000013
#01815:0013
#06012:24000018
#06016:00240000
#0601a:0024
#04812:1300130000000013
#04818:0013000000130000
#0481b:0013
#04815:00000013
#08118:13001313
#08115:0013000000130000
#0811b:00130000
#08112:0000001300000000
#0771b:00130000
#07715:0013000000000000
#07718:13
#07712:00000013
#07710:41
#07012:1313
#07018:0013000000000000
#07015:00130000
#0701b:0000001300000000
#06918:00131300
#06915:0000001300000000
#0821b:00001313
#08215:0000001300000000
#08218:00130000
#08212:0013000000001300
#08012:0000000000000013
#0781b:0013000000130000
#07812:0013
#07818:0000001300000000
#07815:00130013
#07612:0000000000000013
#07618:13
#0761b:00130000
#00218:0013000000001300
#00215:0000130000130000
#0021b:0013
#00112:1300000000000013
#00118:0013000000001300
#00115:0000130000130000
#0011b:0013
#0311a:0014
#03116:00140000
#03112:14
#03118:0000000000000014
#03114:00000014
#02615:0013
#02618:0000001300000013
#02612:00000014000000000000000013000000
#0261b:0000000000130000
#02613:1414000000000000
#02614:00140000000000000000000000000000
#02518:0013000000130000
#02512:13000000000000001300000000000014
#0251b:0000001300000000
#02515:00130000
#02513:0000000000002414
#02514:00000000000000000000000000140000
#0731b:13
#07318:0013
#07315:0000001300000013
#05212:0016001600002600
#05218:26262600
#13714:00120012
#1371a:00000012
#13718:0000120000120000
#13716:1212
#0421b:00000013
#04212:0013
#04218:00130000
#04118:00130000
#0411b:13
#04112:13
#07212:0000000000130000
#07215:0000000000000013
#07218:00130013
#0721b:13
#06814:00120000
#0681a:0012
#06818:12
#06815:0000000000130000
#06812:0000000000000033
#06716:0000001200000012
#06718:12000012
#0671a:0012
#06614:1200000000000012
#06616:00121200
#06618:0012000000000000
#0661a:0000001200001200
#0651a:1200000000000012
#06516:00000012
#06514:0012
#06518:0000001200000000
#06418:0012001212000000
#06414:12120000
#0631a:1200001200000012
#06316:00001212
#06217:00120012
#06214:0012
#0621a:12
#06116:0000000012000012
#0611a:1200001200000000
#06110:41
#0361a:0000001400000000
#03618:0014000000000000
#03614:00140000
#03612:14000024
#0171b:00130000
#01718:13000023
#01713:00000023
#01710:41
#02718:0000130013000013
#02715:0013001300001300
#02712:0000000000130000
#0101b:0000000000130013
#01018:0013001300000000
#01015:00001313
#01012:13130000
#00915:00130013
#0091b:0000000000000013
#00918:2300000000130000
#00912:23
#0291b:13
#02915:0013000000001300
#02918:0000130000130013
#02912:0000002300000000
#0281b:13
#02815:00130000
#02818:0013
#02812:00000013
#00615:0013000000001300
#00618:0000130000130000
#00612:0013
#0051b:1300000000000013
#00515:0013000000001300
#00518:0000130000130000
#00512:0013
#01112:1300000000000013
#01118:00130013
#01115:0000000000130000
#01212:0000000000130013
#01215:0013001300000000
#01218:00001313
#0121b:13130000
#0141b:0000000000130013
#01418:0013001300000000
#01415:00001313
#01412:13130000
#01315:00130013
#0131b:2300000000000013
#01318:0000000000130000
#01512:1300000000000013
#01518:00130013
#01515:0000000000130000
#0161b:1313000000000000
#01615:0000131300000000
#01618:0000000013130000
#01612:00000013
#02415:13
#02418:00000023
#02412:0033333300000000
#0371b:00130013
#03712:00130013
#03715:0013
#03718:23
#0381b:00130013
#03812:00130013
#03815:0013
#03818:23
#0391b:00130013
#03912:00130013
#03915:0013
#03918:23
#0401b:00130000
#04012:00130000
#04015:00001313
#04018:2300000000130000
#04712:13130000
#04718:0013001300000000
#04715:00001313
#0471b:0000000000130013
#05015:13130000
#05018:0013001300000000
#05418:00001313
#05412:0000000000130000
#0541b:00130000
#05415:0000001300000000
#05315:0013000000000013
#05318:00131300
#05312:0000001300000000
#0531b:23
#0531a:0000000000330000
#0561b:0000000000000013
#05618:0013001300001300
#05615:0000000000130000
#05612:13131300
#05512:13130000
#05518:0013001300000000
#05515:00001313
#0551b:0000000000130013
#05712:0013001300000000
#05718:00130000
#0571b:00001313
#05715:0000000000130013
#0591a:0014000000000000
#05915:00140000
#05919:0000001400000000
#05914:0014
#05918:0000000000140000
#05913:00000014
#05917:0000000000000014
#0711b:1313
#07118:00130013
#07418:00130000
#0741b:1333003300000000
#07415:00000013
#07518:13
#07512:00130000
#0751b:0013
#07515:00000013
#09615:00130013
#09618:0000000000130000
#09518:0013000000130013
#09515:00130013
#0951f:21
#0981b:1300130000000013
#09815:0013000000130000
#09812:0013
#09818:00000013
#10218:0016001600002600
#10212:26262600
#0971b:13130000
#09715:0013001300000000
#09718:00001313
#09712:0000000000130013
#09710:41
#10018:13130000
#10015:0013001300000000
#09912:0013000000000000
#09918:00130000
#09915:00001313
#0991b:0000000000130000
#10415:00001313
#1041b:0000000000130000
#10412:00130000
#10418:0000001300000000
#10318:0013000000000013
#10315:00131300
#1031b:0000001300000000
#10312:23
#10313:0000000000330000
#10612:0000000000000013
#10615:0013001300001300
#10618:0000000000130000
#1061b:13131300
#1051b:13130000
#10515:0013001300000000
#10518:00001313
#10512:0000000000130013
#1071b:0013001300000000
#10715:00130000
#10712:00001313
#10718:0000000000130013
#10912:0014000000000000
#10917:00140000
#10913:0000001400000000
#10918:0014
#10914:0000000000140000
#10919:00000014
#10915:0000000000000014
#11214:0014000000140000
#11212:0000001400000014
#1121a:2424
#11218:00240024
#11314:0014000000001400
#11312:0000001400000000
#11318:00140000
#1131a:2414
#11414:00140000
#1141b:0013
#11415:0000000000130000
#11418:24000013
#11412:0000000000000013
#11410:41
#1151b:13
#11515:0013000000000000
#11518:00130000
#11512:0000001300000000
#11618:0000140000130000
#11612:0013
#11615:00000013
#1161b:0000000000000013
#11614:14
#11712:13
#11718:0013000000000000
#11715:00130000
#1171b:0000001300000000
#11814:00140000
#1181b:0013
#11815:0000000000130000
#11818:00000013
#11812:0000000000000013
#1181a:24
#1191b:13
#11915:0013000000000000
#11918:00130000
#11912:0000001300000000
#12018:0000140000130000
#12012:1413
#12015:00000013
#1201b:0000000000000013
#12112:13
#12118:0013000000000000
#12115:00130000
#1211b:0000001300000000
#12214:00140000
#1221b:0013
#12215:0000000000130000
#12218:00000013
#12212:0000000000000013
#1221a:24
#1231b:1313000000000000
#12315:0000131300000000
#12418:0000140000130000
#12412:1413
#12415:00000013
#1241b:0000000000000013
#12512:1313000000000000
#12518:0000131300000000
#12612:0000140000000013
#1261b:0013
#12615:0000000000130000
#12618:24000013
#12718:1313000000000000
#12712:0000131300000000
#1281a:00140000
#12812:0013
#12818:0000000000130000
#12815:00000013
#1281b:0000000000000013
#12814:14
#12915:1313000000000000
#1291b:0000131300000000
#13018:12000012
#1301a:00120000
#13016:00120000
#13014:0012
#13012:00000012
#13116:12000012
#13114:00120000
#13118:00120000
#1311a:0012
#1311c:00000012
#13218:12000012
#1321a:00120000
#13216:00120000
#13214:0012
#13212:00000012
#13316:12000012
#13314:00120000
#13318:00120000
#1331a:0012
#1331c:00000012
#13418:12000012
#1341a:00120000
#13416:00120000
#13414:0012
#13412:00000012
#13516:12000012
#13514:00120000
#13518:00120000
#1351a:0012
#1351c:00000012
#13618:12000012
#1361a:00120000
#13616:00120000
#13614:0012
#13612:00000012
#08512:0013
#08518:0000001300001300
#08515:0000130000000023
#0851b:13
#0871b:2300000000130000
#08715:00130013
#08718:0000001300000013
#08712:0013
#08812:1323
#08815:00130013
#08818:0000001300000013
#0881b:0013000000130000
#09118:00131300
#09115:0000001300000013
#0911b:23
#09112:23
#09015:0000130000000013
#09018:0000001300001300
#09012:1313
#0901b:0013000000000000
#08612:0013000000000013
#08618:00130013
#08615:0000001300130000
#0861b:1323
#08415:0000000000000013
#08418:00002313
#08412:0000000000130000
#0841f:0011
#08918:0000130000000013
#08915:0000001300001300
#0891b:0013
#08912:13
#0921b:13
#09212:00130000
#09215:00000023
#09218:00000023
#00412:00000013
#00415:0013000013000000
#00418:00130000
#04914:00000013
#04919:00000013
#04412:0024
#04418:0024002400000000
#04414:24240000
#0431b:2323
#04318:00000023
#04312:2323
#04315:00230000
#03214:24
#03218:00240000
#0321a:0024
#03212:0024
#03215:00000026
#05112:0026
#05118:26
#09412:00000024
#10118:0026
#10112:26
#1101a:24
#11014:00240000
#11018:0024
#11012:00000024
#1111a:24
#11114:00240000
#11118:0024
#11112:00000024
#0081b:00000023
#00815:00000023
#0081a:0033000000000000
#00819:00330000
#00818:0000003300000000
#0071a:0033000000000000
#00719:00330000
#00718:0000003300000000
#00713:0000000000330000
#00714:00000033
#00715:0000000000000033
#00314:0033000000000000
#00313:00330000
#00312:0000003300000000
#00319:0000000000330000
#0031a:00000033
#0031b:0000000000000033
#04452:00000014
#03254:14
#03258:00140000
#03255:00000066
#03252:0014
#0325a:0014
#03652:00000014
#02458:00000013
#02455:63
#02553:0000000000005454
#02552:00000000000000000000000000000024
#02554:00000000000000000000000000240000
#02252:0053
#04658:00530000
#04555:0000000000000063
#04558:00630000
#06052:00000018
#08158:00000053
#0775b:00630000
#07752:00000053
#07052:0053
#06958:0063
#02658:0000000000000013
#02652:00000024000000000000000000000000
#02653:5454000000000000
#02654:00240000000000000000000000000000
#0735b:63
#07358:0053
#0175b:00630000
#01758:5313
#05052:00000014
#00955:00530000
#00952:13
#00958:13
#02952:0000001300000000
#01158:00630000
#01355:00530000
#01558:00630000
#01952:00530000
#01955:6313
#02052:00000013
#0215b:00630000
#02158:5313
#05158:16
#05152:0016
#05258:0016
#05252:00000016
#05355:0000000000000063
#05358:0063
#06855:0000000000530000
#0715b:5353
#07158:00530053
#0725b:5313
#07258:00530000
#0745b:53
#07458:00230000
#0765b:00230000
#07658:53
#09655:00630000
#09558:0000000000000053
#09555:00530000
#10258:00000016
#10252:0016
#10158:0016
#10152:16
#1005a:00000014
#10358:0000000000000053
#10355:0053
#1135a:0014
#11458:14
#11454:00140000
#11658:00140000
#11854:00140000
#1185a:14
#12058:00140000
#12254:00140000
#1225a:14
#12458:00140000
#12652:00140000
#12658:14
#1285a:00140000
#08552:0013
#0855b:13
#09052:0013
#0895b:0013
#08952:13
#0925b:63
#09252:00630000
#09255:00000013
#09258:00000013
#09158:0053
#003350:13
#003340:0033000000000000
#003330:00330000
#003320:0000003323000000
#003381:0013
#003391:0000000000330000
#0033a1:00000033
#0033b1:0000000000000033
#0043b1:23
#0073b1:13
#0073a1:0033000000000000
#007391:00330000
#007381:0000003323000000
#007320:0013
#007330:0000000000330000
#007340:00000033
#007350:0000000000000033
#008350:23
#0083b1:13
#0083a1:0033000000000000
#008391:00330000
#008381:0000003323000000
#009351:00130000
#009321:0023
#011381:00130000
#0113b1:0023
#013351:00130000
#013321:0023
#015381:00130000
#0153b1:0023
#017381:1323
#0173b1:00330000
#017381:00000013
#0183a1:000000000000000000000000000000000000000000000000000000000000000000000000000000000000000000000000000000000000000000000000000000000000000000000000000000000000000000000000000000000000000000000000000000000000000000000000000000000000000000000000000000000000000000000000000000000000000000000000000000000000000000000000000000000000000000000000000000000000000000000000000000000000000000000000000000000000000000000000000000000000000000000000000000000000000000000000000000000000000000000053000000000000000000000000000000000000000000000000000000000000000000000000000000000000000000000000000000000000000000000000000000000000000000000000000000000000000000000000000000000000000000000000000000000000000000000000000000000000000000000000000000000000000000000000000000000000000000000000000000000000000000000000000000000000000000000000000000000000000000000000000000000000000000000000000000000000000000000000000000000000000000000000000000000000000000000000000000000000000000000000000000000000000000000000000000000000000000000000000000000000000000000000000000000000000000000000000000000000000000000000000000000000000000000000000000000000000000000000000000000000000000000000000000000000000000000000000000000000000000000000000000000000000000000000000000000000000000000000000000000000000000000000000000000000000000000000000000000000000000000000000000000000000000000000000000000000000000000000000000000000000000000000000000000000000000000000000000000000000000000000000000000000000000000000000000000000000000000000000000000000000000000000000000000000000000000000000000000000000000000000000000000000000000000000000000000000000000000000000000000000000000000000000000000000000000000000000000000000000000000000000000000000000000000000000000000000000000000000000000000000000000000000000000000000000000000000000000000000000000000000000000000000000000000000000000000000000000000000000000000000000000000000000000000000000000000000000000000000000000000000000000000000000000000000000000000000000000000000000000000000000000000000000000000000000000000000000000000000000000000000000000000000000000000000000000000000000000000000000000000000000000000000000000000000000000000000000000000000000000000000000000000000000000000000000000000000000000000000000000000000000000000000000000000000000000000000000000000000000000000000000000000000000000000000000000000000000000000000000000000000000000000000000000000000000000000000000000000000000000000000000000000000000000000000000000000000000000000000000000000000000000000000000000000000000000000000000000000000000000000000000000000000000000000000000000000000000000000000000000000000000000000000000000000000000000000000000000000000000000000000000000000000000000000000000000000000000000000000000000000000000000000000000000000000000000000000000000000000000000000000000000000000000000000000000000000000000000000000000000000000000000000000000000000000000000000000000000000000000000000000000000000000000000000000000000000000000000000000000000000000000000000000000000000000000000000000000000000000000000000000000000000000000000000000000000000000000000000000000000000000000000000000000000000000000000000000000000000000000000000000000000000000000000000000000000000000000000000000000000000000000000000000000000000000000000000000000000000000000000000000000000000000000000000000000000000000000000000000000000000000000000000000000000000000000000000000000000000000000000000000000000000000000000000000000000000000000000000000000000000000000000000000000000000000000000000000000000000000000000000000000000000000000000000000000000000000000000000000000000000000000000000000000000000000000000000000000000000000000000000000000000000000000000000000000000000000000000000000000000000000000000000000000000000000000000000000000000000000000000000000000000000000000000000000000000000000000000000000000000000000000000000000000000000000000000000000000000000000000000000000
#018371:0056260000000000
#017330:00000013
#018330:00230000
#019350:1323
#019320:00330000
#020320:00001323
#021380:1323
#0213b0:00330000
#022320:0013
#022350:00000023
#024350:13
#024320:0033333323000000
#025330:0000000000001454
#025340:00000000000000000000000000540000
#025320:00000000000000000000000000000054
#026330:5454240000000000
#026340:00540000000000000000000000000000
#026320:00000054000000000000000000000000
#032350:00000016
#035360:00000024
#036320:00001424
#041350:0000000013000033
#041320:00000000000000000000003300000000
#042350:23
#044320:00001424
#045380:00130000
#0453b0:0023
#045350:0000000000000013
#046320:0023000000000000
#046380:00130000
#0463b0:0023
#049390:0012000022000000
#049351:0012000022000000
#050321:00001424
#053381:0013
#0533a1:0000000000330000
#0533b1:00000023
#053351:0000000000000013
#054321:0023000000000000
#0583b1:13
#058381:00000033000023000000000000000000
#058321:0013
#058351:00000000000000000000003300002300
#068351:0000000000130000
#068321:0000000000000033
#069321:23
#069381:0013
#0693b1:00000023
#070321:0013
#070351:00000023
#0713b1:13000000000000533300000000000053
#071381:00000053330000000000005333000000
#0723b1:33000000000000532300000000000000
#072381:00000053330000000000000000000000
#0733b1:13
#073381:00230000
#073381:0013
#0733b1:00000023
#0743b1:1333003323000000
#074381:00330000
#076381:1323
#0763b1:00330000
#0773b1:00130000
#077381:0023
#077321:00000013
#078351:23
#0793b1:13
#079381:00230000
#079321:0013
#079351:00000023
#0803b1:13
#080381:00332300
#081381:00000013
#0823b1:23
#083321:13
#083351:00230000
#0833b1:0013
#083381:00000023
#084321:13
#084351:00230000
#091381:0013
#0913b1:00000023
#0923b1:13
#092381:00330023
#092320:00130000
#092350:00003323
#094320:00000000000000000000000014545454
#094330:0000000000000000000000000000000000000000000000000054005400540054
#095320:24
#095350:00130000
#095320:0023
#095380:0000000000000013
#0963b0:0023000000000000
#096350:00130000
#096320:0023
#1003a0:00001424
#103350:0013
#103330:0000000000330000
#103320:00000023
#103380:0000000000000013
#1043b0:0023000000000000
#108320:13
#108350:00000033000023000000000000000000
#1083b0:0013
#108380:00000000000000000000003300002300
#115380:0013
#1153b0:0000000000332300
#117350:0013
#117320:0000000000332300
#1193b0:0013
#119380:0000000000332300
#121320:0013
#121350:0000000000332300
#123380:0013
#1233b0:0000000000332300
#125350:0013
#125320:0000000000332300
#1273b0:0013
#127380:0000000000332300
#129320:0013
#129350:0000000000332300
