This file was generated by Ched 2.7.0.0.
#TITLE ""
#ARTIST ""
#DESIGNER ""
#DIFFICULTY 0
#PLAYLEVEL
#SONGID ""
#WAVE ""
#WAVEOFFSET 0
#JACKET ""
#REQUEST "ticks_per_beat 480"
#00002: 4
#BPM01: 220
#00008: 01
#TIL00: ""
#VOLUME: ""
#HISPEED 00
#MEASUREHS 00
#0011a:14
#00114:00140000
#00118:0014
#00112:00000014
#0021a:14
#00214:00140000
#00312:14
#00318:00140000
#00314:0014
#0031a:00000014
#00412:14
#00418:00140000
#0051a:14
#00514:00140000
#00518:0014
#00512:00000014
#0061a:14
#00614:00140000
#00712:1414
#00718:00140014
#00814:1414
#0081a:00140014
#0091a:0014
#00912:24
#01014:14
#01018:00140000
#01112:0014
#0111a:14
#01218:14
#01214:00140000
#0131a:0014
#01312:14
#01414:14
#01418:00140000
#01512:0014
#0151a:14
#01619:1414
#01613:00140014
#0211a:1414
#02114:00140014
#0221a:1414
#02214:00140000
#02312:1414
#02318:00140014
#02412:1414
#02418:00140000
#0251a:14140000
#02514:00001414
#02618:14140000
#02612:00001414
#0291a:1414
#02914:00140014
#03018:1414
#03012:00140014
#0311a:1414
#03114:00140014
#03218:1616
#03212:00160000
#03818:14343400
#0371a:14343400
#04014:14343400
#03912:14343400
#0411a:14
#04114:0014
#04218:14
#04212:0014
#04318:1414
#04314:00140014
#04418:1424
#04414:00140024
#04514:00140000
#04518:0014
#04512:00000014
#0451a:24
#04510:41
#0461a:14
#04614:00140000
#04712:14140000
#04718:00001414
#04814:14
#0481a:00140000
#04812:0014
#04818:00000014
#04914:14
#04918:0014
#05014:14
#05018:00140000
#05012:0014
#05312:14
#05318:00140000
#05314:0014
#0531a:00000014
#05412:14
#05418:00140000
#0551a:14140000
#05514:00001414
#05618:14
#05612:00140000
#0561a:0014
#05614:00000014
#05718:14
#05714:0014
#05818:1414
#05814:00140014
#0591a:14
#05912:0014
#06018:1414
#06014:00140000
#06914:14
#07118:14
#07312:14
#0751a:14
#07712:14
#07718:0014
#07710:41
#0791a:14
#07914:0014
#08114:14
#0811a:0014
#08318:14
#08312:0014
#08514:14
#08518:0014
#08614:14
#08618:00140000
#08612:0024
#08718:14
#08714:0014
#08818:14
#08814:00140000
#0881a:0024
#08912:14
#08918:0014
#09014:14
#0901a:00140000
#09012:0024
#0911a:14
#09114:0014
#09218:14
#09212:00140000
#0921a:0024
#09518:00140000
#09514:0014
#0951a:00000014
#09512:24
#0951f:21
#09612:14
#09618:00140000
#0971a:14140000
#09714:00001414
#09710:41
#09818:14
#09812:00140000
#0981a:0014
#09814:00000014
#09918:14
#09914:0014
#10018:14
#10014:00140000
#1001a:0014
#1031a:14
#10314:00140000
#10318:0014
#10312:00000014
#1041a:14
#10414:00140000
#10512:14140000
#10518:00001414
#10614:14
#1061a:00140000
#10612:0014
#10618:00000014
#10714:14
#10718:0014
#10814:1414
#10818:00140014
#10912:14
#1091a:0014
#11014:14140000
#11018:00001414
#11114:14140000
#11118:00001414
#11214:14140000
#11218:00001414
#11314:14140014
#11318:0014
#11412:0014
#1141a:24
#11410:41
#11518:14
#11514:00140000
#1161a:0014
#11612:14
#11714:14
#11718:00140000
#11812:0014
#1181a:14
#11918:14
#11914:00140000
#1201a:0014
#12012:14
#12113:1414
#12119:00140014
#1221a:0014
#12212:24
#12314:14
#12318:00140000
#12412:0014
#1241a:14
#12518:14
#12514:00140000
#1261a:0014
#12612:14
#12714:14
#12718:00140000
#12812:0014
#1281a:14
#12919:1414
#12913:00140014
#0841f:0011
#05118:24
#05114:0024
#05218:24
#05214:00240000
#0521a:0024
#10114:24
#10118:0024
#10214:24
#10218:00240000
#10212:0024
#01710:41
#06110:41
#00952:14
#0115a:14
#01352:14
#0155a:14
#03258:1616
#03252:00160000
#0375a:54
#03858:54
#04054:64
#03952:64
#04454:00000014
#05052:0014
#0525a:0014
#06058:0014
#06954:54
#07158:54
#07352:54
#0755a:54
#1005a:0014
#10252:0014
#1145a:14
#11652:14
#1185a:14
#12052:14
#1245a:14
#12652:14
#1285a:14
#12252:14
#002380:00001424
#004340:00001424
#006380:00001424
#010340:00001424
#012380:00001424
#014340:00001424
#0173a0:1424
#018340:1424
#019380:1424
#020320:1424
#0273a0:14240000
#027340:00001424
#028380:14240000
#028320:00001424
#033320:16
#036330:0024
#0373a0:14343400
#037380:00000034
#038380:34343400
#0383a0:00000024
#039320:14343400
#039340:00000034
#040340:34343400
#040320:00000024
#046380:00001424
#054340:00001424
#061320:14
#062340:34
#063320:34
#064340:24
#0653a0:14
#066380:34
#0673a0:34
#068380:24
#069340:14
#070320:24
#071380:14
#0723a0:24
#073320:14
#074340:24
#0753a0:14
#076380:24
#078320:1424
#0803a0:1424
#082340:1424
#084380:1424
#096340:00001424
#104380:00001424
#115380:00001424
#117340:00001424
#119380:00001424
#123340:00001424
#125380:00001424
#127340:00001424
#1303a0:14
#131380:24
#132320:14
#133340:24
#134380:14
#1353a0:24
#136340:14
#137320:34343424
