This file was generated by Ched 2.7.0.0.
#TITLE ""
#ARTIST ""
#DESIGNER ""
#DIFFICULTY 0
#PLAYLEVEL
#SONGID ""
#WAVE ""
#WAVEOFFSET 0
#JACKET ""
#REQUEST "ticks_per_beat 480"
#00002: 4
#BPM01: 264
#BPM02: 232
#BPM03: 285
#BPM04: 300
#BPM05: 174
#BPM06: 200
#BPM07: 190
#BPM08: 180
#BPM09: 175
#BPM0A: 222
#BPM0B: 212
#BPM0C: 202
#BPM0D: 182
#BPM0E: 273
#00008: 01
#04708: 00020000
#09508: 00030000
#10308: 00040000
#03708: 00050000
#02008: 06
#03408: 00070000
#03508: 00080000
#03608: 00090000
#06908: 0000000A
#07008: 000B000C
#07108: 000D0000
#07908: 000E0000
#TIL00: ""
#VOLUME: ""
#HISPEED 00
#MEASUREHS 00
#0751f:00110000
#0021a:14
#0041a:14
#00618:14
#00818:14
#00810:41
#01212:14
#0201a:00140000
#02010:00410000
#02114:00140000
#02218:00140000
#02312:00140000
#0281a:00140000
#02814:00000014
#03018:00000014
#03012:00140000
#0371a:00140000
#03712:00000014
#03710:00410000
#0381a:00140000
#03812:00000014
#0101a:14
#0291a:00140000
#03112:00140000
#03918:00140014
#04014:00140014
#0521a:00140000
#05412:00140000
#0551a:00140000
#05514:00000014
#0561a:00140000
#05614:00000014
#05718:00140000
#05712:00000014
#05818:00140000
#06512:00140000
#0651a:00000014
#08112:00140000
#0831a:00140000
#08412:00140000
#08518:00140000
#08614:00140000
#08712:00000016
#0871f:00210000
#08718:00260000
#09018:00160000
#09012:00000016
#10418:00160000
#10412:00000016
#00314:14
#00514:14
#00712:14
#00912:14
#0111a:14
#01312:14
#05312:00140000
#05318:00000014
#08818:00160000
#08812:00000016
#08810:00410000
#08912:00000016
#08918:00160000
#09212:00000016
#09312:00160000
#09318:00000016
#10312:00000016
#10318:00260000
#0511a:00140000
#05114:00000014
#05110:00410000
#06312:00140000
#0631a:00000014
#06414:00140000
#06418:00000014
#09418:00160000
#09612:00160000
#09618:00000016
#09712:00160000
#09718:00000016
#09812:00160000
#09818:00000016
#09518:00000016
#09512:00260000
#12318:00000016
#04312:00140000
#0431a:00000014
#03218:00260000
#03412:00260000
#06614:00240000
#01612:26
#11418:00000026
#11412:00260000
#11318:00000026
#11312:00260000
#12412:00260000
#07310:00410000
#014380:14
#015380:24
#016320:1636
#017320:3636
#018320:26
#0243a0:00140034
#0253a0:00240000
#026320:00140034
#027320:00240000
#032380:00160000
#033360:00260000
#034320:00160000
#035340:00360000
#036340:00260000
#0413a0:00140000
#041390:00000034
#042390:00340000
#0423a0:00000024
#044320:00140024
#0453a0:00140000
#046380:00000000003400000000000000000000
#0473a0:00340000
#0483a0:00240000
#049320:00140000
#050320:00240000
#059320:00140000
#060320:00240000
#0613a0:00140034
#0623a0:00240000
#066340:00140024
#0673a0:00140000
#068380:00340000
#069380:00240000
#071320:00160000
#072330:00360000
#073320:00360000
#074330:00260000
#075380:00160000
#076370:00360000
#077380:00360000
#078370:00360000
#079380:00260000
#091380:00160000
#092380:00260000
#099320:00160026
#100380:00160026
#101320:00160000
#102320:00260000
#105380:00160036
#106380:00360026
#107320:00160000
#107330:00000036
#108340:00360000
#108330:00000036
#109320:00360036
#110320:00260000
#111380:00160000
#112380:00260000
#115340:00140000
#116340:00240000
#117380:00140000
#118380:00240000
#119340:00140000
#120340:34000034
#121340:0034
#122340:00240000
