This file was generated by Ched 2.7.0.0.
#TITLE ""
#ARTIST ""
#DESIGNER ""
#DIFFICULTY 0
#PLAYLEVEL
#SONGID ""
#WAVE ""
#WAVEOFFSET 0
#JACKET ""
#REQUEST "ticks_per_beat 480"
#00002: 4
#BPM01: 264
#BPM02: 175
#BPM03: 190
#BPM04: 180
#BPM05: 232
#BPM06: 222
#BPM07: 212
#BPM08: 202
#BPM09: 182
#BPM0A: 285
#BPM0B: 300
#BPM0C: 174
#BPM0D: 273
#BPM0E: 200
#00008: 01
#03608: 00020000
#03408: 00030000
#03508: 00040000
#04708: 00050000
#06908: 00000006
#07008: 00070008
#07108: 00090000
#09508: 000A0000
#10308: 000B0000
#03708: 000C0000
#07908: 000D0000
#02008: 0E
#TIL00: "70'480:0.75, 70'1440:0.61, 71'480:0.48, 78'1440:0.75, 79'480:0.9, 87'0:0.93, 94'960:0.96, 102'960:1, 50'1200:1, 69'1440:0.88, 113'480:1, 111'480:0.28, 34'480:0.6, 35'480:0.5, 35'1440:0.4, 32'480:0.7, 36'480:0.8, 36'960:0.85, 36'1440:0.9, 37'0:0.95"
#VOLUME: ""
#HISPEED 00
#MEASUREHS 00
#02018:0000000013131616
#02012:000000000000000000000000000000000000000000000000000000001300000000130000000000160000000000000000
#02015:00000000001300130000000000000000
#0201b:0000131300000000
#02016:14
#02010:00410000
#00012:1313
#11912:00141414
#11917:0000001300130000
#12017:00000013
#12012:14141414
#1201b:0013001300000000
#00112:13131313
#0011b:0000000000000013
#00515:001300130000
#00518:001300000000000000000000
#00512:13
#00612:000000130000000000130013
#0061b:130000000000130000000013
#00616:000000000000000000133300000000000000000000000000
#00617:000000133300000000000000000000003300000000000000
#00619:003300000000000000000000
#00614:003300
#0081b:131300131300
#00816:001300000000001300001400
#00812:000000130013000000140000
#00817:001300
#0081a:000000000000000000000014
#00810:41
#01016:0000000000000013
#01012:0013001300130000
#01015:00130000
#0101b:0013001300130013
#01018:00130000
#0111a:0014
#01116:130000000000001300001400
#01118:000014
#01112:000000000000000000000013
#0111b:13
#01114:00000013
#01215:00131300
#01218:0013000013000000
#01212:0000001300001300
#0121b:1300001300000013
#01216:0000000000000013
#01512:001400140014001400000000
#01516:000014001400140000000014
#01518:000014
#01514:00000014
#0151a:240000000014
#01818:131313131313
#01815:001300130013001300130013
#02118:00001600001300130000000000160000
#02115:0000000013130000
#0211b:000000000000000000000000000000000000000000000000000000001300000000130000000000000000000000000000
#02112:0000131300001616
#02218:00000016000013000016000000130000
#02215:00000000001300000000000000001300
#0221b:00000000000000130000000013000000
#02212:00000000130000001600001600000013
#02317:00000000001300000013000000000000
#02312:0016000000002400
#02318:00000016000000000000000000000000
#02316:00000000000013000000130000141400
#0231a:00000000000000130000001300000014
#02313:00232300
#0261b:0000130013000013
#02612:00000000130000000000001300000000
#02617:0000000000131300
#02716:0013240024001400
#02712:1300000000000000000000002400000000000000000000001434343434343434
#0271a:0000000000240000
#0281a:14001400240000140000140024000014
#02816:00140014000014002400001400001400
#04217:0013130000001300
#0421b:0000001300130000
#04216:0000001300130013
#04212:00131300
#04219:00000000003300330000000000000000
#04214:00000000000000000033003300000000
#04312:00141414
#04318:00000000130000000000131300000000
#0431b:00000000000013130000000000130013
#04316:0013000000000000
#04317:13
#04412:14141414
#04418:00130013000000000000000000130013
#04415:0013000000000013
#0441b:00131300
#04417:0000000000130000
#04516:0000130000130000
#04512:240000000013000000001300
#0451a:24
#0451b:00000000003300000033003300000033
#04517:0000003333003333
#04616:13000000000000330033000000330033
#04617:00000000002300000000002300000000
#0461b:0000000023000023
#04612:00000000002333000000330033000000
#05112:2600001400140014
#0511b:0013
#05116:00242424
#05118:26
#05110:00410000
#05212:0014000013000000
#0521a:0000001400140014
#0521b:13
#05216:24242424
#0531a:0014000000000000
#05312:1300001323000000
#0531b:0000000000000013
#05316:24240000
#05317:0023
#05416:1300230000130000
#05412:0000000000000013
#0541b:0013230000130000
#05418:0000000000000013
#05515:13000000000013000000001300000000
#05518:00000000000000130000000013000013
#05512:0000000013000013
#0551b:0000000000130000
#05615:13000000001300130000000000000000
#0561b:0013000013000000
#05618:0000131300000000
#05612:00000013000000000013000000001300
#05617:00000000000000000000001300000000
#05718:0013000000000013
#05716:00130000
#05717:0013
#05715:00000013
#0571b:1300001300000000
#05712:1300000000130000
#05714:0000003300000000
#05719:0000000000330000
#05815:1313
#05816:0000000000000000000000000000000000000000000000000000000000000000000000000000000000000000000000000000000000000000000000000000000000000000000000000000000000000000000000000000000000000000000000000000000000000000000000000000000014140000000000000000000000000000
#0581b:0013000000001300
#05812:0023000000001300
#05818:0023
#05915:00000000001300000000000013000000
#0591b:0000000000230013
#05918:00000000000013000000001300000000
#05912:00231300
#06012:24141400
#06016:00140000000000140000000000000000
#0601a:0014002400140000
#06014:0000000000001414
#06018:00000000000000000000000000140014
#06114:1414000000000000
#06118:00140014000000000000000000000000
#0611a:00001414
#06116:0000000000140014
#06112:00242424
#06212:2400141400000000
#0621b:0000000000000013
#0621a:1400242400000000
#06216:0000000000000013
#0631b:1313130000000013
#06312:0000000013130000
#06316:1313130000000000
#06317:0000000000130000
#06417:0000001313000000
#06416:1313000000001300
#0641b:0013000000000013
#06412:0013
#06515:1313001300000013
#06518:00130013000000000000130000000000
#0651b:00131313
#06512:00131313
#06618:0013000000000000
#06612:13
#0661b:13230000
#08712:2c0000231300
#08715:000013000013
#0871b:000000230013000000230000
#08718:000000000000001300000013
#0871f:00210000
#08815:001300000000001300000013
#08818:001313000013
#0881b:230000231300
#08812:000000230013000000230000
#08810:00410000
#09218:000000000013
#09215:000000000000000000000013
#09216:00230000
#09217:0023
#09212:002300000000000000230000
#0921b:002300000000000000000000
#09315:001300000000001300000000
#09318:001313000000
#09312:000000230013000000250000
#0931b:230000231300
#09317:000000000015
#09313:000000000000000000000025
#09418:151300
#09419:001500000000
#09412:00132300
#09415:000000000013000000000000
#09414:002500000000000000000000
#0941b:0023
#10516:000000140014001400140014
#10517:14
#10512:000000250000000000000000000000000000240000002400
#1051a:000000240024002400000000
#11412:00161616
#11418:00262626
#11516:00000013
#1151b:00130013
#11515:0000001300000000
#11517:12
#11612:13001313
#11617:13
#1161b:00130000
#11616:00231300
#11613:00000000000000000000000000330000
#11614:0000000000000033
#11615:00000000000000000000000000000033
#1161a:00000000003300000000003300000000
#11619:0000003300330000
#11618:00000000000000330033000000000000
#11712:00001313
#1171b:13
#11717:13
#11715:00330000000000000000000000000000
#11714:0033000000000000
#11713:00000033000000000000000000000000
#11812:13
#12112:14141400
#12117:1313000000000000
#1211a:0014
#1211b:00000013
#12116:00000000000000000000000000130000
#12119:00000000000000000000000000000033
#1221a:00000014
#12212:0000130000000014
#12217:00000000001300000000000000000000
#12219:33333333000000000000000000000000
#12214:00000000000000333333333300000000
#1231a:14
#12318:00120000
#12312:0014000000000000
#12314:00000013
#12319:00000013
#12316:00000000001200000000000000000000
#10616:001400000000000000000000
#10615:0000001300130000
#1061b:00130000
#10618:0000000000000000000000000000000013000000000000000034343434340000
#1061a:00000014
#10612:000000002400000000000000000000000000000000000000000000000000000000000000230000000000000000140000
#10614:0000000000000000000000000000000000000000000000000000000000000034
#10112:0000001400140000
#1011a:0014000000000014
#10116:00242424
#10114:24
#1021a:0014000014000000
#10212:00140000
#10216:24242400
#00216:1313
#0021b:0013000000130000
#00217:00000013
#00212:0000001300000016
#00318:0016000000160000
#00315:0000001600000000
#00312:00262600
#00912:130013000000130013000014
#00917:001300000000001300000000
#0091b:000000130013000000000000
#00916:000013000014
#0091a:00000014
#0131b:13
#01316:1314
#01312:00000014
#01319:000000000000003400000034
#01318:000000003434
#01416:14
#0141a:00242424
#01712:2c001c2c00002c001c2c0000
#0191a:0014
#01918:001414
#01916:001400130014
#01912:001300000013
#01914:001313
#03715:0013001300130000
#03718:00130013000000130013001300000000
#0371b:00130013
#03717:0000000000000013
#03712:00232323
#03710:00410000
#04916:14140000
#04918:00000014
#0491a:0014000000000000
#04914:00000014
#05018:00160000
#05012:0000000000000000160000000000000000000000143434343434340034343434
#0501a:0000000000000000000000000000000000000000143434343434003434343434
#05016:0000000000000000000000000000000000000000000000000000141400000000
#04812:0000000014000014
#04816:1414000000001400
#0481a:0000000000140000
#0481b:0023000000000000
#04716:00141414
#0471a:0000000000140000
#04717:00230000000000000000000000000000
#0471b:00230000
#04712:33000023
#0721a:00001212
#07218:000000000000000000000012
#07414:001200000000
#0731a:001200000000
#07312:000000000000000000120012
#07316:0012
#07310:00410000
#0811a:00140014
#08116:14
#07912:00140014
#08012:00140014
#08512:00141400
#08518:00000013
#08515:1400000000000013
#0851a:0014
#08618:13
#08616:0024000000000000
#0821a:00140000
#08218:0000000000130013
#08215:00001313
#06712:00131313
#06717:0000000013000013
#0671b:00130000
#06812:13131313
#0681b:0013000000130000
#06817:0000000013000013
#06819:00000013
#06912:13230000
#06919:13
#0691b:0013000000000000
#06917:00000000170000170000000017000000
#06913:0000000000000000000017000000000000000017000000000000000000001700
#06915:00000000000000000000000000000000000000000000000017000000000000000017000000000000000000170000000000000000000017000000000000000000
#07015:00000017000000000000000000000000000016000000000000000000000000000000001500000000000000000000000000000000000000000000000000000000
#07017:0000000000170000000000000000000000000000000015000000000000000000
#07013:0000000000000000000000000015000000000000000000000000000000000000
#07016:0000000000000000000000000000000000000000000000000000001400000000
#07115:13
#07117:0000000000120000000000000000000000000000000000000000000000000000
#07119:0012
#08312:00140000
#08317:0014
#0831a:00140014
#08315:13
#08918:001300000013000000001300
#08915:000013001300000000000013
#08912:23002323
#0891b:00230000
#09912:0000001400160016
#09916:24240000
#09918:0024
#0991a:00000024
#10012:0014000000002400
#1001a:0000001400000000
#10018:2400000000160016
#10016:00240000
#10014:0024
#10412:14
#10418:00000014
#10419:0014
#1041a:00140000
#10416:0025000000000000
#10414:0000000000250000
#10415:0000002500000000
#10413:0000000000000025
#10313:00000014
#10314:0014
#10315:00140000
#10319:0000002500000000
#10318:0000000000250000
#10317:0000000000000025
#0241a:00000014240000000000000000000000
#02416:00141400000000000000000000000000
#02415:00000000000000000000001300000000
#02412:24000000180000000000000000000013
#0241b:00000013
#02418:0000000000130000
#02417:00000000000000000000000000000013
#10812:0000131300000000
#10815:26000000001600002600000000160000
#1081b:0000000000001313
#00412:13
#00418:001300000013000000000000
#00415:001313000000
#0041b:00130000
#02512:00000000130000000000000000000023
#0251b:00000000000000130000000023000000
#02516:00000000000000130000000023000000
#02517:00000000130000000000000000000013
#03116:00001400280014000000140028140000
#0311a:00000000000000140000000000001400
#03112:26000014000000002800001400000028
#03212:000000140000000000000000180000000000000000000000380000003800000038000000380000003800000038000000
#03216:1428000000000000
#03016:2400001400140014
#03012:00001414000000002600001400000000
#0301a:00000000000000140000000000000014
#03018:00260026
#03316:000000180000380000380038
#03312:38
#03512:0014140000002c00
#0351a:0000000000140000
#03517:13
#03516:00000000000000140000000000000000
#0341b:0000000000131300
#03412:0013
#03416:003800130000000000000000
#04112:2300000000130000
#04117:00130000000013000000000000000000
#0411b:00000013000000000000000000000000
#04116:0013000000000000
#0291a:00001414000000000000000000000000
#02916:24000000000014002400001400001400
#02912:00000000240000140000140024000014
#04017:00002200001200120000000000000000
#04012:0000221200000000
#04019:00000000000000000012001200000000
#04014:0000000022120000
#0401b:23000000000000000000000000120012
#04016:0000000000002212
#03915:0013000000001212
#03918:00130013000000000000000000000000
#03917:00000000001200001200000000000000
#03912:2300121200120000
#0391c:00000000000000120012000000000000
#03919:00000000000000000000001200120012
#0391b:23
#0381b:13000023
#03817:0013000000000000
#03818:00000000001300130013001300001300
#03815:00000000000013000000130000130013
#03812:23232323
#10916:0000000000000000000000001400000000000000140000000000000000000034
#10912:0014
#1091a:00140000
#10915:26
#10919:0000000000000000000000000000000000000000000000000034340000000000
#10918:0000000000000000000000000000000000000000000000000000003400000000
#10917:0000000000000000000000000000000000000000000000000000000000343400
#11018:00161616
#11012:0000001600160000
#11013:0034340000000000000000000000000000000000000000000000000000000000
#11014:0000003400000000000000000000000000000000000000000000000000000000
#11015:0000000000343400000000000000000000000000000000000000000000000000
#11016:0000000000000034000000000000000000000000000000000000000000000000
#10712:0000131300000000
#10715:00000000001600002600000000160000
#1071b:0023000000001313
#10714:3434343400000000000000000000000000000000000000000000000000000000
#12412:0000000000140000
#12415:0000001300000000
#12418:00131300
#1241a:0000000000240000
#09616:000000000000240000140000000014000000000014000000
#0961a:240000140000000000000000240000001400000000000000
#09612:000000000000000000240014
#09816:0000241400140000
#09812:2414000024000000
#0981a:00000024
#09512:0000241400000000
#09518:0000000024140000
#09514:0000000000002414
#0971a:2400241400000000
#09714:0000000024140000
#09718:0000000000002414
#0841a:00000014
#08415:14
#08412:00140000
#08417:0014
#07815:00000013
#07816:001200000000
#0781c:001200000000
#11212:00120000
#11214:00000012
#1121c:00120000
#1121a:00000012
#0761a:000012000000120000000012
#0761c:00120000
#07618:00000012
#07518:000000000012120000000000
#07516:12
#0751f:00110000
#0771c:000012120000000000000000
#07712:000000000000000012120000
#07718:00000012
#00715:000000002300000000002300000000260000000000000000
#00718:00232300
#01612:2c2c2c2c
#09012:00002323
#09018:000000000023000000002300
#09015:000000002300000000000023
#0901b:23230000
#09118:000000000023000000230000
#09115:000000230000000000000023
#0911b:230000000000002300000023
#09112:000000000023002300000000
#1111c:00220000
#11112:00220000
#00555:0013
#0265b:0000130000000023
#02652:00630000
#02657:00000063
#02756:0023000000000000
#02752:63000054
#04257:00630053
#0425b:0000006300000000
#04256:0000000000630053
#04252:0063
#04352:00141414
#04357:53
#04452:14141414
#0445b:00530000
#04457:0000000000630000
#04556:0000330000330000
#04552:340000000033000000003300
#0455a:44
#04656:33
#04657:00000000004300000000004300000000
#0465b:0000000043000043
#05456:0000530000130000
#0545b:0000530000130000
#05756:00530000
#05757:0053
#0615a:00005454
#06156:0000000000240024
#06457:0023
#06456:0023000000000000
#11555:0000005300000000
#1155b:00530000
#11557:12
#12152:0034
#1215a:0044
#06252:0000001400000000
#0625a:5400001400000000
#10252:00340000
#1025a:0044
#10256:00443400
#0025b:0053000000530000
#00257:00000023
#00252:0000006300000016
#00256:0023
#00358:0000000000660000
#0125b:0000005300000000
#01252:0000005300000000
#01258:0023
#01255:0023
#0135b:63
#01356:63
#01357:00130000
#01352:00130000
#0115b:63
#01156:63
#01157:00130000
#01152:00130000
#01456:64
#02056:14
#04956:00140000
#04958:00000014
#04954:00000014
#05058:00160000
#05052:0000160000540000
#0505a:0000000000640000
#05056:0000000000000000000000000000000000000000000000000000242400000000
#08552:00343400
#0855a:00444400
#08555:24
#05657:00000000000000000000005300000000
#05856:0000000000000000000000000000000000000000000000000000000000000000000000000000000000000000000000000000000000000000000000000000000000000000000000000000000000000000000000000000000000000000000000000000000000000000000000000000000024240000000000000000000000000000
#0585b:0053000000005300
#05852:0063000000006300
#05855:0023
#05858:0023
#0635b:00530000
#06352:0000000000530000
#0685b:0053000000000000
#06757:0063
#0675b:00130000
#06957:00000000670000270000000027000000
#06953:0000000000000000000027000000000000000027000000000000000000002700
#06955:00000000000000000000000000000000000000000000000067000000000000000067000000000000000000670000000000000000000067000000000000000000
#06952:00330000
#07055:00000067000000000000000000000000000066000000000000000000000000000000006500000000000000000000000000000000000000000000000000000000
#07057:0000000000270000000000000000000000000000000025000000000000000000
#07053:0000000000000000000000000025000000000000000000000000000000000000
#07056:0000000000000000000000000000000000000000000000000000006400000000
#07155:23
#07157:0000000000620000000000000000000000000000000000000000000000000000
#08352:00540034
#08357:0024
#0835a:00440064
#10452:34
#10458:00000044
#10459:0044
#1045a:00440000
#10353:00000034
#10354:0034
#10355:00340000
#10557:44
#1065a:00000054
#10652:00000000000000000000000000000064
#1165b:00530000
#11652:00000053
#11656:0023
#11757:23
#11752:00330000
#01052:0053005300000000
#01055:00530000
#0105b:0063006300000000
#01058:00630000
#02452:00000000580000000000000000000063
#0245b:00000053
#02457:00000000000000000000000000000063
#02552:00000000630000000000000000000063
#0255b:00000000000000530000000053000000
#02556:00000000000000530000000000000000
#02557:00000000000000000000000000000063
#03252:00580000
#03256:0048000000000000
#03356:00680000
#0345b:00000053
#03452:0023
#03456:00630000
#03557:23
#03556:00000000000000240000000000000000
#03552:00540000
#0375b:00000063
#03757:0000000000000063
#0385b:63
#03857:0063000000000000
#11058:00464646
#11052:0000003600360000
#0845a:00440064
#08455:24
#08452:00540034
#08457:0024
#00755:0000000000160000
#01652:1c1c1c1c
#01752:1c1c1c1c
#04757:00430000000000000000000000000000
#10156:00140014
#05152:36
#05158:46
#08752:1c
#05357:0063
#05352:0063
#09052:0033
#0915b:43
#09956:00140000
#10056:00140000
#03156:00480048
#03152:36000000000000003800000000000038
#0285a:00440044
#02856:0034
#02956:3444
#02952:00340034
#03058:00460046
#03052:0036
#03056:44
#10855:3646
#10955:36
#10755:0046
#0595a:44
#05952:34
#11254:00000052
#11252:00220000
#1125c:00220000
#1125a:00000062
#07558:0062
#07856:006200000000
#0785c:006200000000
#0775c:00520000
#07752:00000062
#07758:00000062
#06655:0000000000000033
#06658:0000000000000043
#00656:0000002300000000
#00657:0023000000000000
#00652:00530000
#0065b:6363
#0023b0:0013000000000000
#002370:0000002300000000
#002321:0000001300230000
#002361:0053
#0023b0:0000000000130023
#002370:00000053
#003380:0000000000160000
#0043c0:22
#004320:0013
#004340:000000000000003300000000
#004360:000000000000000033230000
#0043b1:00000013
#004391:000000000033
#004371:000000000000000000000033
#005371:23
#0053b1:00132300
#0063b1:13230000
#006391:003300000000000000000000
#006371:000000533300000000000000000000000000000000000000
#006320:00132300
#006340:003300
#006360:000000000000000000533300000000000000000000000000
#0063b1:0013
#006371:000000000000000033230000
#010321:0013003300000000
#010351:00332300
#0103b0:0013003300000000
#010380:00332300
#0113b0:13
#011370:00230000
#011361:13
#011321:00230000
#0123b1:0000001300230000
#012381:0053
#012320:0000001300230000
#012350:0053
#0133b0:13
#013370:00230000
#013361:13
#013321:00230000
#0133a1:0014
#013391:000000000000003400000034
#013381:000000003434
#013361:00000034
#0143a1:24
#014360:14
#015370:22
#020320:00000000000000000000000000000016
#021320:0026000000000000
#021380:00000000000000000000000000000016
#022380:00260000000000000000000000000000
#022321:00160026000000000000000000000000
#023381:1626000000000000
#024321:0000180000230000
#0243b1:00000013
#024371:00000000000000000000000000000033
#0253b1:0023000000000000
#024320:00000000000000000000000000000013
#025360:0023000000000000
#025320:0000130000230000
#025360:00000000000000330000000000000000
#0253b1:00000000000000130000000000000000
#025371:0000000000230000
#0253b1:00000013
#025371:00000000000000000000000000000033
#0263b1:0023000000000000
#025320:00000000000000000000000000000013
#026360:0023000000000000
#026320:00130000
#026360:0023
#026370:00000013
#0263b0:0000000000000053
#027370:23
#027321:13230000
#027361:0053000000000000
#027321:0000000000000000000000000000000000000000000000001434343434343434
#028361:24
#032321:000000180000383838383838
#033321:38230000
#033360:000000180000380000380038
#034360:003800000000000000000000
#0343b0:00230000
#034361:00130023
#034321:0053
#0343b0:00000013
#035370:53
#0353b0:00230000
#035321:0000140000240000
#035361:00000000000000540000000000000000
#035321:0000000000000000000000000000000000000000000000000000000000000000000000000000000000000000000000000000000000000000000000000000000000000000000000000000000000000000000000000000000000000000000000000000000000000000000000000000000000000000000000000000000000000000000000000000000000000000000000001c0000580000005b000000570000005a0000005600000059000000550000005800000054000000570000005300000056
#036321:000000520000005500000052000000540000005200000054000000510000005300000051000000530000005100000000220000000000000000000000000000000000000000000000000000000000000000000000000000000000000000000000000000000000000000000000000000000000000000000000000000000000000000000000000000000000000000000000000000000000000000000000000000000000000000000000000000000000000000000000000000000000000000000000
#0373b1:00000013
#037371:0000000000000033
#0383b1:33230000
#038371:0033000000000000
#040371:12
#040321:0022000000000000
#041361:00132300
#041341:00000000003300330000000000000000
#041321:0000003300000000
#0413b0:00001323
#041390:00000000000000000033003300000000
#041370:0000000000330000
#041361:00000013
#041321:0000000000000023
#041370:0000000000000013
#0423b0:23
#042361:13
#042321:0023000000000000
#042371:00132300
#042391:00000000003300330000000000000000
#0423b1:0000003300000000
#042320:00001323
#042340:00000000000000000033003300000000
#042360:0000000000330000
#042371:00000013
#0423b1:0000000000000023
#042360:0000000000000013
#043320:23
#043371:13
#0433b1:0023000000000000
#0443b1:00130000
#044371:00000000000000230000000000000000
#044371:0000000000130000
#0443b1:00000023
#0453b1:00000000133300000033333300000033
#045371:00000000000033333300000033333300
#0463b1:23
#046321:00000000001333000000333333000000
#046361:00000000000000333333000000333333
#047321:33230000000000000000000000000000
#0473b1:000000000000000000000000135353535353535353535353230000000000000000000000000000000000000000000000
#0473a1:000000000000000000000000000000000000000000000000005300530053005300530053005300530053005300530053000000000000000000000000000000000000000000000000000000000000000000000000000000000000000000000000
#047321:000000000000000000000000000000000000000000000000000000000000000000000000135353535353535353535353
#047331:000000000000000000000000000000000000000000000000000000000000000000000000000000000000000000000000000000000000000000000000000000000000000000000000005300530053005300530053005300530053005300530053
#048321:23
#0483b1:000000000000135353535353535353535353535353535353230000000000000000000000000000000000000000000000
#0483a1:000000000000000000000000005300530053005300530053005300530053005300530053005300530053005300530053000000000000000000000000000000000000000000000000000000000000000000000000000000000000000000000000
#050321:0000000000000000000000000000000000000000143434343434340034343434
#050361:0000000000000000000000000000000000000000000000000000003400000000
#051321:26
#0503a0:0000000000000000000000000000000000000000143434343434003434343434
#050360:00000000000000000000000000340000
#051380:26
#053370:0013
#0533b0:00000023
#053321:0013
#053361:00000023
#054361:00130000
#054321:0023
#0543b0:00130000
#054370:0023
#0553b0:0013002300000000
#056370:00000000000000000000001300000000
#0563b0:0000000000000023
#057360:00130000
#057340:0000003300000000
#057320:0023
#057371:0013
#057391:0000000000330000
#0573b1:00000023
#0583b1:0013000000000000
#058381:0000002300000000
#058320:0013000000000000
#058350:0000002300000000
#058380:0013
#0583b0:00000033
#058360:0000000000000054
#0593a0:24
#058351:0013
#058321:00000033
#058361:0000000000000000000000000000000000000000000000000000000000000000000000000000000000000000000000000000000000000000000000000000000000000000000000000000000000000000000000000000000000000000000000000000000000000000000000000000000000540000000000000000000000000000
#059321:24
#0613a1:00001434
#061361:0000000000540054
#0623a1:34
#062361:0024000000000000
#0633b1:00130000
#063371:0023
#063321:0000000000130000
#063361:0000000000000023
#064361:0013000000000000
#064321:0000002300000000
#064371:0013
#0643b1:00000023
#066321:00000000130000530000330000000000
#066351:00000000005333000000005300002300
#0663b0:00000000130000530000330000000000
#066380:00000000005333000000005300002300
#067370:0013
#0673b0:00000023
#0683b0:0013000000000000
#068370:0000002300000000
#069370:00000000170000570000000057000000
#069330:0000000000000000000057000000000000000057000000000000000000005700
#069350:00000000000000000000000000000000000000000000000057000000000000000057000000000000000000570000000000000000000057000000000000000000
#070350:00000057000000000000000000000000000056000000000000000000000000000000005500000000000000000000000000000000000000000000000000000000
#070370:0000000000570000000000000000000000000000000055000000000000000000
#070330:0000000000000000000000000055000000000000000000000000000000000000
#070360:0000000000000000000000000000000000000000000000000000005400000000
#071350:53
#071370:0000000000520000000000000000000000000000000000000000000000000000
#071380:00220000
#071321:00120000
#072321:00560000
#073321:00220000
#0713a0:00000012
#0713c0:000000000000000000000022
#0723c0:001200000000
#0723a0:000000000022000000000000
#0733c0:00120000
#074380:00560000
#0753c0:00220000
#074361:0012
#074321:00000022
#075321:00120000
#076321:00560000
#077321:00220000
#075380:0012
#0763c0:22
#0773c0:00120000
#077380:000000000000000032320000
#0783c0:323200000000
#078380:0022
#077321:00000012
#078361:323200000000
#078321:0022
#078381:00000013
#078391:000000000000000000000033
#0793a1:003300000000000000000000
#0793b1:00230000
#083321:00140024
#083371:0054
#0833a0:00000014
#084350:54
#0843a0:00240000
#084321:00140024
#084371:0054
#0843a0:00000014
#085350:54
#0853a0:00240000
#086360:0014000000000000
#086320:000000000000002c
#0893b0:00001323
#090320:13230000
#092360:00130000
#092320:000053230000
#092371:0013
#0923b1:000000000000005300230000
#098361:00000014
#098321:000000000054
#099321:24
#1063a1:00000014
#106381:0000000000000000000000000000000000000000000000000034343434340000
#106361:00000000000000000000000000000024
#106320:00000000000000000000000000000014
#106340:0000000000000000000000000000000000000000000000000000000000000034
#107340:3434343400000000000000000000000000000000000000000000000000000000
#107360:0024000000000000
#1093a0:00000014
#109390:0000000000000000000000000000000000000000000000000034340000000000
#109380:0000000000000000000000000000000000000000000000000000003400000000
#109360:0000000000000000000000000000000000000000000000000000000034000034
#109370:0000000000000000000000000000000000000000000000000000000000343400
#1103a0:24
#110321:14240000
#110331:0034340000000000000000000000000000000000000000000000000000000000
#110341:0000003400000000000000000000000000000000000000000000000000000000
#110361:0000000034000034000000000000000000000000000000000000000000000000
#110351:0000000000343400000000000000000000000000000000000000000000000000
#111321:00120000
#112321:00320000
#112341:00000032
#113361:00000000323232323232323232323232
#113321:0000000000000000005600560056005600560056005600560056005600560056
#114321:26
#1113c0:00120000
#1123c0:00320000
#1123a0:00000032
#113380:0000000000000000325632563256325632563256325632563256325632563256
#114380:26
#1153b0:00130000
#115370:0000000000230000
#115351:0000001300000000
#115321:0000000000230000
#1163b1:00130023
#1163a1:00000000003300000000003300000000
#116391:0000003300330000
#116381:00000000000000330033000000000000
#116361:0033
#116320:00000013
#116330:00000000000000000000000000330000
#116340:0000000000000033
#116350:00000000000000000000000000000033
#117370:33
#117350:00330000000000000000000000000000
#117340:0033000000000000
#117330:00000033000000000000000000000000
#117320:00230000
#117361:00180000
#1183c1:00220000
#118320:00130000
#118330:00000000003300000000000000000000
#118340:0000003300000000
#118350:00000000000000330000000000000000
#118360:0023
#1183b1:0013
#1183a1:00000000000000000033000000000000
#118391:0000000000330000
#118381:00000000000000000000003300000000
#118371:00000023
#118320:00000013
#118330:00000000000000000000000000330000
#118340:0000000000000033
#118350:00000000000000000000000000000033
#119360:23
#1193b1:13
#1193a1:00330000000000000000000000000000
#119391:0033000000000000
#119381:00000033000000000000000000000000
#119371:00230000
#1213b1:0000000000000013
#121391:00000000000000000000000000000033
#122391:33333333000000000000000000000000
#122371:00230000
#122321:0000001300000000
#122341:00000000000000333333333300000000
#122361:00000023
