This file was generated by Ched 2.7.0.0.
#TITLE ""
#ARTIST ""
#DESIGNER ""
#DIFFICULTY 0
#PLAYLEVEL
#SONGID ""
#WAVE ""
#WAVEOFFSET 0
#JACKET ""
#REQUEST "ticks_per_beat 480"
#00002: 4
#BPM01: 264
#BPM02: 175
#BPM03: 190
#BPM04: 180
#BPM05: 232
#BPM06: 222
#BPM07: 212
#BPM08: 202
#BPM09: 182
#BPM0A: 285
#BPM0B: 300
#BPM0C: 174
#BPM0D: 273
#BPM0E: 200
#00008: 01
#03608: 00020000
#03408: 00030000
#03508: 00040000
#04708: 00050000
#06908: 00000006
#07008: 00070008
#07108: 00090000
#09508: 000A0000
#10308: 000B0000
#03708: 000C0000
#07908: 000D0000
#02008: 0E
#TIL00: ""
#VOLUME: ""
#HISPEED 00
#MEASUREHS 00
#00012:1313
#00112:13131313
#00118:0000000000000013
#0221b:003300000000000000130000000000000000000000000000
#02215:0013
#02212:0000130000001313
#02218:0000000000130000
#04314:0014
#04313:00000014
#0431b:0000001300000000
#0431a:0000000000130000
#04319:0000000000000013
#04315:00140000
#04412:14140000
#04418:0013000000000000
#0441a:0000000000140000
#05715:0013000013000000
#05718:1300130000000013
#05712:00130013
#0571b:0013
#06012:24140014
#06016:0014000014000014
#0601a:0000002400140000
#0611b:0013
#06118:00000013
#0611a:14
#06116:0014000000000000
#06112:00241300
#06115:00000013
#06318:13
#0631b:00130000
#06312:0000000000130000
#06315:0013000000000000
#06415:0013000000000013
#06418:0013
#06419:13
#06518:13
#06515:0013000000000013
#0651b:00130000
#06512:0013
#06514:0000000000330000
#08716:0000001400140000
#08712:00242400
#0871f:00210000
#09218:0000000000000013
#09212:00240000
#0921a:002400240000000000000000
#09215:00000023
#09315:13000023
#09318:0013000000000013
#0931b:0000001300130000
#09312:00231300
#09412:00140000
#09416:0000001400000000
#09415:13
#09418:0013000000000000
#0941a:0024
#11515:0000001300001300
#1151b:00130013
#11612:13000014
#11618:1300003400340000
#1161a:00140000
#11616:0014
#11619:00000000003400000000003400000000
#11617:00000000000000340034000000000000
#11613:00000000000000000000000000340000
#11614:0000000000000034
#11615:00000000000000000000000000000034
#1171a:00001414
#11716:14
#11715:00340000000000000000000000000000
#11714:0034000000000000
#11713:00000034000000000000000000000000
#11916:0000001400140000
#11912:00241400
#11915:13
#1191b:0013000000000000
#12114:1400000000000033
#12118:00001400000000000000000000000033
#1211a:00000000000000000000000000330000
#12119:0000000000000033
#12113:00000000000000000000000000330000
#12115:00000000000000000000000000000033
#12319:13000013
#1231b:00130000
#12314:13000013
#12312:00130000
#10114:2400000000140000
#1011a:0014000000000000
#10118:00002426
#10112:00260000
#10218:0014000026000000
#10214:24
#10212:00260000
#00215:13
#00218:0000001300000000
#0021b:0013000000000000
#00212:0000000000000013
#00318:0013001300130000
#00315:00232300
#0131b:1300000000000013
#01312:0013
#01318:0000000000130000
#01315:00000013
#03715:0013000023000013
#03718:00130013000013000000130000000000
#03712:00230013
#0371b:00000023
#03710:00410000
#04914:00140000
#04918:00000016
#04912:14
#0491a:0014000000000000
#04818:0000000000000014
#0481a:0000000000140000
#04814:00000014
#04812:0014
#05012:00180000
#05016:00000000000000000000000000140000
#0501a:0000000000000000000000000000000000000000143434343434003434343434
#07218:00000012
#07216:000000000000000000000012
#07314:001200000000
#07316:000000000000000000000012
#07310:00410000
#07618:0012
#0761a:000000120000000000000012
#07616:000012000000000000120000
#08112:00140014
#08118:14
#07912:00000014
#08012:00140014
#08612:14
#08616:0024000000000000
#08613:000000000000003a
#08512:00160014
#08516:0000000000000014
#08518:0016
#08212:00140000
#08215:0000000000130013
#08218:00001313
#05416:13230000
#0541b:0013000000130000
#05412:0000000000130000
#0591b:0000000000230013
#05916:00000013
#05912:00231300
#05917:0000001300000000
#06212:0000000000000013
#06214:00240000
#06218:0000002400000000
#0681b:0013000000130000
#06812:0013
#06818:00000013
#06815:0000000000000013
#06912:13
#0691b:0013000000000000
#06712:0013
#06715:00000000000000000000003300000000
#07116:0012
#07813:001200000000
#07814:32
#09914:0000000000140000
#09913:0000000000000014
#09912:00260000
#0991a:0024
#09919:00000024
#10012:0014000024000000
#10018:2400260000140000
#10019:0000000000000014
#10013:00000024
#10415:14
#10414:00000014
#10413:0014
#10412:00140000
#1041a:0024000000000000
#10417:0000002400000000
#10418:0000000000240000
#10419:0000000000000024
#10314:00000014
#10313:0014
#10312:00140000
#10317:0000002400000000
#10318:0000000000240000
#10319:0000000000000024
#10618:000026000000000000130000000000130000000000000000
#10615:00131313
#10613:00000000000000000000000000000033
#0101b:0000000000000013
#01018:0013001300130000
#01015:00131300
#01115:13
#01215:0013000000000013
#01218:00130013
#01212:0000001300000000
#03118:0000001400000000
#03117:0000000000140000
#03112:00242424
#0311a:24
#03116:0000000000000034
#02814:0000001400000000
#02815:0000000000140000
#02816:0000000000000014
#0281a:00242424
#03015:0000000000140000
#03014:0000001400000000
#03016:0000000000000014
#0301a:00242424
#03012:24
#0531b:1300000000000013
#05312:0023
#11112:00140000
#1111a:00140000
#03918:0013000000000000
#0391b:23
#10912:2600001300000013
#10918:0013
#10915:0000000000130000
#1091b:00130013
#1101a:00141414
#11012:0000001400140000
#11018:13
#11015:0013000000000000
#12414:0000001400240000
#12418:00141400
#09616:00241424
#0961a:0014001400140000
#09612:14
#09613:000000000000000000000034
#09615:000000000034
#09516:0000001400140014
#09512:00241424
#08318:13000016
#08312:00160000
#00515:00140000
#0081b:13130000
#00815:0013001300000000
#0081a:000000000000003300000000
#00819:000033
#00818:000000000000000000333300
#00810:41
#00912:13130000
#00918:0013001300000000
#00913:000000000000003300000000
#00914:000033
#00915:000000000000000000333300
#01412:14
#01913:0014
#0191a:001400
#01919:000014
#01912:000000000014
#01914:001400000000
#02018:1413
#0201b:0000000000130000
#02012:00130000
#02015:00000000000013000000000000000013
#02010:00410000
#02318:1323
#02315:0013001300000014
#02312:0000000000130000
#0231b:00230000
#0231a:00000024
#02412:0014000000141400
#02416:00180000
#02415:00000000000000000000000000000014
#02417:24
#02612:0000000000141400
#0261a:00140000
#02515:00000000000000000000000000000014
#0251a:00140000
#02517:00000000000000140000000000000000
#02512:00000024
#02918:0000001400000000
#02917:0000000000140000
#02916:0000000000000014
#02912:00242424
#0291a:24
#0331a:000000000000000000000014
#03416:001400000000000000000000
#03415:0014
#03412:00140014
#0351a:0014140000000000
#03517:00000000000000140000000000000000
#03512:00000024
#03217:000000000000000033133300
#0321b:0013
#03219:000000000000003300000033
#0381b:13230000
#03818:0013000023000013
#03815:0000001300002300
#03812:2300000000130000
#04715:00000013
#04718:00000013
#04712:003400000000000000000000000000000000000000000000130000000000000000000000000000000000000000000000000000000000000000000000000000000000000000000000000000000000000000000000000000000000000000000000
#0471b:00230000
#0521b:0013000000000000
#05212:0013000000001300
#05218:0000001300130000
#05215:0013
#05615:0000001300000000
#0561b:00130000
#05612:0000000000000000000000000000000033000033000033000000000000000000
#07516:000000120012320000000000
#0751a:12
#0751f:00110000
#07713:000012320000000000000000
#07716:000000000000000012320000
#08412:00160000
#08418:00000016
#08816:0000001400140000
#0881a:00242400
#08810:00410000
#08912:00130000
#08918:0000001300000013
#08915:00001313
#0891b:0000000000130000
#09012:13
#0901b:0013000000000000
#09015:00230000
#09018:00000023
#09716:0000001400140014
#0971a:00241424
#0981a:14
#09816:00241424
#09812:0014001400140000
#10515:14
#10518:000000000000000000260026
#10512:000000260026002600000000
#1051a:0024000000000000
#11412:00151515
#11419:00252525
#01518:0016
#01515:00000016
#01516:0000000000000036
#04115:0013
#0411b:00130000
#04112:0000000000130000
#04118:0000001300000000
#04114:0014000000000000
#02112:0000000000130000
#02115:0013
#0211b:00130000
#02118:00000000000013000000000000000013
#04218:0013
#04212:00130000
#0421b:0000000000130000
#04215:0000001300000000
#0061b:13
#00618:003333133333000000000000
#00616:000000000000000000000024
#06618:0000000000130000
#06612:00130000
#06615:0000000000130000
#0661b:00230000
#06619:0000003300000000
#06614:0000003300000000
#06613:0033000000000000
#07418:00000012
#1181a:14
#11812:00130013
#11818:0000001300000013
#11815:0013
#1181b:0000000000130000
#1201a:24140024
#12016:0014001400000000
#12012:00000024
#05815:1323
#05812:00000013
#0581b:0013000000001300
#05818:000000000033130000000000
#04612:000000000000000000000000000000000000000000000000000000000000002400000000003400000000000000000000000000000000000000000000003400000000000000000000003400000000000000000000000000000000000000000000
#04616:000000000000000000000000000000000000000000000000000000000000000000000000000000000000003400000000000000000000003400000000000000000000000000000000000000000000003400000000000000000000003400000000
#0451a:24000000003400000034003400000034
#04512:24
#04516:0000003434003434
#09116:000000000024000000000024
#09112:00240024
#0911a:000000000000002400000000
#1071b:0023
#01618:26260000
#01612:00002626
#01718:26260000
#01712:00002626
#0271a:00240000
#02714:0000002400000000
#02718:0024
#02712:0000000000240000
#05116:28
#05110:00410000
#10812:24
#10819:0025
#11312:002c0000
#1221a:00003300003300000000330000000000
#12219:00330000000033000033000000000000
#12218:00000000000000330000000000000000
#1221b:00000033000000000000003300000000
#12213:00003300003300000000330000000000
#12214:00330000000033000033000000000000
#12215:00000000000000330000000000000000
#12212:00000033000000000000003300000000
#01818:000000000000000000333300
#01819:000033
#0181a:000000000000003300000000
#00716:000034340034340000000000
#05514:00000000000000330000000000000000
#05513:00000000000000000000003300000033
#0551a:00000000000000330000000000000000
#05519:00000000000000000000003300000033
#04354:0014
#04353:00000014
#04355:00140000
#04452:14640000
#0445a:0000000000540000
#0615b:0053
#06158:00000053
#06152:0063
#06155:00000063
#06458:0053
#06455:0053000000000000
#11555:0000005300000000
#00258:0000005300000000
#0025b:0053000000000000
#00252:0000000000000013
#00358:0000000000630000
#0135b:63
#04954:00140000
#04958:00000016
#05052:00180000
#05056:00000000000000000000000000240000
#0505a:0000000000640000
#08558:0046
#08552:00360000
#0545b:0000000000130000
#05452:0000000000130000
#05456:00530000
#0635b:00530000
#06352:0000000000530000
#0685b:0053000000000000
#06752:0063
#07853:006200000000
#10655:00000063
#1165a:00540000
#11656:0024
#11652:00000064
#01155:63
#1105a:00000014
#00555:00540000
#00552:0014
#01252:0000006300000000
#01452:54
#02058:14
#02055:00000000000000000000000000000063
#0265a:00540000
#02652:00000064
#02456:00680000
#02452:00000054
#02455:00000000000000000000000000000054
#02555:00000000000000000000000000000054
#02552:00000064
#0255a:00640000
#02557:00000000000000640000000000000000
#03557:00000000000000240000000000000000
#0355a:00640000
#03552:00000054
#03455:0024
#03452:00540054
#03257:00000023
#0325b:0053
#03252:0014000000000000
#04755:00000023
#04758:00000023
#04752:000000000000001400000000000000000000000000000000530000000000000000000000000000000000000000000000000000000000000000000000000000000000000000000000000000000000000000000000000000000000000000000000
#0475b:00630000
#05252:00000013
#0535b:13
#05352:0063
#05655:0000005300000000
#07556:000000000052000000000000
#07753:006200000000
#07756:000052
#08352:00360000
#08358:00000046
#08452:00360000
#08458:00000046
#01558:0056
#01555:00000026
#06555:0000000000000063
#06552:0063
#0455a:14
#04552:14
#10158:00000016
#10152:00160000
#10252:00360000
#10258:0046
#09952:00160000
#10058:00160000
#0305a:00141414
#03052:14
#03152:00141400
#0315a:14
#1075b:0013
#02752:0000000000540000
#02952:00141414
#0295a:14
#0285a:00141414
#05156:48
#10852:14
#10859:0015
#10952:16
#0465a:14
#08753:1a
#09052:0013
#0915b:13
#01658:46460000
#01652:00003636
#01758:46460000
#01752:00003636
#02158:00000000000000000000000000000053
#00754:0000000000180000
#0065b:63
#00658:00230000
#06258:0000001400000000
#0665b:00530000
#06658:0000000000530000
#0665a:0000000000000014
#06652:0000630000000014
#06655:0000000000630000
#11756:24
#11752:00340000
#05852:00000063
#0585b:0053000000005300
#05858:0053
#05855:0063
#05955:13
#05958:13
#0023b0:0013000000230000
#002380:0000003300000000
#003380:0000000000130000
#0043b0:23
#004351:1424
#004341:003400000034000000000000
#004331:003434000000
#004321:00340000
#0043a0:0014
#004390:000000000000003400000034
#004380:000000003434
#004370:00000034
#0053a0:24
#005351:143434340000000000000000
#005321:0024
#0063b1:13003323
#006381:003333333333000000000000
#006361:000000000000000000000014
#007361:000034340034340000000000
#007341:0000000000280000
#0083b1:0013
#0083a1:000000000000003300000000
#008391:000033
#008381:000000000000000000333323
#009321:0013
#009331:000000000000003300000000
#009341:000033
#009351:000000000000000000333323
#011351:13
#011321:00230000
#011381:0013
#011391:000000000000003300000033
#0113a1:000000003333
#0113b1:00000033
#012381:23
#012321:0000001300000000
#012351:0000000000230000
#0133b1:13
#013381:00230000
#014321:14
#015361:24
#015381:0016
#015351:00000036
#015361:0000000000000036
#016381:26
#0183b1:1333
#0183a1:003300000033003300000000
#018391:003333003300
#018381:000000330000000000333323
#020351:00000000000000000000000013333333
#021321:0023000000000000
#021381:00000000000000000000000013333333
#0223b1:003300002300000000000000000000000000000000000000
#024361:00180000
#0243a1:0024
#024321:00000014
#024351:00000000000000000000000000000034
#025321:0024000000000000
#0253a1:0000140000240000
#025371:00000000000000340000000000000000
#025321:00000014
#025351:00000000000000000000000000000034
#026321:0024000000000000
#0263a1:00140000
#026371:0024
#026321:00000014
#027351:24
#027321:0000000000140000
#028361:24
#031321:00000014
#031361:00000000000000000000000000003434
#032321:0024000000000000
#0323b1:0013
#032391:000000000000003300000033
#032371:000000000000000033333300
#0333b1:23
#033351:00130023
#033321:0033
#0333b0:00130023
#033380:0033
#034320:00140034
#034350:0054
#035350:24
#0353a0:0000140000240000
#035370:00000000000000540000000000000000
#035320:00000014
#036360:00240000
#039320:00000000000000000000000000000000140000003400005400000000000000000000000000000000000000000000000000000000000000000000000000000000
#039330:00000000000000000000000000000000000000000000000034000000340000540000000000000000000000000000000000000000000000003400000034000054
#039340:00000000000000000000000000000000000000000000000000000000000000003400000034000054000000000000000034000000340000540000000000000000
#039350:00000000000000000000000000000000000000000000000000000000000000000000000000000000340000003400005400000000000000000000000000000000
#040320:3434240000000000
#040371:00000000000000000000000000000000140000003400005400000000000000000000000000000000000000000000000000000000000000000000000000000000
#040381:00000000000000000000000000000000000000000000000034000000340000540000000000000000000000000000000000000000000000003400000034000000
#040391:00000000000000000000000000000000000000000000000000000000000000003400000034000054000000000000000034000000340000540000000000000000
#0403a1:00000000000000000000000000000000000000000000000000000000000000000000000000000000340000003400005400000000000000000000000000000000
#041381:24
#0413b1:0000000000001323
#041350:0000000000001323
#042380:1323000000000000
#042321:1323000000000000
#042351:0000000000001323
#0423b0:0000000000001323
#043320:1323000000000000
#043381:1323000000000000
#044321:00140000
#044351:00000000000000240000000000000000
#0443a1:0000000000140000
#044361:0000000000000024
#0453a1:00000000143400000034343400000034
#045361:00000000000034343400000034343400
#0463a1:24
#046321:000000000000000000000000000000000000000000000000000000000000001400000000003400000000000000000000000000000000000000000000003400000000003400000000003400000000000000000000000000000000000000000000
#046361:000000000000000000000000000000000000000000000000000000000000000000000000000000000000003400000000003400000000003400000000000000000000000000000000000000000000003400000000003400000000003400000000
#047321:003400000000002400000000000000000000000000000000000000000000000000000000000000000000000000000000000000000000000000000000000000000000000000000000000000000000000000000000000000000000000000000000
#0473b1:00130000
#047381:00000053
#0483b1:00230000
#047320:00130000
#047350:00000053
#048320:00230000
#0503a0:0000000000000000000000000000000000000000143434343434003434343434
#050360:00000000000000000000000000340000
#051360:28
#051320:00130000
#051360:0023
#0513b0:0000000000130000
#051370:0000000000000023
#053320:0013
#053360:00000023
#054360:00130000
#054320:0023
#055350:0013003300003333
#055340:00000000000000330000000000000000
#055320:0000000033330000
#055330:00000000000000000000003300000033
#056320:3323000000000000
#0553b1:0013003300003333
#0553a1:00000000000000330000000000000000
#055381:0000000033330000
#055391:00000000000000000000003300000033
#056381:3323000000000000
#056351:0000001300000000
#056321:0000000000000000000000000000000033000033000033000000000023000000
#0583b1:0013000000003300
#058381:000000000033330000000000
#059381:23
#058350:0013
#058320:00000033
#059350:23
#0613b0:0013
#061380:00000033
#0623b0:23
#061321:0013
#061351:00000033
#062321:23
#0633b1:00130000
#063381:0023
#063321:0000000000130000
#063351:0000000000000023
#064351:0013000000000000
#064321:0000002300000000
#064381:0013
#0643b1:00000023
#065321:0013
#065341:0000000000330000
#065351:0000000000000033
#066331:0033000000000000
#066321:0000330000000024
#066341:0000003300000000
#066351:0000000000330000
#0663b0:00130000
#066390:0000003300000000
#066380:0000000000330000
#0663a0:0000000000000024
#067320:0013
#067350:00000000000000000000003333002300
#0683b0:0013000000000000
#068380:0000002300000000
#069320:00180000
#071320:00220000
#071380:000000000000000000120022
#072360:000012000032220000000000
#073380:00120022
#0733b0:0032
#074340:001200220000
#075360:000000000012320000000000
#076330:22
#077330:000012320000000000000000
#077360:000000000000000032320000
#078340:32
#078330:003200000000
#078360:0022
#078380:00000013
#078390:000000000000000000000033
#0793a0:003300000000000000000000
#0793b0:00230000
#086360:0014000000000000
#086330:000000000000003a
#087330:2a
#087320:00000014
#088360:24
#0883a0:00000014
#089360:24
#090350:00130000
#090340:003300
#090330:000000000033000000000000
#090320:0023
#090380:00000013
#090390:000000000033
#0903a0:000000000000000000000033
#0913b0:23
#0923a0:00142400
#092321:00142400
#096361:00000014
#096351:000000000034
#096331:000000000000000000000034
#097321:24
#098361:00000014
#0993a1:24
#106351:00000013
#106331:00000000000000000000000000000033
#107321:0023000000000000
#1073b1:00000000133333002300000000000000
#107321:00000000000000000000000014343400
#108321:24
#108391:00000000153535002500000000000000
#108321:00000000000000000000000016363600
#109321:26
#113321:00001c3c3c3c3c3c
#113361:00000000003400340034003400340034
#114321:2c
#115351:0000001300000000
#115321:0000000000230000
#1163a1:00140024
#116391:00000000003400000000003400000000
#116381:0000003400340000
#116371:00000000000000340034000000000000
#116361:0034
#116320:00000014
#116330:00000000000000000000000000340000
#116340:0000000000000034
#116350:00000000000000000000000000000034
#117360:34
#117350:00340000000000000000000000000000
#117340:0034000000000000
#117330:00000034000000000000000000000000
#117320:00240000
#1213b0:00000013
#1213a0:00000000000000000000000000330000
#121390:0000000000000033
#121380:00000000000000000000000000000033
#122380:33000000000000333300000000000000
#122390:00330000000033000033000000000000
#1223a0:00003300003300000000330000000000
#1223b0:00000033330000000000003323000000
#121321:00000013
#121331:00000000000000000000000000330000
#121341:0000000000000033
#121351:00000000000000000000000000000033
#122351:33000000000000333300000000000000
#122341:00330000000033000033000000000000
#122331:00003300003300000000330000000000
#122321:00000033330000000000003323000000
