This file was generated by Ched 2.7.0.0.
#TITLE ""
#ARTIST ""
#DESIGNER ""
#DIFFICULTY 0
#PLAYLEVEL
#SONGID ""
#WAVE ""
#WAVEOFFSET 0
#JACKET ""
#REQUEST "ticks_per_beat 480"
#00002: 4
#BPM01: 264
#BPM02: 232
#BPM03: 285
#BPM04: 300
#BPM05: 174
#BPM06: 200
#BPM07: 190
#BPM08: 180
#BPM09: 175
#BPM0A: 222
#BPM0B: 212
#BPM0C: 202
#BPM0D: 182
#BPM0E: 273
#00008: 01
#04708: 00020000
#09508: 00030000
#10308: 00040000
#03708: 00050000
#02008: 06
#03408: 00070000
#03508: 00080000
#03608: 00090000
#06908: 0000000A
#07008: 000B000C
#07108: 000D0000
#07908: 000E0000
#TIL00: ""
#VOLUME: ""
#HISPEED 00
#MEASUREHS 00
#0751f:00110000
#0201a:00140000
#02014:00000014
#02010:00410000
#02118:00140000
#02112:00000014
#0221a:00140000
#02214:00000014
#02318:00140000
#02312:00000014
#02818:00140014
#02812:0014
#03018:00140014
#03012:0014
#0371a:00140000
#03714:0014
#03718:00000014
#03710:00410000
#0381a:00140000
#03814:0014
#03812:14
#03818:00000014
#02914:00140014
#0291a:0014
#0311a:00140014
#03114:0014
#03112:14
#05218:00140014
#05214:14
#05212:0014
#0531a:00140014
#05312:14
#05314:0014
#0891a:00141400
#08914:00000014
#08912:14
#09518:00240014
#09514:0014
#09718:00140014
#09712:14
#09714:0014
#0981a:00140014
#09814:14
#09812:0014
#0411a:00140014
#04114:0014
#04218:00140014
#04214:14
#04212:0014
#0431a:00141400
#04312:14
#04314:00000014
#0511a:00140014
#05114:0014
#05110:00410000
#07913:00140000
#07919:00140000
#0871a:00240014
#08714:0014
#0871f:00210000
#09312:00140000
#09314:00000014
#09318:0014
#0931a:14
#0961a:00140014
#09614:14
#09612:0014
#09918:00140000
#0991a:00000014
#09912:14
#09914:0014
#10018:00140000
#10012:14
#10014:0014
#1001a:00000014
#10118:00140014
#10112:14
#10114:0014
#1021a:00140000
#10214:14
#10212:0014
#03912:14
#04414:14
#04418:00141400
#04412:00000014
#04512:14
#0451a:00000000000000340000340000340000
#05512:00140000
#05518:0014
#05514:00000014
#0561a:14
#05612:00140000
#05618:0014
#05614:00000014
#08814:14
#08812:0014
#08818:00140014
#08810:00410000
#09014:14
#09018:00141400
#09012:00000014
#10314:0014
#10318:00240014
#10414:14
#1041a:00003434
#10918:00160016
#10912:2616
#11012:16
#08112:00140014
#0821a:00140014
#08314:00140000
#08318:00000014
#08414:00140000
#08418:00000014
#09214:00000014
#0921a:003400340000000000000000
#11512:00140014
#11518:0014
#11618:14
#11614:00140014
#1161a:0014
#1171a:14
#03214:14
#03218:00260000
#03316:16
#03514:16
#04812:00000014
#04818:00140000
#05414:14
#0571a:14
#05714:00003414
#05712:00140000
#06718:0016
#06712:00160016
#06818:1616
#06812:00160016
#06918:16
#06912:00160000
#07216:00000016
#07414:00000016
#07615:00000016
#07815:00000016
#09112:14
#0911a:000000240034003400340034
#0241a:00140000
#02512:00140000
#06212:00140000
#06218:14
#06112:00140014
#06118:0014
#0631a:00140000
#06312:0014
#06318:00000014
#06414:14
#0641a:00140000
#06412:0014
#0941a:14
#11318:00160016
#11312:0016
#11412:1626
#11418:00260026
#12114:0014
#12112:0000000000003434
#12212:3434341434343434
#00612:14
#00618:0014
#01212:14
#01218:0014
#0041a:14
#00414:0014
#00212:14
#00218:0014
#0081a:14
#00814:0014
#00810:41
#0101a:14
#01014:0014
#00918:14
#00912:0014
#02618:00140000
#02714:00140000
#06618:00160000
#06615:0000003600360000
#12318:00000026
#12312:34
#04714:00240000
#10512:00260000
#10514:000000000036003600000036
#04912:00240000
#04918:00240000
#04919:00000024
#04913:00000024
#05014:00240000
#0501a:00240000
#10718:00262600
#10712:00000026
#10812:26000026
#10818:00262600
#03412:00260000
#11918:00240000
#0591a:00240000
#01612:2626
#01618:00260026
#01712:2626
#01718:00260026
#06518:00260000
#04612:00000000000000003400003400003400
#05814:34
#10614:003600000000000000000000
#07310:00410000
#07953:00140000
#07959:00140000
#1025a:00140000
#10252:0014
#03356:26
#03554:26
#05754:00000024
#05752:00640000
#06952:00160000
#0245a:00640000
#02552:00640000
#06252:00140000
#12154:0054
#12252:0000002400000000
#02658:00540000
#02754:00540000
#06658:00560000
#06655:0000000000000016
#03258:00560000
#11458:00000016
#03452:00660000
#0505a:0000000000140000
#05054:0000000000140000
#04754:00140000
#05458:000000000000001400000000
#05852:00000014
#09454:0014
#11058:00000016
#01952:00000016000000000000000000000000
#003320:1424
#0053a0:1424
#007320:1424
#011380:14
#0113a0:0024
#013340:14
#013320:0024
#014380:14
#015380:24
#018320:16
#019320:00000026000000000000000000000000
#0243a0:00140000
#024380:00000024
#025320:00140000
#025340:00000024
#026380:00140000
#0263a0:00000024
#027340:00140000
#027320:00000024
#032380:00160000
#033360:56
#033380:00000026
#034320:00160000
#035340:56
#035320:00000036
#036320:00260000
#0393a0:00140000
#039380:00003434
#0403a0:24
#040320:00140000
#040340:00003434
#041320:24
#0453a0:00000000140000340000340000340000
#046380:24
#046320:00000000001400003400003400003400
#047340:00340000240000000000000000000000
#0503a0:0000140000240000
#050341:0000140000240000
#054381:000000140000002400000000
#057321:00140000
#057341:00003434
#058341:34
#058321:00343424
#0593a1:00140000
#059381:0000000000340000
#0603a1:34000024
#060381:0000003400000000
#065381:0000160036360036
#066381:0036360000000000
#066351:0000003600360026
#071381:00160000
#072361:00260000
#073321:00160000
#074341:00260000
#075381:00160000
#076351:00260000
#077321:00160000
#078351:00260000
#085341:00143434
#086341:34240000
#0913a1:000000140034003400340034
#0923a1:003400340000000000000000
#092381:0026
#094341:00142400
#104381:00140000
#1043a1:00003434
#1053a1:24
#105321:00160000
#105341:000000000036003600360036
#106341:003600000000000000000000
#106321:00363636
#107321:26
#110381:00163626
#111341:00140000
#112341:00240000
#117321:00140000
#118341:00240000
#119381:0000140000340000
#1203a1:3400003400000000
#120381:00000034
#121381:0024000000000000
#121341:0014
#121321:0000000000003434
#122321:3434343434343434
#123321:34
#123341:00240000
#123381:00000016
#124381:00363600
#124371:0000003600260000
