This file was generated by Ched 2.7.0.0.
#TITLE ""
#ARTIST ""
#DESIGNER ""
#DIFFICULTY 0
#PLAYLEVEL
#SONGID ""
#WAVE ""
#WAVEOFFSET 0
#JACKET ""
#REQUEST "ticks_per_beat 480"
#00002: 4
#BPM01: 125
#00008: 01
#TIL00: ""
#VOLUME: ""
#HISPEED 00
#MEASUREHS 00
#0001a:14
#00112:14
#0021a:14
#00312:14
#0041a:14
#00410:41
#00514:14
#00618:14
#00712:14
#0081a:14
#00914:14
#01018:14
#01112:14
#0201a:14
#0201f:11
#0211a:14
#02214:14
#02314:14
#02418:14
#02518:14
#02612:14
#02814:0014
#0281a:24
#0281f:21
#03012:14
#03018:0014
#03218:14
#03214:0014
#03412:14
#0341a:0014
#0371a:14
#03814:14
#03818:0014
#03914:14
#04012:0016
#04018:26
#04010:41
#04218:0016
#04212:16
#04418:16
#04412:0016
#04518:16
#04512:0016
#04818:2616
#04810:41
#05012:1616
#05218:16
#05212:0016
#05318:1616
#05412:16
#05418:0016
#05512:1616
#0641a:14
#06414:0014
#06410:41
#06612:14
#06618:0014
#06818:14
#06814:0014
#07014:14
#07018:0014
#01210:41
#02910:41
#0123a0:14
#0133a0:24
#014320:14
#015320:24
#016380:14
#017380:24
#018340:14
#019340:24
#027320:1424
#0293a0:1424
#031320:1424
#033380:1424
#035320:1434
#036320:24
#041380:1626
#043320:1626
#046380:1626
#047320:1626
#049380:1626
#051320:1626
#056380:16
#056370:0036
#057380:3626
#058320:16
#058330:0036
#059320:3626
#060380:16
#060370:0036
#061370:36
#061380:0026
#062320:16
#062330:0036
#063330:36
#063320:0026
#065380:1424
#067340:1424
#0693a0:1424
#071320:1424
#072380:16
#073350:3600000000363626
