This file was generated by Ched 2.7.0.0.
#TITLE ""
#ARTIST ""
#DESIGNER ""
#DIFFICULTY 0
#PLAYLEVEL
#SONGID ""
#WAVE ""
#WAVEOFFSET 0
#JACKET ""
#REQUEST "ticks_per_beat 480"
#00002: 4
#BPM01: 125
#00008: 01
#TIL00: ""
#VOLUME: ""
#HISPEED 00
#MEASUREHS 00
#00112:1300000013000013
#00119:0013001300130000
#0011b:00130013
#00117:0013
#00114:0000000000330000
#00012:1313
#00014:0013001300000000
#00016:00130013
#0001b:0000000000000013
#00017:1313
#0031b:1313
#00314:0013001300130013
#00312:00130013
#00316:0013
#00318:00000026
#0021b:1313
#00219:0013001300000000
#00217:00130013
#00212:0000000000000013
#00216:1313
#00412:0000131300001300
#0041b:1313000000130000
#00416:1300000000130013
#00417:0000001300001300
#00410:41
#00512:0013000000001300
#00516:0000130000130000
#00517:0013001300000000
#0051b:00130000
#00519:0000000000000013
#0061b:0013001300001300
#00617:1300000000130000
#00616:0000131300001300
#00612:1300000000130013
#00716:0013000000001300
#00712:0000130000130000
#0071b:0013001300000000
#00717:00000000130000000013000000000000
#00719:0000000000000013
#00812:1313000000130000
#0081b:0000131300001300
#00817:1300000000130023
#00816:0000001300001300
#0091b:0013000000000000
#00917:0000130000000023
#00916:0013001300000000
#00912:0000130000000013
#00919:0000000000130000
#00914:0000000000230000
#01117:00130013
#01112:0000001300130013
#0111b:0013001300000000
#01116:13
#01218:0013000000000000
#01215:23130000
#0121b:2300001300000000
#01212:0000001300130000
#01216:0000000000001313
#01217:0000000000130000
#01210:41
#0131b:0000131300001300
#01312:0013000000130000
#01317:0013000000000000
#01316:00000013
#01314:0000000000000013
#01419:0000131300000000
#01416:0000000013130000
#01412:1300000000001313
#01417:1313000000001313
#01414:00130000
#0141b:0000000013130000
#01519:00130000
#01516:0013000000130000
#01517:0000001300000000
#01512:00000013
#0151b:1313000000000000
#01518:0000000000000013
#01514:00330000
#01615:1300001300000000
#01616:0000130000001313
#01617:0013000013000000
#0161b:0000130000130013
#01612:0013000013000000
#01717:0013000013000000
#0171b:0000131300000013
#01716:00130013
#01712:0013000000130000
#0181b:0000130000000012
#01817:1313000000000000
#01812:0013002500000000
#01819:0000002500000000
#01919:12
#01917:0012000000000000
#01915:00120000
#01913:0000000000123232
#0201b:00130000
#02012:2400001313000000
#02017:0013
#02019:00000013
#0201a:0000000000000013
#02018:2300000000130000
#0201f:11
#02015:0023000000000000
#02212:00131300
#02218:0023001313000013
#02215:2300000000131300
#0221b:00000013
#0221a:24
#0241b:00131300
#02416:0013
#02414:00000013
#02413:0000000000000013
#02415:0023000000130000
#02412:2400001300000000
#02418:23
#0261b:1300000013130000
#02612:00130013
#02616:1300000013000023
#02619:0013000000000000
#02617:00130013
#02614:0000001300000000
#0271b:0023001300001300
#02712:13230000
#02716:0023001300000014
#02717:00231300
#02112:0013000013001300
#02116:0000001300130000
#0211b:13
#02117:0013000000000000
#0211a:0000000000130000
#02119:0000000000000013
#01012:0013130000130013
#0101b:0000001313001300
#01017:0013000000130013
#01016:0000001300000000
#0361a:00120000
#03614:00000012
#03616:0000000000120000
#03612:23220000
#0361c:00000022
#03712:00121200
#03718:0012000000000012
#0371a:00220000
#0371c:00000022
#0381c:12120000
#03818:0012001200000000
#03816:00001212
#03812:0000000000120012
#03917:12
#03912:0000001c00000014
#0391a:0000000000000014
#04019:0013000000000000
#04012:24131313
#04016:0000001300130013
#0401b:0000001300130013
#04017:00131300
#0401a:24
#04010:41
#02818:0013000000000000
#02816:0000130000000013
#02814:0000001300000000
#02812:2413
#0281b:0000000000130013
#0281a:24
#0281f:21
#02912:0013131300002300
#02916:0013
#02914:0000000000000013
#02917:00130023
#02910:41
#03014:0013000000000000
#0301b:1313
#03016:13
#03017:0000130000000013
#03019:0000001300000000
#03012:0000000000130013
#03119:0000000000000013
#03119:0000000000000013
#0311b:0013131300002300
#0311b:00000023
#03117:0013
#03116:00130023
#03116:00000023
#03217:13
#03216:00000013000000000000000000001300
#03214:0000001300000000
#0321b:0000000000130013
#03219:0013000000000000
#03212:23
#03319:0000000000000013
#03312:0013130013000000
#03316:0000001300002300
#03316:00000023
#0331b:0000001300002300
#0331b:00000023
#03317:00130000
#03414:0013000000000000
#03417:1300000000131300
#03412:1300001300000000
#03416:00130000
#0341b:0000000013000013
#03419:0013000000000000
#0351b:1300001300230013
#03512:0013000023002300
#03514:00130000
#03516:2300000000130013
#03517:00001313
#03519:00230000
#04116:0014240024000000
#0411a:0000000000000000000000000000000000000000001400000000000000000000
#04118:00000000000000000000000000000000000000000000000000000000000000000000000000140000000000000000000000000000000000000000000000000000
#0411b:0000000000000013
#04112:0000000000000000000000001200000012000000241400000000000013000000
#04619:0013000000000000
#04616:1300001300000000
#0461b:1300001300001300
#04612:0000130000000013
#04617:00131300
#04715:00000000000000000000000000130000
#04718:0000000000000013
#04712:00001300000000001300230000000013
#0471b:1300001300001300
#04714:00130000
#04717:0013
#04716:23
#04719:00230000
#0571b:1300130013000013
#05717:0000001300001300
#05716:0000130000000013
#05712:1300001300001300
#05714:0000000000130000
#0571a:0000000000000000000000000000000000000000000000000000000000130013
#05719:00000000000000000000000000000013
#05919:0013000000000000
#05912:1300130000131300
#0591b:1300001300333333
#05914:0000000000000013
#05917:00131300
#05916:0000001300000000
#06312:00130013
#0631b:13000000000000001300000000130000
#06315:0000000000000013
#06318:00000000000000000000000000000013
#06319:0013000000000000
#06317:00130000
#06314:0000001300000000
#06316:2313
#0681b:0000130000000013
#06812:0000001300001300
#06816:0000130013000013
#06817:2300001300001300
#06417:0000001300001313
#06412:2600131300000013
#06416:0013
#06410:41
#0651b:1300000013000013
#06516:0000000013001313
#06514:0013000000000000
#06517:00130000
#06512:00130000
#06519:0000001300000000
#06612:13
#0661b:0000131300000013
#06616:0000001300001313
#06617:0013
#06712:13001313
#06719:0013000000000000
#0671b:0000130000000013
#06716:0000130000000013
#06714:0000001300000000
#06717:00001313
#07214:0012001200000000
#07218:00120012
#0721a:0012
#07216:0000000000000012
#07316:0012001200000000
#0731a:0000120000220000
#0731c:0012
#07314:0000000000120000
#07319:00000014
#07312:0000000000000016
#07313:00000024
#07318:0000000000000026
#0431a:0000000000000000000000000000000000000000001400000000000014000000
#04312:0000000000000000000000000000000012000000241400000000000014000000
#04316:0014240024000000
#04318:00000000000000000000000000000000000000000000000000000000000000000000000000140000000000000000000000000000000000000000000000000000
#0431c:0000001200000000
#04512:0000000000000000000000000000000012000000241400000000000013000000
#04517:1300000000000013
#04516:0013240024000000
#04518:00000000000000000000000000000000000000000000000000000000000000000000000000140000000000000000000000000000000000000000000000000000
#0451a:0000000000000000000000000000000000000000001400000000000000000000
#0451c:0000001200000000
#0251b:0013000013001300
#02517:0000001300130000
#02512:13
#02516:0013000000000000
#02513:0000000000130000
#02514:0000000000000013
#04214:0013000000000000
#0421b:13131313
#04217:0000001300130013
#04216:00131300
#04212:1300001300130013
#0441b:0013130000130013
#04416:00000013000000000000130000001300
#04415:0013
#04417:0000001300001300
#04412:2400001300000000
#0441a:24
#0521b:0013130013001300
#05216:00130013
#05217:1300000000130000
#05212:2400001300000000
#0531a:14
#05316:0000000000130013
#05317:00131313
#05312:0013130013000000
#0531b:0000001300000000
#05418:00130013
#05412:0000001300002300
#0541b:0013
#05415:0013
#05414:0000000000000013
#05516:1313
#05519:0013000000000000
#05517:0000130000130013
#05514:00000000000013000000000000000013
#05513:0000000000000000000000000000000000000000000000000000000000130013
#05512:0000230000130013
#0551b:23002323
#05617:00130013
#05619:0000001300000013
#0561b:0013
#05613:0013001300130013001300130013001300130013001300130013001300130013
#05614:00130013001300130013001300130013
#05612:1313131313131313
#0561a:24
#0581a:0013001300130013001300130013001300130013001300130013001300000000
#0581b:1313131313131300
#05819:00130013001300130013001300130000
#05816:00130013
#05814:0000001300000013
#05812:0013
#06017:00130013
#06019:0000001300000013
#0601b:2313
#06013:0013001300130013001300130013001300130013001300130013001300130013
#06014:00130013001300130013001300130013
#06012:1313131313131313
#0611b:1300130000001313
#06117:0013001300000000
#06116:00131313
#06112:1300001300130013
#0611a:0000000000000000000000000000000000000000000000000000000000130013
#06119:00000000000000000000000000000013
#06113:0013001300000000000000000000000000000000000000000000000000000000
#06114:00130000000000000000000000000000
#06212:00130013
#06214:0000001300000013
#06216:0013
#0621a:0013001300130013001300130013001300000000000000000000000000000000
#0621b:1313131300000000
#06219:00130013001300130000000000000000
#06217:00000013
#0691b:0013001300001300
#06917:1300130000000013
#06916:0013001300001300
#06912:0000130013000013
#0701b:1300001300001300
#07017:0000130000000013
#07016:0000001300001300
#07012:0000130013000013
#07112:0013001300002300
#07116:13132300
#07117:0013001300000000
#0711b:00000000130000001300000000000023
#0711b:0023
#07118:00000000000000000000000000230000
#07115:0000000000000023
#04816:0013000000000000
#04817:00130000
#04812:00131313
#04815:0000000000130000
#04818:00000013
#0481b:0000000000000013
#0481a:24
#04810:41
#04912:1313
#04918:0013000000000000
#04916:00130000
#0491b:00130013
#04914:0000001300330013
#04917:0013
#05012:1300000000000013
#0501b:13131313
#05017:0013000000000000
#05016:00130000
#05018:0000000000130000
#05015:00000013
#0511b:1300000013000013
#05115:0013000000000000
#05117:00130000
#05112:00130013
#05119:0000001300330000
#05116:0013
#02315:0000000000000013
#02318:00000013
#00152:6363
#00156:00130000
#0015b:00000013
#00057:6363
#0005b:00130000
#00056:00000013
#0035b:53
#00357:00130000
#00352:00000013
#00257:00000013
#00256:5353
#00252:00130000
#00457:0000006300002300
#0045b:0000000000630000
#00456:0000000000000053
#00552:0053000000000000
#00556:00230000
#00557:0000005300000000
#0065b:0000005300002300
#00657:0000000000530000
#00652:0000000000000063
#00756:0063000000000000
#00752:00230000
#0075b:0000006300000000
#00757:00000000000000000023000000000000
#00856:0000005300002300
#00852:0000000000530000
#00857:0000000000000063
#0095b:0063004300000000
#00957:0000230000000043
#00954:0000000000330000
#0115b:0000006300000000
#01157:00000013
#01156:23
#01257:0000000000530000
#01256:0000000000000023
#0125b:0000002300000000
#01352:0053000000000000
#0135b:0000002300001300
#01557:0000005300000000
#01556:0023000000000000
#01552:00000013
#01452:0000000000000063
#01655:0000006300000000
#01657:0063000000000000
#01652:0023
#0165b:00230000
#01656:0000000000000063
#01756:00230023
#01757:0023
#01752:0063003300630033
#0175b:0000006300430000
#02052:1463
#0235b:0043
#02352:0033
#0245b:0053
#02452:14
#02156:0000006300630000
#0215b:6300001300000000
#02157:0023000000000000
#0215a:0000000000130000
#02159:0000000000000013
#02152:00002323
#01052:0000000000000053
#03957:22
#03952:0000006c00000000
#0405a:44
#04052:34
#0405b:0000002300230013
#04057:00636300
#04056:0000000000000063
#0285b:0000000000000053
#02856:0000000000000013
#02852:34
#0355b:1300000000000023
#03557:00001353
#03554:00130000
#03252:13
#0325b:0000000000000053
#03256:0000000000000013
#03652:33
#0305b:13
#03052:0000000000000063
#03057:0000000000000013
#0295b:0043
#02957:00230000
#03156:00230000
#03152:0033
#0335b:0000002300000000
#03357:00631300
#03758:0012
#03756:00000012
#06452:3600000000000023
#06457:0000002300000000
#0645b:0043
#0685b:00634300
#06856:0000000013000023
#06857:1300002300000000
#06852:33000053
#05756:0000530000000023
#05752:5300002300006300
#0575b:1300000013000023
#0575a:0000000000000000000000000000000000000000000000000000000000630063
#05759:00000000000000000000000000000023
#0655b:4300000013000023
#06552:00130000
#0665b:0000000000000023
#06652:3333
#06656:0000002300000000
#06752:33003353
#0675b:00430000
#06756:0000000000000023
#0715b:0043
#0715b:0043
#07152:0023002300000000
#07156:63631300
#0265b:0000000000530000
#02657:00000023
#02756:0000005300000000
#02757:0013
#0275b:00000013
#04657:0013
#01953:0000000000220000
#0225a:14
#02557:0000005300530000
#02552:5300001300000000
#02556:0023000000000000
#02553:0000000000130000
#02554:0000000000000013
#0255b:00002323
#03452:00000013
#04152:0000000000000000130000000000000000000000002400000000000000000000
#04158:00000000000000000000000000000000000000000000000000000000000000000000000000640000000000000000000000000000000000000000000000000000
#0415a:0000000000000000000000000000000000000000002400000000000000000000
#04156:0024
#04256:00535300
#04252:0000002300230013
#0425b:13
#04257:0000000000000053
#04358:00000000000000000000000000000000000000000000000000000000000000000000000000640000000000000000000000000000000000000000000000000000
#0435a:0000000000000000000000000000000000000000002400000000000000000000
#04352:0000000000000000000000000000000000000000002400000000000000000000
#04356:0024
#0435b:00130000
#04452:14
#04455:0053
#0445b:0000530000000063
#04456:0000000000230013
#04457:0000002300000000
#04557:23
#04558:00000000000000000000000000000000000000000000000000000000000000000000000000640000000000000000000000000000000000000000000000000000
#0455b:00130000
#0455a:0000000000000000000000000000000000000000002400000000000000000000
#04552:0000000000000000000000000000000000000000002400000000000000000000
#04556:0024
#0475b:13
#04754:00130000
#04757:0013
#05256:00000013
#05257:0000000000630000
#0525b:00130023
#05252:34
#0535a:14
#05356:0000000000230063
#05357:00000063
#05352:00136313
#05458:00130013
#05455:0013
#0545b:13
#0565a:44
#0565b:0013
#05653:0053005300530053005300530053005300530053005300530053005300530053
#05654:00230023002300230023002300230023
#05652:2323232323232323
#05556:1363
#05553:0000000000000000000000000000000000000000000000000000000000530053
#05552:0000000000230023
#05554:00000000000000000000000000000023
#0585a:0063006300630063006300630063006300630063006300630063006300000000
#0585b:2323232323232300
#05859:00230023002300230023002300230000
#05852:3313
#05952:13530000
#05957:0023
#0595b:0000005300000000
#05956:0000005300000000
#0605b:1313
#06053:0053005300530053005300530053005300530053005300530053005300530053
#06054:00230023002300230023002300230023
#06052:2323232323232323
#0615b:1300530043000023
#06152:2300000000000023
#06157:0000002300000000
#06156:00000053
#0615a:0000000000000000000000000000000000000000000000000000000000630063
#06159:00000000000000000000000000000023
#06153:0053005300000000000000000000000000000000000000000000000000000000
#06154:00230000000000000000000000000000
#06256:1313
#0625a:0063006300630063006300630063006300000000000000000000000000000000
#0625b:2323232300000000
#06259:00230023002300230000000000000000
#06357:00130000
#06356:1313
#0695b:0023002300000000
#06957:53531300
#06952:0000000033000023
#06956:00000063
#0705b:4300002300006300
#07057:0000530013000023
#07052:0033
#07056:13
#0485a:44
#04852:00130013
#0495b:00130013
#04952:0053
#05052:13
#0505b:00130013
#05152:00130013
#0515b:0063
#000370:13
#0003b0:00230000
#000370:0013
#0003b0:00000023
#001320:13
#001360:00230000
#001320:0013
#001340:0000000000330000
#001360:00000023
#002360:13
#002320:00230000
#002360:0013
#002320:00000023
#0033b0:13
#003370:00230000
#003380:00000000000000000000000016560000
#0033b0:000000000000000000000000000000000000000000000000000000000000000000000000000000000000000000000000000000000000000000000000000000000000000000000000000000000000000000000000000000000000000000000000000000000000000000000000000000000000000000000000000000000000000000000000000000000000000000000000000000000000000000000000000000000000000000000000000000000000000000000000000000000000000000000000000000000000000000000000000000000000000000000000000000000000000000000000000000000000000000000000000000000000000000000000000000000000000000000000000000000000000000000000000000000000000000000000000000000000000000000000000000000000000000000000000000000000000000000000000000000000000000000000000000000000000000000000000000000000000000000000000000000000000000000000000000000000000000000000000000000000000000000000000000000000000000000000000000000000000000000000000000000000000000000000000000000000000000000000000000000000000000000000000000000000000000000000000000000000000000000000000000000000000000000000000000000000000000000000000000000000000000000000000000000000000000000000000000000000000000000000000000000000000000000000000000000000000000000000000000000000000000000000000000000000000000000000000000000000000000000000000000000000000000000000000000000000000000000000000000000000000000000000000000000000000000000000000000000000000000000000000000000000000000000000000000000000000000000000000000000000000000000000000000000000000000000000000000000000000000000000000000000000000000000000000000000000000000000000000000000000000000000000000000000000000000000000000000000000000000000000005300000000000000000000000000000000000000000000000000000000000000000000000000000000000000000000000000000000000000000000230000000000000000000000000000000000000000000000000000000000000000000000000000000000000000000000000000000000000000000000000000000000000000000000000000000000000000000000000000000000000000000000000000000000000000000000000000000000000000000000
#004370:0000001300005300
#0043b0:0000000000330023
#004361:0000000000000013
#005321:0033002300000000
#005361:00530000
#005370:0000001300000000
#0053b0:00000023
#0063b0:0000001300005300
#006370:0000000000330023
#006321:0000000000000013
#007361:0033002300000000
#007321:00530000
#0073b0:0000001300002300
#007370:00000000000000000053000000000000
#008360:0000001300005300
#008320:0000000000330023
#008371:0000000000000013
#0093b1:0033002300000000
#009371:00530000
#010321:0000000000000013
#011361:53
#011321:0023000000000000
#0113b1:0000001300000000
#011371:0000000000230000
#0123b1:0000001300000023
#012371:0000000000330000
#012360:0000000000000013
#013320:0033000000000000
#013360:0000002300000000
#0133b1:0000001300000000
#013371:0000000000230000
#014321:0000000000000013
#015361:0033000000000000
#015341:00330000
#015321:0000002300000000
#015370:0000001300000000
#0153b0:00000023
#016370:0013000000000000
#0163b0:00530000
#016380:0000002300000000
#016351:0000001300000000
#016321:0053
#016361:0000000000230000
#016361:0000000000000013
#017321:0033002300000000
#017361:00530000
#0173b0:0000001300230000
#017370:0053
#017321:0000000000130023
#017361:00000053
#018321:000000000000000000000000000000000000000000000000000000000000000000000000150000000055545553575458555257535655000000000000250000000000000000000000000000000000000000000000000000000000000000000000
#018390:000000000000000000000000000000000000000000000000000000000000000000000000150000000055005500000000550000000055000000000000250000000000000000000000000000000000000000000000000000000000000000000000
#018380:000000000000000000000000000000000000000000560056000000000000000000000000000000000000000000000000
#018370:000000000000000000000000000000000000000000000000000000000000000000000000000000000000000057000000000000570000000000000000000000000000000000000000000000000000000000000000000000000000000000000000
#0183b0:000000000000000000000000000000000000000000000000000000000000000000000000000000000000000000530000000053000000000000000000000000000000000000000000000000000000000000000000000000000000000000000000
#0183c0:000000000000000000000000000000000000000000000000000000000000000000000000000000000000000000000052000000000000000000000000000000000000000000000000000000000000000000000000000000000000000000000000
#018360:000000000000000000000000000000000000000000000000000000000000000000000000000000000000000000000000005800000000000000000000000000000000000000000000000000000000000000000000000000000000000000000000
#0183a0:000000000000000000000000005400000000000000000000
#019330:0000001200323232
#020320:24
#020381:1323000000000000
#020350:0013230000000000
#020320:0013
#021360:23
#0213b1:1300332300000000
#021371:0053000000000000
#021360:0000133300330023
#021320:00005353
#022350:1323000000000000
#022381:0013230000000000
#023321:13332300
#023351:0033003300000000
#0233b0:13332300
#023380:0033003300000000
#024380:1323000000000000
#024351:0013230000000000
#0243b1:0013
#025371:23
#025320:1300332300000000
#025360:0053000000000000
#025371:0000133300330023
#0253b1:00005353
#0263b1:0000000000130023
#026371:00000053
#027361:0000001300000000
#027321:0000000053332300
#0283b1:00130000
#028371:0023
#028361:0000000000132300
#0283b0:0000000000001333
#029370:00330000
#0293b0:0023
#030320:00130000
#030360:0023
#030370:0000000000132300
#030321:0000000000001333
#031361:00330000
#031321:0023
#0323b1:00130000
#032371:0023
#032320:0013
#032360:0000000000532300
#0323b1:0000000000001333
#033371:00332300
#0333b1:0000005300000000
#0343b1:00130000
#034371:0000002300000000
#034361:0013
#034321:0000000000532300
#035371:00000013
#0353b1:0000000000000053
#036371:23
#036381:0000001222000000
#036361:0000000000000012
#037361:22
#037381:0000001222000000
#037361:0000000000122200
#038361:13330000
#038321:0033002300000000
#0383b1:00001333
#038371:0000000000330023
#039371:12000022
#039321:0000005c00000000
#040371:00135323
#0403b1:0000005300530000
#040361:0000000000000013
#041321:0053230000000000
#041360:0000142400000000
#041360:0014
#041380:00000000000000000000000000000000000000000000000000000000000000000000000000540000000000000000000024000000000000000000000000000000
#0413a0:0000000000000000000000000000000000000000005400000000000000000000
#041321:0000000000000000000000000000000000000000145400000000000000000000
#041341:00000024
#042361:00135323
#042321:0000005300530000
#042371:0000000000000013
#0433b1:0053230000000000
#043360:0000142400000000
#043360:0014
#043380:00000000000000000000000000000000000000000000000000000000000000000000000000540000000000000000000024000000000000000000000000000000
#0433a0:0000000000000000000000000000000000000000005400000000000000000000
#043321:0000000000000000000000000000000000000000145400000000000000000000
#043341:00000024
#0443b1:00130000
#044371:0000005300000000
#044381:0023
#044350:0013
#044360:0000000000530000
#044320:00000023
#0443b0:0000000000000013
#045370:53
#0453b0:0053230000000000
#045361:0000142400000000
#045361:0014
#045381:00000000000000000000000000000000000000000000000000000000000000000000000000540000000000000000000024000000000000000000000000000000
#0453a1:0000000000000000000000000000000000000000005400000000000000000000
#045320:0000000000000000000000000000000000000000145400000000000000000000
#045340:00000024
#046320:0013
#046360:00000023
#047320:000000000000000000000000000000000000000000000000000000000000000000000000000000000000000000000000000000000000000000000000000000000000000000000000000000000000000000000000000000000000000000000000000000000000000000000000000000000000000000000000000000000000000000000000000000000000000000000000000000000000000000000000000000000000000000000000000000000000000000000000000000000000000000000000000000000000000000000000000000000000000000000000000000000000000000000000000000000000000000000000000000000000000000000000000000000000000000000000000000000000000000000000000000000000000000000000000000000000000000000000000000000000000000000000000000000000000000000000000000000000000000000000000000000000000000000000000000000000000000000000000000000000000000000000000000000000000000000000000000000000000000000000000000000000000000000000000000000000000000000000000000000000000000000000000000000000000000000000000000000000000000000000000000000000000000000000000000000000000000000000000000000000000000000000000000000000000000000000000000000000000000000000000000000000000000000000000000000000000000000000000000000000000000000000000000000000000000000000000000000000000000000000000000000000000000000000000000000000000000000000000000000000000000000000000000000000000000000000000000000000000000000000000000000000000000000000000000000000000000000000000000000000000000000000000000000000000000000000000000000000000000000000000000000000000000000000000000000000000000000000000000000000000000000000000000000000000000000000000000000000000000000000000000000000000000000000000000000000000000000000000000000000000000000000000000000000000000000000000000000000000000000000000000000000000000000000000000000000000000000000000000000000000000000000000000000000000000000000000000000000000000000000000000000000000000000000000000000000000000000000000000000000000000000000000000000000000000000000000000000000000000000000000000000000000000000000000000000000000000000000000000000000000000000000000000000000000000000000000000000000000000000000000000000000000000000000000000000000000000000000000000000000000000000000000000000000000000000000000000000000000000000000000000000000000000000000000000000000000000000000000000000000000000000000000000000000000000000000000000000000000000000000000000000000000000000000000000000000000000000000000000000000000000000000000000000000000000000000000000000000000000000000000000000000000000000000000000000000000000000000130000000000000000000000000000000000000000000000000000000000000000000000000000000000000000000000000000000000000000000000000000000000000000000000000000000000000000000000000000000000000000000000000000000000000000000000000000000000000000000053560000000000000000000000000000000000000000000000000000000000000000000000000000000000000000000000000000000000000000000000000000000000000000000000000000000000000000000000000000000000000000000000000000000000000000000000000000000000000000000000260000000000000000000000000000000000000000000000000000000000000000000000000000000000000000000000000000000000000000000000000000000000000000000000000000000000000000000000000000000000000000000000000000000000000000000000000000000000000000000000000000000000000000000000000000000000000000000000000000000000000000000000000000000000000000000000000000000000000000000000000000000000000000000000000000000000000000000000000000000000000000000000000000000000000000000000000000000000000000000000000000000000000000000000000000000000000000000000000000000000000000000000000000000000000000000000000000000000000000000000000000000000000000000000000000000000000000000000000000000000000000000000000000000000000000000000000000000000000000000000000000000000000000000000000000000000000000000000000000000000000000000000000000000000000000000000000000000000000000000000000000000000000000000000000000000000000000000000000000000000000000000000000000000000000000000000000000000000000000000000
#048370:0000001300000000
#0483b0:0023
#049320:0013
#049340:0000000000330000
#049360:00000023
#050360:0000001300000000
#050320:0023
#0513b0:0013
#051390:0000000000330000
#051370:00000023
#052360:0013
#052320:0000000000230000
#052371:0000000000130023
#0523b1:00000053
#052320:0000000000000013
#053320:23
#053320:00001323
#053360:0000000000530000
#053371:00000013
#0543b1:23
#053360:0000000000000013
#054320:00230000
#055360:00001323
#055320:0000000000530000
#055320:0000000000000013
#055330:0000000000000000000000000000000000000000000000000000000000530053
#055340:00000000000000000000000000000053
#056320:5353535353535353
#056330:0053005300530053005300530053005300530053005300530053005300530053
#056340:00530053005300530053005300530053
#057320:3300005300000000
#057360:00332300
#057320:00000013
#057360:0000000000000053
#058320:23
#0573b1:0000000000000013
#0573a1:0000000000000000000000000000000000000000000000000000000000530053
#057391:00000000000000000000000000000053
#0583b1:5353535353535323
#0583a1:0053005300530053005300530053005300530053005300530053005300000000
#058391:00530053005300530053005300530000
#059321:00132300
#059361:0000005300000000
#0593b0:0000001300333333
#059370:0053
#0603b0:23
#060321:1353535353535353
#060331:0053005300530053005300530053005300530053005300530053005300530053
#060341:00530053005300530053005300530053
#061321:5323000000000000
#061331:0053005300000000000000000000000000000000000000000000000000000000
#061341:00530000000000000000000000000000
#0613b1:00132300
#061371:0000005300000000
#061361:00000013
#061321:0000000000000053
#062361:23
#0613b0:0000000000000013
#0613a0:0000000000000000000000000000000000000000000000000000000000530053
#061390:00000000000000000000000000000053
#0623b0:5353535323000000
#0623a0:0053005300530053005300530053005300000000000000000000000000000000
#062390:00530053005300530000000000000000
#064370:0000133300000000
#0643b0:0023
#064320:0000000000001333
#065360:23
#0653b0:0000000000001333
#066370:23
#066360:0000133300000000
#066320:0023
#0663b0:0000000000001333
#067370:23
#067320:00000013
#067360:0000000000000053
#068320:23
#0683b0:00132300
#068370:0000005300000000
#068320:00000013
#068360:0000000000000053
#069320:23
#069371:13332300
#0693b1:0053005300000000
#069361:00000013
#069321:0000000000000053
#070361:23
#070371:00132300
#0703b1:0000005300000000
#0703b1:00000013
#070371:0000000000000053
#0713b1:23
#071360:13332300
#071320:0053005300000000
