This file was generated by Ched 2.7.0.0.
#TITLE ""
#ARTIST ""
#DESIGNER ""
#DIFFICULTY 0
#PLAYLEVEL
#SONGID ""
#WAVE ""
#WAVEOFFSET 0
#JACKET ""
#REQUEST "ticks_per_beat 480"
#00002: 4
#BPM01: 125
#00008: 01
#TIL00: ""
#VOLUME: ""
#HISPEED 00
#MEASUREHS 00
#00118:1300000000130000
#00112:00000013
#00115:0013
#00018:13
#00015:0013
#0041b:13130000
#00415:0013001300000000
#00418:0000000000001313
#00410:41
#00312:0000000013000013
#0031b:13000013
#00315:00000013
#00318:0013
#00515:0000131300000000
#0051b:0000000000000013
#00615:0013000000001313
#00618:1300001300000000
#00612:00130000
#00712:0000000000000013
#00718:0000131300000000
#00815:00130000
#00818:0013000000001323
#0081b:13
#00812:0000001300000000
#00915:0000130000230000
#00918:0000002300000000
#0091b:0000000000000023
#0111b:0000131300000000
#01112:0000000000000013
#01218:0013000000000000
#01215:00130000
#0121b:2300000000001313
#01212:0000001300000000
#01210:41
#01312:0000131300000013
#0131b:00000013
#01515:0000001300000013
#01518:13000013
#01512:0013000000000000
#0151b:00130000
#01412:0000001300000013
#0141b:13000013
#01418:00131300
#01415:0013000000130000
#01615:00130013
#01612:1313
#01618:0000001300130000
#0161b:0013000000000000
#0201b:0013
#02018:00130013
#02012:0013000000000013
#02015:0000001300130000
#0201f:11
#0201a:24
#0361c:00120012
#03616:0000001200120000
#03612:23
#03512:1313
#0351b:0013000000130000
#03518:00130013
#03515:0000001300000013
#07214:0012001200000000
#07218:00120012
#0721a:0012
#07216:0000000000000012
#07314:0012001200000000
#07318:00120026
#0731a:0012
#07312:0000000000260026
#06518:13
#0651b:0000130013000013
#06515:0000001300000000
#06512:0013000000000000
#04712:0000001300000013
#0471b:1300000000130000
#04718:0013000013000000
#04715:00130013
#05512:0000140000140014
#0551a:14001414
#05516:0014001400000000
#05214:00140000
#0521a:0000001400000000
#05218:0014000000000000
#05212:2614
#05118:0000000000000014
#05112:00140000
#0511a:0000001400000000
#05114:0014
#05316:00140000
#0531a:0000001400000014
#05312:0014000000000000
#0021b:13
#00212:0013
#01712:00130000
#01718:0000001300000000
#01715:0000000000130000
#0171b:0000000000000013
#0181a:0000000000000014
#01815:0013000013000000
#01818:00130000
#01812:0000001300000000
#01916:14140000
#01912:0014000000000000
#02118:13130000
#02112:0013000000000013
#0211b:0013
#03712:1200001200000014
#03712:0000001400000000
#0371a:00121414
#04814:0014000000000000
#04818:26140000
#0481a:0000000000140014
#04812:00000014
#04810:41
#04914:14141400
#04918:0014001400000014
#05012:14001414
#0501a:0014001400000014
#05014:00140000
#05018:0000000000140000
#05416:00140000000000000000000000000000
#05412:0000001400000000
#05414:0000000000000014
#05712:0000130013000014
#05718:0000001300001400
#05915:13
#0591b:00130000
#05918:00000014
#05912:0000000000000014
#06112:0000001300000014
#0611b:0013
#06114:0000000000140000
#06118:00000014
#0621b:00000013
#06215:0000000000000013
#06216:00000014000000000000000000000000
#06312:0013000000000013
#06318:00130000
#06315:0000001300000000
#0631b:23
#06415:0000001300000000
#0641b:0013
#06412:0000000000000013
#06418:23
#06410:41
#06615:13
#06618:0000001300000000
#06612:0013
#0661b:0000000000000013
#06715:1300000000000013
#06712:00131300
#06718:0000001300001300
#0671b:0013000000000000
#06818:0000001300000000
#06812:0013
#0681b:2300000000000013
#06912:13
#06918:0013000000000013
#06915:00131300
#0691b:0000001300000000
#07012:1300000000000013
#07015:0000001300000000
#0701b:0013
#0711b:13
#07115:0013000000002323
#07118:00000000130000002300000000230023
#07112:0000001300000000
#02212:0013000000000013
#02218:00130013
#0221b:2313
#02215:0000001300130000
#02412:23130000
#02418:0013001300000000
#02415:00001313
#0241b:0000000000130013
#0231a:1414
#02316:0014001400000000
#02312:00140000
#0231b:0000000000000013
#02315:00000013
#02512:1313
#02518:0013000000000000
#0251b:0000000000000013
#02515:00130000
#02612:1313
#03118:0000130000000013
#03115:0000001300000000
#0311b:0013
#03112:00000023
#0101b:00001313
#01012:0013001300000013
#01015:0000000000130000
#01018:00130000
#02715:0000001300000000
#02718:0000000000000013
#02818:0013000000130000
#02815:00131300
#0281b:0000001300000000
#02812:26000013
#0281f:21
#0301b:13000013
#03015:0013000000130000
#03018:00131300
#03012:0000001300000000
#02915:0000130000000013
#02918:0000001300000000
#02912:0013
#0291b:00000023
#02910:41
#0341b:0000000000000013
#03412:13130000
#03418:0013001300000000
#03315:0000130000000013
#03318:0000001300000000
#03312:0013
#0331b:00000023
#03215:00000013000013000000000013000000
#03212:2300000000130000
#03218:0013000000000000
#0321b:00131300
#04618:00130000
#04612:0000001300000000
#04615:0000000000000013
#04315:0000130000000013
#04318:0000001300001300
#04312:0013
#04115:0000001300001300
#04118:0000130000000013
#0411b:0013
#04415:0013000013000000
#04418:00000013000000000000130000000000
#0441b:2300001300000013
#04412:00130013
#04015:0000001300131300
#0401b:0000000013000013
#04018:26130000
#04012:0013000000000000
#04010:41
#03915:0000000000000013
#04218:0000001300131300
#04212:1300000013000013
#04215:00130000
#0421b:0013000000000000
#04518:00130000
#04515:0000001300000000
#0451b:0013
#0581b:0000000000000013
#05816:00000000001400000000000000000000
#0601a:14
#06016:0000000000140000
#0561a:14
#05616:0014
#00158:63
#0015b:00130000
#00152:00000013
#00058:63
#0005b:00130000
#00055:0053
#00052:00000013
#00555:0000005300000000
#0115b:0000006300000000
#01158:00000013
#00858:0000000000000063
#00852:0000006300000000
#01555:0000005300000000
#0655b:0013
#0035b:53
#00358:00130000
#0025b:53
#00252:0063
#00258:00130000
#00255:00000013
#00758:0000006300000000
#00658:0000006300000000
#00655:0000000000000053
#00958:0000001300000000
#00955:0000000000130000
#0095b:0000000000000013
#01252:0000002300000000
#0125b:0000000000000023
#01352:0000002300000000
#0135b:00000013
#01758:0000001300000000
#01755:0000000000130000
#0175b:0000000000000013
#0205a:14
#03652:13
#04858:16
#04954:0064
#04952:00000014
#05152:00000014
#05154:0054
#0505a:0000000000000054
#05252:16
#0535a:0000000000000054
#05354:00000014
#05456:00240000000000000000000000000000
#0645b:0013
#06458:13
#06655:13
#06652:0013
#06752:0013
#06852:0013
#0685b:13
#06955:0013
#0705b:0013
#07052:13
#07158:0013
#0225b:13
#02452:13
#0315b:0013
#00458:0000000000000063
#00455:0000005300000000
#01052:0000000000000053
#01852:0000005300000000
#01855:0023
#02755:0000006300000000
#0305b:13
#02952:0013
#02852:16
#03352:0013
#03252:13
#0405b:0000000000000063
#04058:16
#0415b:0013
#04252:1300000000000053
#04352:0013
#0445b:1300000000000063
#0455b:0013
#02158:00630000
#0215b:0023
#02552:0023
#02555:00530000
#06056:0000000000240000
#0605a:64
#05752:0000000000000064
#0565a:64
#05656:0024
#05856:00000000002400000000000000000000
#06256:00000024000000000000000000000000
#06152:0000000000000064
#0635b:13
#000380:13
#0003b0:00230000
#000350:0013
#000320:00000023
#001380:13
#0013b0:00230000
#0023b0:13
#002380:00230000
#002320:0013
#002350:00000023
#0033b0:13
#003380:00230000
#004350:0000001300000000
#004320:0000000000230000
#004380:0000000000000013
#0053b0:0023000000000000
#005350:0000001300000000
#005320:00000023
#006380:0000001300000000
#0063b0:0000000000230000
#006350:0000000000000013
#007320:0023000000000000
#007380:0000001300000000
#0073b0:00000023
#008320:0000001300000000
#008350:0000000000230000
#008380:0000000000000013
#0093b0:0023000000000000
#010320:0000000000000013
#011350:0023000000000000
#0113b0:0000001300000000
#011380:0000000000332300
#012320:0000001300000000
#012350:0000000000230000
#0123b0:0000000000000013
#013380:0023000000000000
#013320:0000001300000000
#013350:0000000000230000
#015350:0000001300000000
#015320:0000000000230000
#016380:0000000000000013
#0173b0:0023000000000000
#018320:0000001300230000
#018350:0053
#0193a0:0000001400343434
#0203a0:24
#021380:00130023
#0213b0:0053
#025350:00130023
#025320:0053
#0263b0:0013000000000000
#026380:0000002300000000
#026320:0000000000130000
#026350:0000000000000033
#027320:33330023
#027350:0033003300000000
#028380:0000000000000013
#0293b0:0023000000000000
#030350:0000000000000013
#031320:0023000000000000
#032380:0000000000000013
#0333b0:0023000000000000
#034320:0013
#034350:00000023
#0383a0:14340000
#038380:0034002400000000
#038320:00001434
#038340:0000000000340024
#0403b0:0000000000000013
#041380:0023000000000000
#042320:0000000000000013
#043350:0023000000000000
#0443b0:0000000000000013
#045380:0023000000000000
#045350:0000000000000013
#046320:0023000000000000
#046380:0013
#0463b0:00000023
#048340:0000001400000000
#048320:0024
#049340:0014
#049320:00000024
#0503a0:0000000000000014
#051380:0024000000000000
#051340:0014
#051320:00000024
#052380:0000000000140000
#0523a0:0000000000000024
#053320:0014
#053340:00000024
#0533a0:0000000000000014
#054360:00540000000000000000000000000000
#0543a0:00240000
#054380:00001424
#0563a0:14
#056360:0054
#0573a0:24
#057320:0000000000000014
#058360:00000000005400000000000000000000
#058320:00000024
#059340:0000001400000000
#059320:0000000000240000
#0603a0:14
#060360:0000000000540000
#0613a0:00240000
#061320:0000000000000014
#062360:00000054000000000000000000000000
#062320:0024
#0633b0:0013
#063380:00000023
