This file was generated by Ched 2.7.0.0.
#TITLE ""
#ARTIST ""
#DESIGNER ""
#DIFFICULTY 0
#PLAYLEVEL
#SONGID ""
#WAVE ""
#WAVEOFFSET 0
#JACKET ""
#REQUEST "ticks_per_beat 480"
#00002: 4
#BPM01: 125
#00008: 01
#TIL00: ""
#VOLUME: ""
#HISPEED 00
#MEASUREHS 00
#00012:1300130013000013
#00016:0013001300000000
#0001b:0013001300001300
#00017:13130000
#00112:0013001300001300
#0011b:1300130013000013
#00117:0013001300000000
#00116:13130000
#00114:0000000000130000
#00119:0000000000330000
#00412:0000130013000013
#0041b:1313001300130000
#00416:1300001300000000
#00419:00000013
#00417:0000000000000013
#00410:41
#0051b:0000130000130013
#00512:0000131300000000
#00516:00001300000000000013000000001300
#00517:0000001300001300
#00517:00000013
#00614:13
#00619:13
#00617:0013001300000013
#00612:0013001300000013
#00616:00131313
#0061b:00131313
#00712:0013000000130013
#00716:0000001300001300
#00717:00000000000000000013000000001300
#00714:00130000
#0071b:1300001300000000
#00816:1300001300000024
#00812:0000130000130000
#00819:0013000000000000
#0081b:1300001300000000
#00817:00130000
#00814:00000013
#0081a:0000000000000014
#0091a:0000000000120000
#00912:0014000000000012
#00916:0014000000000024
#00914:0000340000240000
#00918:00340000
#01112:0000130000000013
#0111a:0014000000000000
#01116:0013000000000000
#01819:12
#01812:0000130000000012
#01817:0012002200000000
#0181b:00130000
#01815:12
#0101b:1313130013001300
#01012:1300000000130013
#01016:0000001414141414
#01017:00000013000000000000000000000000
#0401b:0000001300130013
#04016:0014001300130013
#04012:26131313
#04017:00130013
#04018:26
#04010:41
#04612:0013130000130013
#04616:1300001313000000
#04617:0000130000130013
#0461b:1300001313001300
#0471c:0000001200001200
#04716:23000000000012001400000000120000
#0471a:1400000000000012
#04714:00000000140000000000000000000012
#04712:0012000023230000
#0471b:0000000000130000
#04718:0012000000000000
#04719:00230000
#0571c:00120000
#05717:0000001200001313
#0571a:1414
#05714:0000000000130000
#05712:0000001400001300
#05715:14140000
#05718:0014000000000000
#0571b:0000000000000013
#05919:0013000000000000
#05916:0000001300130013
#05912:1400130000000013
#0591b:0000131300001300
#05914:00000013
#05917:0013
#0631b:0013130000001300
#06316:00000000130000001400000000130000
#06319:0000001300000013
#06314:00000000000013000000000000000013
#06312:2413000024000000
#07212:0012001200000000
#07216:00120000
#07218:0012
#0721a:00000012
#07214:0000000012000012
#07316:0012001200000000
#0731a:00120000
#0731c:0012
#07318:0000000012261626
#07312:0000000000162616
#03912:0000000000000014
#0391a:0000000000000014
#04512:0000120012000013
#0451b:0013000000000000
#04517:1300000000000013
#04515:0000001200000000
#0451c:0000000000000000000000000000000000000000001200000000000000000000
#04514:0000000000000000000000000000000000000000221200000000000000000000
#04518:0000222212000000
#04216:0014130000001300
#04212:1400001300130013
#0421a:14
#04217:0000001300130013
#0421b:00131313
#04115:0000001200000000
#0411a:0000000000000014
#04112:1300120012000014
#0411b:0013000000000000
#0411c:0000000000000000000000000000000000000000001200000000000000000000
#04114:0000000000000000000000000000000000000000221200000000000000000000
#04118:0000222212000000
#04415:00000013000013000000000013000000
#0441b:0000000000130013
#04418:0013000013001300
#04412:2400130000000013
#0441a:24
#0561c:00120012
#05617:0000001200000012
#0561a:2414
#05612:1400001400000014
#05615:00141414
#05618:0014000000140000
#0281b:0013001300000000
#02817:00130000
#02816:0000000000130000
#02812:2600000000001313
#02818:26
#0281f:21
#03014:0013000000000000
#03016:00130000
#03012:0000001300000000
#03017:1300000000130000
#0301b:0000000000001313
#02919:0000000000000013
#0291b:0013001300002300
#02917:00130000
#02916:0013001300002300
#02912:00130000
#02910:41
#03114:0000000000000013
#03112:0013001300002300
#03116:00130000
#03117:0013001300002300
#0311b:00130000
#03119:0000000000130000
#03214:0013000000000000
#0321b:0000001300000000
#03216:2300000000130000
#03212:0000000000001313
#03217:00000013000000000000000000000000
#03316:0000001300002300
#0331b:0013001300002300
#03312:0000130000000013
#03317:0000000000000013
#03417:0013000000000000
#0341b:13001313
#03416:0000001313000013
#03412:0000130000130000
#03612:0000120000120000
#0361c:00000012
#03616:00001222
#0361b:23
#03618:00220000
#0371c:00221200
#03712:0000001200001200
#0371a:0012000000000012
#03716:00121200
#03718:1200001200002200
#03714:0000000000120000
#0381c:12120000
#03817:0012001212001200
#03812:0000000000120012
#03512:1400001200230013
#0351c:0012000000000000
#03518:00140000
#03516:0000000014141413
#03517:23
#03514:00230000
#0351b:00002323
#00216:0013001300001300
#00212:1300130000000013
#00217:13131300
#0021b:0013001300000000
#00317:0013001300000000
#0031b:13130000
#00316:1300130013002813
#00312:0013001300001300
#00319:0000000000130000
#00314:0000000000130000
#01217:0013001300000000
#01212:0013001300001300
#01216:1300000000130013
#0121b:23000000130000000013000000001300
#01210:41
#0131b:00000000130000000013000000000000
#01312:00130000000013000000000013000000
#01317:0013001300000000
#01315:0000000000000012
#01316:0000000000130000
#01319:0000000000000022
#0151a:0000141400140000
#01512:0000001300001400
#01516:0000000000000014
#01517:0013
#02012:0000120000121212
#0201c:0000001212000000
#02016:0012
#02018:2625000000001212
#0201f:11
#02013:25
#02216:0000001212000012
#0221c:00121200
#02218:2500000000121200
#02212:26000012
#02213:0025000000000000
#02319:00000012
#02317:0000000000000012
#02315:00000012
#02412:00121200
#0241c:0000001200121212
#02418:2625000012000000
#02416:0000000000001212
#02413:25
#0191a:0000000000000012
#01913:12
#01914:0012000000000000
#01915:00120000
#01916:0000001200000000
#02118:1200000000120000
#02116:0000000000000012
#0211a:0000001200000000
#02112:12
#02516:1200000000120000
#02518:0000000000000012
#02514:0000001200000000
#0251c:12
#0261b:1300000013000023
#02612:00130013
#02617:1313
#02619:0012000000120000
#02616:0000130000001424
#02615:0000001200000000
#02717:1200001200120012
#02718:00001314
#02715:0013
#02714:00000014
#02712:0023000000000000
#02716:0024240000000000
#0271b:00230000
#01619:15150000
#01616:0000001600000000
#01612:0000001300181513
#0161b:0000000000130000
#01615:13130000
#01618:0013000013001300
#0161c:0012000000000000
#0171c:0012001200000000
#01712:0000120000000014
#01716:0000141400140000
#04312:0000000013000000000000001200000012000000221200000000000014000000
#0431b:13
#0431a:0000000000000000120000000000000000000000001200000000000014000000
#04316:0000222212000000
#01418:12220000
#01416:0012002212000012
#01414:00120000
#01412:0000001200000000
#01413:0000000000120000
#01417:0000000000221200
#0141a:0022000022000000
#0141c:22
#0141b:00000022
#0481b:1300000000130000
#04817:0013000013000000
#04812:2612000000120012
#04816:00120000
#04814:00000012
#04810:41
#04916:1200120000120014
#04912:0012000012000000
#0491b:1300000000130000
#04917:0013000013000000
#04914:0000001200000000
#0501c:0012000012001200
#05018:0000120000120000
#05012:1300000000130000
#05016:0013000013000000
#0501a:1400001200000000
#0511c:0012000012000000
#0511a:00120000
#05118:0000001200120000
#05116:0013000013000014
#05112:1300000000130000
#0521b:13
#05217:0013000000000000
#05212:2413
#05216:0000120000130000
#05214:0012001200000000
#05218:0000000012000012
#0521c:0000000000120000
#0531b:13
#05317:0013000000000000
#05312:0012001213000000
#05316:1200120000130000
#05318:0000000012000012
#0531a:00000012
#0541c:00120000000000000000000000000000
#05415:13
#05412:0000130000120000
#05418:0000001213000012
#0541b:00000013
#05416:0000000012000012
#05512:13241524
#05515:00001600000000000000000000130013
#0551a:00140014
#05516:0000001400000000
#05517:0000000000120000
#05518:0000000000000013
#0551b:23
#05519:0025
#05812:00121412
#05817:0000141214001412
#0581a:1400001400000014
#05814:0014000000140000
#06116:0000140014000014
#06114:0013000000140000
#0611b:1300000013000013
#06112:00130014
#06119:0000001300000000
#06117:00000013
#06412:24130000
#06414:0000001300000013
#06416:00001313
#0641a:24
#06410:41
#06512:1300000013000024
#06516:0000130000240000
#06514:0000001300000000
#06518:00000024
#0661a:14
#0661b:00130000
#06619:0000001300000013
#06617:00001313
#0671b:1313
#06717:00130000
#06719:0013000000000000
#0671a:0000000000000024
#06712:0000002400000000
#06716:0000000000240000
#06714:00000024
#07012:14130013
#07014:0000001300000013
#07016:0013
#07112:0013001300002626
#07116:2313131323000000
#0711a:14142400
#07118:00000000000000000000000000260026
#06012:1400001400000014
#06017:0000001200000012
#0601a:24141414
#06016:00140014
#0621a:1400001400000014
#06217:0000001200000012
#06212:24141414
#06216:00140014
#06916:1300130013000024
#06912:0013001300000000
#0691a:0000000000240000
#06914:00000024
#06814:0000001300000013
#06812:24130013
#06816:0013
#00052:00136300
#0005b:0023002300001300
#00057:63630000
#00152:0023002300001300
#0015b:00135300
#00156:53530000
#00757:00000000000000000023000000000000
#0075b:2300006300004300
#00954:0000000000340000
#00956:0024004400000044
#00952:0024000000000000
#0095a:0000004400000000
#01056:0000000000000054
#01057:00000023000000000000000000000000
#01052:63
#04058:46
#04052:36
#0405b:0000002300000013
#04056:0000000000000063
#04057:00630000
#04852:36
#0485b:6300430000230000
#04857:0023000053003300
#0465b:2313
#04652:0000000000230000
#04656:0053
#0425a:14
#04252:1400002300000013
#04257:0000000000000053
#04256:00530000
#04452:1400000000000063
#0445a:14
#0445b:0000000000000013
#0475a:14
#04754:00140000
#04756:0014
#0565a:4444
#05652:5400002400000024
#05658:0024000000240000
#05655:00545454
#05752:0000002400006300
#05757:0000000000000023
#0575a:4444
#05755:54540000
#05758:0024000000000000
#05956:0000005300000023
#05952:34530000
#0595b:0000005300006300
#05957:0023
#05852:3434
#0585a:6400002400000024
#05857:00646464
#05854:0024000000240000
#03057:13
#0305b:0000000000000023
#03052:13
#03056:0000000000000033
#03252:0000000000000023
#03256:13
#0325b:13
#03257:0000000000000043
#03356:0000006300000000
#0335b:0063006300000000
#03352:00231300
#03357:0013
#03157:0053005300000000
#03152:0000005300000000
#0315b:00231300
#03156:0013
#02852:3600000000000023
#02858:46
#02857:0000000000000043
#02956:0063006300000000
#0295b:0000006300000000
#02952:00231300
#02957:0013
#0345b:00006313
#03456:0063
#03452:0000000000230000
#0375c:0012
#03752:00000012
#03552:3400000000000023
#03556:00003464
#03558:00440000
#0365b:43
#03656:44
#00256:0023002300000000
#00252:63630000
#00257:00136300
#0025b:00000013
#00357:0023002300000000
#0035b:53534300
#00356:00130000
#00352:00000033
#00452:0023
#00456:0000005300000000
#00457:0000000000000063
#00552:0000006300003300
#00556:00000000000000000023000000000000
#00657:0000006300000063
#00652:0000006300000000
#00656:0023
#0065b:0023
#0085b:0000005300000000
#0085a:0000000000000064
#00856:0000000000000064
#01256:6300000000000063
#01252:0023006300001300
#0125b:00000000130000000023000000006300
#01257:0000006300000000
#01352:00230000000063000000000013000000
#0135b:00000000130000000023000000000000
#01357:0000006300000000
#01557:0023
#01552:0000006300001400
#0155a:0000001400000000
#0115b:00000043
#01152:00000033
#0115a:0024000000000000
#0205c:0052
#02058:16
#0195a:0000000000000022
#02158:0000000000420000
#02156:0000000000000042
#0215a:0000004200000000
#02152:52
#02452:0062
#02458:16
#02556:0000000000320000
#02558:0000000000000032
#02554:0000003200000000
#0255c:62
#02758:00000044
#02755:0033
#02752:0013000000000000
#0275b:00130000
#02252:16
#0265b:0000000000000013
#0235b:0043
#02352:0033
#0165b:0000000000230000
#01655:6300630000000043
#01652:0000002300000053
#01658:0023000063006300
#04152:23120000
#0415c:0000000000000000000000000000000000000000002200000000000000000000
#04154:0000000000000000000000000000000000000000002200000000000000000000
#04158:0062
#0435b:23
#0435a:0000000000000000120000000000000000000000002200000000000000000000
#04352:0000000000000000000000000000000000000000002200000000000000000000
#04356:0062
#04557:2300000000000063
#04552:00120000
#0455c:0000000000000000000000000000000000000000002200000000000000000000
#04554:0000000000000000000000000000000000000000002200000000000000000000
#04558:0062
#0495b:6300430000230000
#04957:0023000053003300
#04952:00006232
#04956:0000000000220000
#05052:5300330000230000
#05056:0023000063004300
#0505a:14
#0525b:63430000
#05257:0023000000000000
#05252:14005333
#05256:0000000000230000
#0525c:0000000000220000
#0535b:63430000
#05357:0023000000000000
#05352:00005333
#05356:0000000000230000
#05358:0000000062000062
#0545c:00220000000000000000000000000000
#05455:13
#05452:0000130000220000
#05458:0013
#0545b:00000013
#05456:0062
#05552:3335
#0555a:00440044
#05156:0023000063004300
#0515c:00005242
#05152:5300330000230000
#05158:0000000000220000
#06452:34
#06456:0013
#06552:1313
#06556:00130000
#0665a:44
#06657:0013
#0675b:1313
#06757:00130000
#0715a:64644400
#07156:1323002313000000
#07056:0013
#07052:34
#0175c:0000001200000000
#01752:0000000000140014
#0175a:0000000000000014
#01756:0000006400640000
#06052:5400002400000024
#0605a:4444
#06056:00640064
#0615b:4343
#06152:00330064
#06156:0000000000000024
#0625a:6400002400000024
#06252:3434
#06256:00540054
#06356:00134400
#06352:34
#06956:1313
#06856:0013
#06852:34
#000370:13332300
#0003b0:0053005300000000
#000321:0013
#000361:00000023
#001361:13332300
#001321:0053005300000000
#0013b0:0013
#001390:0000000000330000
#001370:00000023
#002320:13332300
#002360:0053005300000000
#002371:0013
#0023b1:00000023
#0033b1:13332300
#003371:0053005300000000
#003361:0000000000000000000000000000000000000000000000001858000000000000
#0033b1:000000000000000000000000000000000000000000000000000000000000000000000000000000000000000000000000000000000000000000000000000000000000000000000000000000000000000000000000000000000000000000000000000000000000000000000000000000000000000000000000000000000000000000000000000000000000000000000000000000000000000000000000000000000000000000000000000000000000000000000000000000000000000000000000000000000000000000000000000000000000000000000000000000000000000000000000000000000000000000000000000000000000000000000000000000000000000000000000000000000000000000000000000000000000000000000000000000000000000000000000000000000000000000000000000000000000000000000000000000000000000000000000000000000000000000000000000000000000000000000000000000000000000000000000000000000000000000000000000000000000000000000000000000000000000000000000000000000000000000000000000000000000000000000000000000000000000000000000000000000000000000000000000000000000000000000000000000000000000000000000000000000000000000000000000000000000000000000000000000000000000000000000000000000000000000000000000000000000000000000000000000000000000000000000000000000000000000000000000000000000000000000000000000000000000000000000000000000000000000000000000000000000000000000000000000000000000000000000000000000000000000000000000000000000000000000000000000000000000000000000000000000000000000000000000000000000000000000000000000000000000000000000000000000000000000000000000000000000000000000000000000000000000000000000000000000000000000000000000000000000000000000000000000000000000000000000000000000000000000000000000000000000000000000000000000000000000000000000000000000000000000000000000000000000000000000000000000000000000000000000000000000000000000000000000000000000000000000000000000000000000000000000000000000000000000000000000000000000000000000000000000000000000000000000000000000000000000000000000000000000000000000000000000000000000000000000000000000000000000000000000000000000000000000000000000000000000000000000000000000000000000000000000000000000000000000000000000000000000000000000000000000000000000000000000000000000000000000000000000000000000000000000000000000000000000000000000000000000000000000000000000000000000000000000000000000000000000000000000000000000000000000000000000000000000000000000000000000000000000000000000000000000000000000000000000000000000000000000000000000000000000000000000000000000000000000000000000000000000000000000000000000000000000000000000000000000000000000000000000000000000000000000000000000000000000000000000000000000000000000000000000000000000000000000000000000000000000000000000000000000000000000000000000000000000000000000000000000000000000000000000000000000000000000000000000000000000000000000000000000000000000000000000000000000000000000000000000000000000000000000000000000000000000000000000000000000000000000000000000000000000000000000000000000000000000000000000000000000000000000000000000000000000000000000000000000000000000000000000000000000000000000000000000000000000000000000000000000000000000000000005300000000000000000000000000000000000000000000000000000000000000000000000000000000000000000000000000000000000000000000000000000000000000000000000000000000000000000000000000000000000000000000000000000000000000000000000000000000000000000000000000000000000000000000000000000000000000000000000000000000000000000000000000000000000000000000000000000000000000000000230000000000000000000000000000000000000000000000000000000000000000000000000000000000000000000000000000000000000000000000000000000000000000000000000000000000000000000000000000000000000000000000000000000000000000000000000000000000000000000000000000000000000000000000000000000000000000000000000000000000000000000000000000000000000000000000000000000000000000000000000000000000000000000000000000000000000000000000000000000000000000000000000000000000000000000000000000000000000000000000
#004361:0000001300230000
#004321:0053
#004371:0000000000000013
#0053b1:0023000000000000
#005321:0000001300002300
#005361:00000000000000000053000000000000
#006321:0000001300230000
#006361:0053
#006370:0000001300230000
#0063b0:0053
#006370:0000000000000013
#0073b0:53
#007370:0023000000000000
#0073b0:0000001300002300
#007370:00000000000000000053000000000000
#0083b0:0000001300000000
#008370:0000000000230000
#0083a0:0000000000000014
#009360:000000000000000000000000000000000000000000000000000000000000000000000000000000000000000000000000000000000000000000000000000000000000000000000000000000000000000000000000000000000000000000000000000000000000000000000000000000000000000000000000000000000000000000000000000000000000000000000000000000000000000000000000000000000000000000000000000000000000000000000000000000000000000000000000000000000000000000000000000000000000000000000000000000000000000000000000000000000000000000000054000000000000000000000000000000000000000000000000000000000000000000000000000000000000000000000000000000000000000000000000000000000000000000000000000000000000000000000000000000000000000000000000000000000000000000000000000000000000000000000000000000000000000000000000000000000000000000000000000000000000000000000000000000000000000000000000000000000000000000000000000000000000000000000000000000000000000000000000000000000000000000000000000000000000000000000000000000000000000000000000000000000000000000000000000000000000000000000000000000000000000000000000000000000000000000000000000000000000000000000000000000000000000000000000000000000000000000000000000000000000000000000000000000000000000000000000000000000000000000000000000000000000000000000000000000000000000000000000000000000000000000000000000000000000000000000000000000000000000000000000000000000000000000000000000000000000000000000000000000000000000000000000000000000000000000000000000000000000000000000000240000000000000000000000000000000000000000000000000000000000000000000000000000000000000000000000000000000000000000000000000000000000000000000000000000000000000000000000000000000000000000000000000000000000000000000000000000000000000000000000000000000000000000000000000000000000000000000000000000000000000000000000000000000000000000000000000000000000000000000000000000000000000000000000000000000000000000000000000000000000000000000000000000000000000000000000000000000000000000000000000000000000000000000000000000000000000000000000000000000000000000000000000000000000000000000000000000000000000000000000000000000000000000000000000000000000000000000000000000000000000000000000000000000000000000000000000000000000000000000000000000000000000000000000000000000000000000000000000000000000000000000000000000000000000000000000000000000000000000000000000000000000000000000000000000000000000000000000000000000000000000000000000000000000000000000000000000000000000000000000000000000000000000000000000000000000000000000000000000000000000000000000000000000000000000000000000000000000000000000000000000000000000000000000000000000000000000000000000000000000000000000000000000000000000000000000000000000000000000000000000000000000000000000000000000000000000000000000000000000000000000000000000000000000000000000000000000000000000000000000000000000000000000000000000000000000000000000000000000000000000000000000000000000000000000000000000000000000000000000000000000000000000000000000000000000000000000000000000000000000000000000000000000000000000000000000000000000000000000000000000000000000000000000000000000000000000000000000000000000000000000000000000000000000000000000000000000000000000000000000000000000000000000000000000000000000000000000000000000000000000000000000000000000000000000000000000000000000000000000000000000000000000000000000000000000000000000000000000000000000000000000000000000000000000000000000000000000000000000000000000000000000000000000000000000000000000000000000000000000000000000000000000000000000000000000000000000000000000000000000000000000000000000000000000000000000000000000000000000000000000000000000000000000000000000000000000000000000000000000000000000000000000000000000000000000000000000000000000000000000000000000000000000000000000000000000000000000000000000000000000000000000000000000000000000000000000000000000000000000000000000000000000000000000000000000000000000000000000000000000
#009320:0034000000000000
#009340:00340000
#008361:0000000000000014
#009321:000000000000000000000000000000000000000000000000000000000000000000000000000000000000000000000000000000000000000000000000000000000000000000000000000000000000000000000000000000000000000000000000000000000000000000000000000000000000000000000000000000000000000000000000000000000000000000000000000000000000000000000000000000000000000000000000000000000000000000000000000000000000000000000000000000000000000000000000000000000000000000000000000000000000000000000000000000000000000000000054000000000000000000000000000000000000000000000000000000000000000000000000000000000000000000000000000000000000000000000000000000000000000000000000000000000000000000000000000000000000000000000000000000000000000000000000000000000000000000000000000000000000000000000000000000000000000000000000000000000000000000000000000000000000000000000000000000000000000000000000000000000000000000000000000000000000000000000000000000000000000000000000000000000000000000000000000000000000000000000000000000000000000000000000000000000000000000000000000000000000000000000000000000000000000000000000000000000000000000000000000000000000000000000000000000000000000000000000000000000000000000000000000000000000000000000000000000000000000000000000000000000000000000000000000000000000000000000000000000000000000000000000000000000000000000000000000000000000000000000000000000000000000000000000000000000000000000000000000000000000000000000000000000000000000000000000000000000000000000000000000000000000000000000000000000000000000000000000000000000000000000000000000000000000000000000000000000000000000000000000000000000000000000000000000000000000000000000000000000000000000000000000000000000000000000000000000000000000000000000000000000000000000000000000000000000000000000000000000000000000000000000000000000000000000000000000000000000000000000000000000000000000000000000000000000000000000000000000000000000000000000000000000000000000000000000000000000000000000000000000000000000000000000000000000000000000000000000000000000000000000000000000000000000000000000000000000000000000000000000000000000000000000000000000000000000000000000000000000000000000000000000000000000000000000000000000000000000000000000000000000000000000000000000000000000000000000000000000000000000000000000000000000000000000000000000000000000000000000000000000000000000000000000000000000000000000000000000000000000000000000000000000000000000000000000000000000000000000000000000000000000000000000000000000000000000000000000000000000000000000000000000000000000000000000000000000000000000000000000000000000000000000000000000000000000000000000000000000000000000000000000000000000000000000000000000000000000000000000000000000000000000000000000000000000000000000000000000000000000000000000000000000000000000000000000000000000000000000000000000000000000000000000000000000000000000000000000000000000000000000000000000000000000000000000000000000000000000000000000000000000000000000000000000000000000000000000000000000000000000000000000000000000000000000000000000000000000000000000000000000000000000000000000000000000000000000000000000000000000000000000000000000000000000000000000000000000000000000000000000000000000000000000000000000000000000000000000000000000000000000000000000000000000000000000000000000000000000000000000000000000000000000000000000000000000000000000000000000000000000000000000000000000000000000000000000000000000000000000000000000000000000000000000000000000000000000000000000000000000000000000000000000000000000000000000000000000000000000000000000000000000000000000000000000000000000000000000000000000000000000000000000000000000000000000000000000000000000000000000000000000000000000000000000000000000000000000000000000000000000000000000000000000000000000000000000000000000000000000000000000000000000000000000000000000000000000000000000000000000000000000000000000000000000000000000000000000000000000000000000000
#009361:0034000000000000
#009381:00340000
#0093a1:0000002400000000
#010321:1300002300000000
#010371:00000053000000000000000000000000
#010361:0000000000000014
#0113a1:0054000000000000
#011361:00240000
#011321:0000001300000000
#011381:0000000000330000
#0113b1:00000023
#0113b0:0000001300000000
#011350:0000000000330000
#011320:00000023
#012360:13230000
#012320:0053000000000000
#012370:0000001300002300
#0123b0:00000000000000000053000000000000
#012321:0000001300000000
#012361:0023
#012360:0000000000000013
#013320:00530000000000000000000000000000
#013360:00230000
#0123b1:0000000000000013
#013371:23
#013370:0000001300002300
#0133b0:00000000000000000053000000000000
#013321:0000001300000000
#013361:0023
#014320:0000000000000012
#015320:22
#015391:1222000000000000
#015350:0012220000000000
#015320:0000001300230000
#015370:0053
#016350:13532300
#016380:0053000000000000
#016320:0000005300000000
#016381:00001353
#0163b1:0000000000530000
#016351:0000000000000023
#016320:0000000000000013
#017360:5424000000000000
#017360:0000001400000000
#017320:0000000000240000
#017361:0000000000140000
#0173a1:0000000000000024
#018371:000000000000000000000000000000000000000000000000000000000000000000000000120000000052005200000000000000000052000000000000220000000000000000000000000000000000000000000000000000000000000000000000
#018361:000000000000000000000000000000000000000000520052000000000000000000000000000000000000000000000000
#018351:000000000000000000000000000000000000000000000000000000000000000000000000000000000000000052000000000000520000000000000000000000000000000000000000000000000000000000000000000000000000000000000000
#018391:000000000000000000000000000000000000000000000000000000000000000000000000000000000000000000520053000052000000000000000000000000000000000000000000000000000000000000000000000000000000000000000000
#018341:000000000000000000000000000000000000000000000000000000000000000000000000000000000000000000000000005300000000000000000000000000000000000000000000000000000000000000000000000000000000000000000000
#018381:000000000000000000000000005200000000000000000000
#018361:0000000000000012
#0193a1:0000003200323232
#020381:26
#020330:15555555555555552500000000000000000000000000000000000000000000000000000000000000000000000000000000000000000000000000000000000000
#020320:0055005500550055005500550055005500000000000000000000000000000000000000000000000000000000000000000000000000000000000000000000000000000000000000000000000000000000000000000000000000000000000000000000000000000000000000000000000000000000000000000000000000000000
#020381:00000000000000001555555555555555250000000000000000000000000000000000000000000000000000000000000000000000000000000000000000000000
#020391:0000000000000000000000000000000000550055005500550055005500550055000000000000000000000000000000000000000000000000000000000000000000000000000000000000000000000000000000000000000000000000000000000000000000000000000000000000000000000000000000000000000000000000
#0203c1:0012
#020381:0000000000220000
#021321:12
#021361:0022000000000000
#0213c0:0012220000000000
#021381:0000122200000000
#021361:0000000012220000
#021341:0000000000001222
#022381:15555555555555552500000000000000000000000000000000000000000000000000000000000000000000000000000000000000000000000000000000000000
#022391:0055005500550055005500550055005500000000000000000000000000000000000000000000000000000000000000000000000000000000000000000000000000000000000000000000000000000000000000000000000000000000000000000000000000000000000000000000000000000000000000000000000000000000
#022330:00000000000000001555555555555555250000000000000000000000000000000000000000000000000000000000000000000000000000000000000000000000
#022320:0000000000000000000000000000000000550055005500550055005500550055000000000000000000000000000000000000000000000000000000000000000000000000000000000000000000000000000000000000000000000000000000000000000000000000000000000000000000000000000000000000000000000000
#0233b0:13332300
#023350:0033003300000000
#023321:13332300
#023381:0033003300000000
#024331:15555555555555552500000000000000000000000000000000000000000000000000000000000000000000000000000000000000000000000000000000000000
#024321:0055005500550055005500550055005500000000000000000000000000000000000000000000000000000000000000000000000000000000000000000000000000000000000000000000000000000000000000000000000000000000000000000000000000000000000000000000000000000000000000000000000000000000
#024380:00000000000000001555555555555555250000000000000000000000000000000000000000000000000000000000000000000000000000000000000000000000
#024390:0000000000000000000000000000000000550055005500550055005500550055000000000000000000000000000000000000000000000000000000000000000000000000000000000000000000000000000000000000000000000000000000000000000000000000000000000000000000000000000000000000000000000000
#024320:0012
#024360:0000000000220000
#0253c0:12
#025380:0022000000000000
#025321:0012220000000000
#025360:0000122200000000
#025380:0000000012220000
#0253a0:0000000000001222
#028320:00132300
#028360:0000003300000000
#028371:0000000013003323
#0283b1:0000000000330000
#028320:0000000000000013
#029360:0033003300000000
#029320:00332300
#0293b1:0000001300000000
#029371:0023
#029361:00000013
#030321:23
#0303b1:00132300
#030371:0000003300000000
#030360:0000000013003323
#030320:0000000000330000
#0303b1:0000000000000013
#031371:0033003300000000
#0313b1:00332300
#031320:0000001300000000
#031360:0023
#031370:00000013
#0323b0:23
#032320:00132300
#032360:0000003300000000
#032371:0000000013003323
#0323b1:0000000000330000
#032320:0000000000000013
#033360:0023000000000000
#0333b1:0013000000000000
#033371:00230000
#033320:00132300
#033360:0000003300000000
#0333b1:0000001300000000
#033371:0023
#034361:13
#034321:0023000000000000
#034371:00130000
#0343b1:0000002300000000
#034361:00001323
#034321:0000000000530000
#0343b0:0013
#034370:0000000000230000
#035361:00000014
#035321:0000000000000033
#036361:24
#0363c1:0000001222000000
#036321:0000000000000012
#037321:22
#038371:12320000
#038321:0032002200000000
#0383c1:00001232
#038371:0000000000320022
#039371:1252005200520052005200520052005200520000000000000000000000000000000000000000000000000000000000000000000000000000000000000000000000000000000000000000000000000052005200520052005200520052005200522200000000000000000000000000000000000000000000000000000000000000
#039361:0000540054005400000000000000000000000054005400540054005400000000000000000000000000000000000000000000000000000000000000000000000000000000005400540054005400540000000000000000000000005400540054000000000000000000000000000000000000000000000000000000000000000000
#039351:0000000000000000560056005600560056000000000000000000000000560056005600560056005600560056005600560056005600560056005600560056005600560056000000000000000000000000560056005600560056000000000000000000000000000000000000000000000000000000000000000000000000000000
#039341:00000000000000000058585858580000000000000000000000000000000000000000005858585858000000000000000000000000000000000000000000000000
#039331:00000000000000000000000000005a5a5a5a5a00000000000000000000005a5a5a5a5a0000000000000000000000000000000000000000000000000000000000
#039321:000000000000000000000000000000000000005c5c5c5c5c5c5c5c5c5c5c00000000000000000000000000000000000000000000000000000000000000000000
#040371:00132300
#0403b1:0000003300000000
#040361:0000000000000013
#041321:33
#041361:0023000000000000
#041381:0000001252000000
#0413c1:0000000000000000000000000000000000000000005200000000000000000000
#041391:00000022
#041340:0000000000000000000000000000000000000000125200000000000000000000
#041370:00000022
#042360:00132300
#042320:0000005300000000
#042370:0000000000000013
#0433b0:53
#043370:0023000000000000
#043360:0000001252000000
#0433a0:0000000000000000000000000000000000000000005200000000000000000000
#043370:00000022
#043321:0000000000000000000000000000000000000000125200000000000000000000
#043351:00000022
#0443b1:00130000
#044381:0000002300000000
#044351:0013
#044321:0000000000230000
#044321:0000000000000013
#045371:53
#045321:0023000000000000
#045381:0000001252000000
#0453c1:0000000000000000000000000000000000000000005200000000000000000000
#045391:00000022
#045340:0000000000000000000000000000000000000000125200000000000000000000
#045370:00000022
#045370:0000000000000013
#0463b0:53
#046370:0023000000000000
#046360:00001323
#046320:0000000000530000
#047320:000000000000000000000000000000000000000000000000000000000000000000000000000000000000000000000000000000000000000000000000000000000000000000000000000000000000000000000000000000000000000000000000000000000000000000000000000000000000000000000000000000000000000000000000000000000000000000000000000000000000000000000000000000000000000000000000000000000000000000000000000000000000000000000000000000000000000000000000000000000000000000000000000000000000000000000000000000000000000000000000000000000000000000000000000000000000000000000000000000000000000000000000000000000000000000000000000000000000000000000000000000000000000000000000000000000000000000000000000000000000000000000000000000000000000000000000000000000000000000000000000000000000000000000000000000000000000000000000000000000000000000000000000000000000000000000000000000000000000000000000000000000000000000000000000000000000000000000000000000000000000000000000000000000000000000000000000000000000000000000000000000000000000000000000000000000000000000000000000000000000000000000000000000000000000000000000000000000000000000000000000000000000000000000000000000000000000000000000000000000000000000000000000000000000000000000000000000000000000000000000000000000000000000000000000000000000000000000000000000000000000000000000000000000000000000000000000000000000000000000000000000000000000000000000000000000000000000000000000000000000000000000000000000000000000000000000000000000000000000000000000000000000000000000000000000000000000000000000000000000000000000000000000000000000000000000000000000000000000000000000000000000000000000000000000000000000000000000000000000000000000000000000000000000000000000000000000000000000000000000000000000000000000000000000000000000000000000000000000000000000000000000000000000000000000000000000000000000000000000000000000000000000000000000000000000000000000000000000000000000000000000000000000000000000000000000000000000000000000000000000000000000000000000000000000000000000000000000000000000000000000000000000000000000000000000000000000000000000000000000000000000000000000000000000000000000000000000000000000000000000000000000000000000000000000000000000000000000000000000000000000000000000000000000000000000000000000000000000000000000000000000000000000000000000000000000000000000000000000000000000000000000000000000000000000000000000000000000000000000000000000000000000000000000000000000000000000000000000000000000000130000000000000000000000000000000000000000000000000000000000000000000000000000000000000000000000000000000000000000000000000000000000000000000000000000000000000000000000000000000000000000000000000000000000000000000000000000000000000000000000000000000000000000000000000000000000000000000000000000000000000000000000000000000000000000000000000000000000000000000053580000000000000000000000000000000000000000000000000000000000000000000000000000000000000000000000000000000000000000000000280000000000000000000000000000000000000000000000000000000000000000000000000000000000000000000000000000000000000000000000000000000000000000000000000000000000000000000000000000000000000000000000000000000000000000000000000000000000000000000000000000000000000000000000000000000000000000000000000000000000000000000000000000000000000000000000000000000000000000000000000000000000000000000000000000000000000000000000000000000000000000000000000000000000000000000000000000000000000000000000000000000000000000000000000000000000000000000000000000000000000000000000000000000000000000000000000000000000000000000000000000000000000000000000000000000000000000000000000000000000000000000000000000000000000000000000000000000000000000000000000000000000000000000000000000000000000000000000000000000000000000000000000000000000000000000000000000000000000000000000000000000000000000000000000000000000000000000000000000000000000000000000000000000000000000000000000000000000000000000000
#0483b0:13230000
#048370:0053000000000000
#048360:0000001200000000
#048320:0022
#048371:00001323
#0483b1:0000000000530000
#0493b1:13230000
#049371:0053000000000000
#049371:00001323
#0493b1:0000000000330000
#049320:00001222
#049360:0000000000520000
#050320:13230000
#050360:0053000000000000
#050360:00001323
#050320:0000000000330000
#050380:0000000000000012
#0513c0:22
#051321:13230000
#051361:0053000000000000
#051361:00001323
#051321:0000000000330000
#0513c0:00001222
#051380:0000000000520000
#0523b0:13230000
#052370:0053000000000000
#052320:00001323
#052360:0000000000530000
#0523c1:0000000000120000
#052381:00000022
#0533b1:13230000
#053371:0053000000000000
#053321:00001323
#053361:0000000000530000
#053380:0012
#0533c0:0000000000220000
#053381:0000000000000012
#0543c1:00520000000000000000000000000000
#054381:00220000
#054361:00001222
#054321:0000000000520000
#056321:1400005400000054
#056381:0054000000540000
#056351:00343434
#057351:34342400
#057381:0054000000000000
#057321:0000005400000000
#057321:00000013
#057371:0000000000000053
#058321:24
#0583a0:1400005400000054
#058340:0054000000540000
#058370:00343434
#059370:24
#059320:00132300
#059360:0000005300000000
#0593b1:0000001300533300
#059371:0053
#059361:0000000000000053
#0603a1:24
#060320:1400005400000054
#060360:0054340034003400
#061360:24
#061320:00000014
#061360:0000000000000054
#062320:24
#0623a1:1400005400000054
#062361:0054340034003400
#063361:24
#063321:0014
#063341:0000000000000000000000000000000000540000540000000000000000000000
#063331:00000000000000000054000000000000
#063351:0000000000000000000000000000000000000054000054000000000000000000
#063361:0000000000000000000000000000000000000000005400002400000000000000
#063371:0000000000000000000000000000000000000000000000540000000000000000
#0643a1:14545454545454545454545454545454
#064391:0054005400540054005400540054005400540054005400540054005400540054
#0653a1:54545454545454545454240000000000
#065391:0054005400540054005400540054005400540054000000000000000000000000
#065360:0000000000000000000000000000000000000000140000540000000000000000
#065370:0000000000000000000000000000000000000000005400000000000000000000
#065350:00000000000000000000005400000000
#065340:00000024
#065381:00000014
#065361:0000000000000000000000000000000000000000000000000054000024000000
#065371:00000000000000000000000000540000
#065351:0000000000000000000000000000000000000000000000000000005400000000
#065320:00000000000000000000000000001454
#065330:0000000000000000000000000000000000000000000000000000000000540054
#066320:54545454545454545454545454545454
#066330:0054005400540054005400540054005400540054005400540054005400540054
#067320:54545454240000000000000000000000
#067330:0054005400540054000000000000000000000000000000000000000000000000
#067320:00000000000014545454240000000000
#067330:0000000000000000000000000054005400540054000000000000000000000000
#067361:0000000000000000000000000000000000000000140000540000000000000000
#067351:0000000000000000000000000000000000000000005400000000000000000000
#067371:00000000000000000000005400000000
#067381:00000024
#067340:00000014
#067360:0000000000000000000000000000000000000000000000000054000024000000
#067350:00000000000000000000000000540000
#067370:0000000000000000000000000000000000000000000000000000005400000000
#0673a1:00000000000000000000000000001454
#067391:0000000000000000000000000000000000000000000000000000000000540054
#0683a1:54545454545454545454545454545454
#068391:0054005400540054005400540054005400540054005400540054005400540054
#0693a1:54545454545454542400000000000000
#069391:0054005400540054005400540054005400000000000000000000000000000000
#0693a1:0000000000140000
#069381:0000000000000000000000000000000000000000005400002400000000000000
#069391:00000000000000000000005400000000
#069371:0000000000000000000000000000000000000000000000540000000000000000
#069340:0000000000000000000000000000000000000000000000001400005400000000
#069350:0000000000000000000000000000000000000000000000000054000000000000
#069330:00000000000000000000000000540000
#069320:0000000000000024
#069361:0000000000000000000000000000000000000000000000000000000014000054
#069351:0000000000000000000000000000000000000000000000000000000000540000
#069371:00000000000000000000000000000054
#070381:5400005400000000000000000000000000000000000000000000000000000000
#070371:0054000000000000000000000000000000000000000000000000000000000000
#070391:0000540000540054005400540054005400540054005400540054005400540054
#0703a1:00005454545454545454545454545454
#0713a1:54542400
#071361:0053005300000000
