This file was generated by Ched 2.7.0.0.
#TITLE ""
#ARTIST ""
#DESIGNER ""
#DIFFICULTY 0
#PLAYLEVEL
#SONGID ""
#WAVE ""
#WAVEOFFSET 0
#JACKET ""
#REQUEST "ticks_per_beat 480"
#00002: 4
#BPM01: 125
#00008: 01
#TIL00: ""
#VOLUME: ""
#HISPEED 00
#MEASUREHS 00
#0001a:14
#00014:0014
#00118:14
#00112:0014
#0021a:14
#00214:0014
#00318:14
#00312:0014
#0041a:14
#00414:0014
#00410:41
#00612:14
#00618:0014
#0081a:14
#00814:0014
#01014:14
#01018:0014
#0201a:14
#02014:0014
#0201f:11
#0251a:0014
#02512:14
#02814:00140014
#0281a:2414
#0281f:21
#03012:1414
#03018:00140014
#03218:1414
#03214:00140014
#03414:1414
#03418:00140014
#0371a:1414
#03812:1414
#03912:14
#04018:0014
#04014:00140000
#04012:00000014
#0401a:24
#04010:41
#0641a:0014
#06414:00140000
#06412:00000014
#06418:24
#06410:41
#0661a:0014
#06618:14
#06614:00140000
#06612:00000014
#01218:1414
#01210:41
#01414:1414
#0171a:0014
#0211a:14
#02114:0014
#02218:14
#02212:0014
#02318:14
#02312:0014
#0241a:14
#02416:0014
#02612:14
#02616:0014
#0271a:14
#02712:0014
#0361a:0014
#04118:14
#04114:00140000
#0411a:0014
#04212:14
#04214:0014
#04218:00140000
#0421a:00000014
#04314:14
#04318:00140000
#04312:0014
#0441a:1414
#04414:00140014
#04518:1414
#04512:00140000
#04614:1414
#0461a:00140000
#04718:14
#04712:00140000
#04812:00140000
#04818:2414
#04814:00000014
#04810:41
#05012:14
#0501a:00140000
#05014:0014
#05018:00000014
#05218:14
#05214:00140000
#0521a:0014
#05212:00000014
#05318:14
#05314:00140000
#0531a:0014
#05312:00000014
#05512:14
#05518:00140000
#05514:0014
#0551a:00000014
#05718:00140000
#05712:0014
#05818:14
#05914:00140000
#0591a:0014
#06014:14
#06012:0014
#06218:14
#0621a:0014
#06118:00140000
#06112:0014
#06312:00140014
#0631a:0014
#0651a:14
#06516:00140000
#06512:0014
#06718:14
#06714:00140000
#0671a:0014
#06814:14
#06812:0014
#06818:00140000
#0681a:00000014
#07012:0014
#07014:14
#07018:00140000
#0701a:00000014
#06912:14
#06916:00140000
#0691a:0014
#07114:14
#07118:00140000
#07112:0014
#05614:24
#02910:41
#0205a:14
#03654:14
#0415a:0014
#04352:0014
#04558:0014
#04654:0014
#04858:14
#04958:0014
#05154:0014
#05654:54
#05858:54
#06054:54
#06052:0024
#06258:64
#0625a:0024
#06552:0014
#0675a:0014
#0695a:0014
#07152:0014
#07354:0000000000000018
#05458:0014
#0053a0:1424
#007320:1424
#0093a0:14
#009380:0024
#011320:14
#011340:0024
#013380:14
#0133a0:0024
#015340:14
#015320:0024
#0163a0:14
#016380:0034
#0173a0:24
#018320:14
#018340:0034
#019320:3434342400000000
#0293a0:14
#029380:00342400
#031320:14
#031340:00342400
#033380:14
#0333a0:00342400
#035340:14000034
#035320:00343400
#036340:24
#047380:0014
#048380:24
#0493a0:14
#049380:00342400
#051320:14
#051340:00342400
#0543a0:14
#054380:00342400
#056340:14
#057320:24
#058380:14
#0593a0:24
#060340:14
#060320:0054
#061340:24
#062380:14
#0623a0:0054
#063380:24
#072360:14
#073340:3800000000383828
