This file was generated by Ched 2.7.0.0.
#TITLE ""
#ARTIST ""
#DESIGNER ""
#DIFFICULTY 0
#PLAYLEVEL
#SONGID ""
#WAVE ""
#WAVEOFFSET 0
#JACKET ""
#REQUEST "ticks_per_beat 480"
#00002: 4
#BPM01: 175
#00008: 01
#TIL00: ""
#VOLUME: ""
#HISPEED 00
#MEASUREHS 00
#0621f:00110000
#0281a:00140000
#02714:00140000
#0221a:0014
#09512:00160000
#09418:00160000
#09318:00160000
#09212:00000016
#09118:00000016
#09018:00000016
#08112:00000016
#08118:00160000
#08012:00000016
#08018:00160000
#07912:00160016
#04212:00000016
#04218:00160000
#04112:00000016
#04118:00160000
#04012:00000016
#04018:00160000
#03912:00000016
#03918:00260000
#03612:00000016
#03618:00160000
#03512:00000016
#03518:00160000
#03412:00160016
#03318:00000016
#03312:00160000
#03218:00160016
#03112:00000016
#03118:0026000000000000
#03110:0041000000000000
#02114:0014
#0201a:0014
#01914:0014
#01910:0041
#01818:0014
#01712:0014
#01618:0014
#01512:0014
#01312:14
#01218:14
#01114:14
#0101a:14
#00914:14
#0081a:14
#00810:41
#00714:14
#04318:00160000
#04312:00000016
#08712:00000016
#08718:00160000
#08612:00160016
#08518:00000016
#08512:00160000
#08418:00260016
#07712:00000016
#07718:00160000
#07710:00410000
#07818:00160016
#07612:00000016
#0761f:00210000
#07618:00260000
#07514:00140000
#07414:00140000
#0731a:00140000
#0721a:00140000
#07112:00140000
#07012:00140000
#0061a:14
#0051a:14
#00412:14
#00312:14
#08312:00260000
#08218:00260000
#05019:00340000
#0511a:00340000
#05910:00410000
#04610:00410000
#000340:14000024
#001380:0014
#002380:0024
#014380:14000024
#023320:00140000
#024320:00240000
#025380:00140000
#026380:00240000
#029340:00140000
#030340:00240000
#037380:00160026
#038320:00160026
#044380:00160000
#045380:00260000
#046320:00140000
#047330:00340000
#048340:00240000
#049380:00140000
#050390:00340000
#0513a0:00340000
#0523a0:00240000
#053340:00140000
#054340:00240000
#055380:00140000
#056380:00240000
#057320:00140000
#058320:00240000
#0593a0:00140000
#0603a0:0000340000340024
#062340:00140000
#063340:00240000
#0643a0:00140000
#0653a0:00240000
#066320:00140000
#067320:00240000
#0683a0:00140000
#0693a0:00240000
#082380:00160026
#083320:00160026
#088380:00160026
#089320:00163600
#090320:36260000
#095380:00000014
#096380:0034
#097380:0000340000000024
#098340:00140000
#099340:34000034
#100340:0000000034000024
