This file was generated by Ched 2.7.0.0.
#TITLE ""
#ARTIST ""
#DESIGNER ""
#DIFFICULTY 0
#PLAYLEVEL
#SONGID ""
#WAVE ""
#WAVEOFFSET 0
#JACKET ""
#REQUEST "ticks_per_beat 480"
#00002: 4
#BPM01: 175
#00008: 01
#TIL00: ""
#VOLUME: ""
#HISPEED 00
#MEASUREHS 00
#00215:0013000000001300
#00218:0000001300000000
#0021b:0000000000130000
#00212:0024
#00415:1300130000000013
#0041b:0013000000000000
#00412:0000000000130000
#00418:00000013
#0041a:0033
#00715:00131300
#00715:00130000
#00718:0000001300130000
#00718:0000001300000000
#0071b:0013000000000000
#00713:33
#00312:00131300
#00318:0000001300000000
#00618:00001313
#00612:0000000000130000
#0061b:13
#00515:0000000000000013
#0051b:00000013
#00518:00130000
#00512:0013000000000000
#0051a:14
#0101b:0000001300000013
#01018:0013
#00912:0000001300000000
#00915:0013000000130000
#00812:2400000000000013
#00815:0013
#00818:0000001300000000
#00810:41
#01118:0013000000130000
#01112:0013000000130000
#0111b:0000001300000000
#01115:0000001300000000
#0161b:0000001300000013
#01618:1300000000130000
#01515:0000000000000013
#01517:0014000000000000
#01516:0000001400000000
#0151a:0024
#01718:0013000000000000
#01712:0000000000000013
#02112:0013
#0211b:0013
#02117:00000013
#02115:0013000000000000
#02118:00130000
#01218:0000001300000000
#01215:0013
#01318:0000000000130000
#01315:00000013
#02215:13
#02218:0000000000130000
#02212:00000013
#0221b:0000000000000013
#02315:13230000
#02318:0013000000000000
#02312:00000014
#0231b:00130000
#02317:00000013
#02412:00130000
#0241a:00000014
#02416:00000013
#0251b:00130000
#02517:00000013
#02512:00000014
#02612:00130000
#0261a:00000014
#02616:00000013
#0271b:0013130000000000
#02717:0000000000130000
#02712:0013
#02715:0000000000000013
#03015:0013000000130000
#03018:0000130000000013
#0301b:0000000000230000
#03012:0000002300000023
#0291b:00130000
#02918:0000000000130000
#02912:00130000
#02915:0000000000130000
#03115:0000130000130000
#03118:0000001300000013
#0311b:0023000013000000
#03112:0000000000000013
#03110:0041000000000000
#0321b:0013001300000013
#03215:0013000000000013
#03212:0013
#03218:0000000000130000
#03315:0000130000130000
#03318:0000001300000013
#0331b:0013
#03312:0013000000000013
#03415:0013000000130000
#03418:0000130000000013
#0341b:0013
#03412:0000001300000000
#03518:0013000000000000
#0351b:0000000013000013
#03515:1300000000130013
#03514:0000003300000000
#03812:0013000000000015
#03815:0000001300130000
#03818:0000000013000015
#03915:0000000000130000
#03912:25
#03918:25
#04015:1300000000130000
#04018:0013000013000000
#04115:1300000000130000
#04118:0013000013000000
#04215:13230023
#04218:0013000023000000
#04315:0000230000130000
#04318:23000000000000001300001300000000
#03718:00000000000000130000000000000000
#03715:00000000000000130000000000000000
#03712:0023000000000000
#0371b:0023000000000000
#09815:0013000000000000
#09718:0000000000000013
#04516:00000013
#04512:00130000
#0451a:00240000
#04617:00130000
#04616:00000013
#04610:00410000
#04816:00130000
#0481b:00130000
#05315:00130000
#05312:0013000000000000
#05318:0000001300000000
#0531b:0013
#05316:0000000000130000
#05518:0013000013000000
#05512:00000013
#05515:0000130000130013
#05618:1313
#0561b:0013000000000000
#05615:0000000000000013
#05718:0013000000001300
#0571b:0013
#05715:0000000000130013
#06012:0013002300000023
#06017:0000131300000013
#06016:0000000000130000
#0601b:0000000000230000
#09212:00000014
#09218:1300001300000013
#0921b:0000000000130000
#09215:0013
#09214:00330000
#08018:0013000013000023
#08015:1300001300000000
#0801b:00130000
#08012:00130000
#05212:00130023
#05215:0013
#0521b:00130023
#05218:0013
#07912:0013130000000013
#0791b:0000001300000000
#07918:0013000000230000
#07915:0023
#06915:0000001300130000
#06918:0000000013000015
#06912:0000000000000015
#08312:0000001300001400
#08316:0000000000000014
#08315:0013
#08318:2323000000130000
#0841a:14
#08412:00242424
#08912:00140000
#0891a:24140000
#08916:0032
#08918:0032
#05418:00130000
#0541b:0013000000000000
#05415:0000001300000000
#05412:0013
#05417:0000000000130000
#0471b:00130000
#04712:00000013
#04918:00130000
#0591b:1300000000130000
#05917:00130000
#05916:0000000000130000
#05912:13130000
#05910:00410000
#08516:0000000000140000
#08512:24242424
#0851a:0000000000000034
#08518:00000034
#08716:00000014
#08712:0014
#0871a:24242424
#06518:0000130000000013
#06515:0013000000000000
#06512:00260000
#0651b:0000003333000000
#06218:0013260000000000
#06212:0000003333130000
#06215:00130000
#0621f:00110000
#06715:0013000000000000
#06718:0000001300000013
#0671b:0000000000130000
#06712:0000000000000000260000000000000000000014000000001600000000000000
#0681b:0013000000000000
#06818:00000000000000130000000000000000
#06812:0000001400000000160000000000000000000000000000000000000000000000
#06618:0013260000000000
#06612:0000003333130000
#06615:00130000
#06315:0013000000000000
#0631b:0000003333130000
#06318:00130000
#06312:00260000
#06418:0013260000000000
#06412:0000003333130000
#06415:00130000
#07618:0000001300230000
#07615:00340000000000001300000000001300
#0761b:1300130000000013
#07616:14
#07612:0000240000230000
#0761f:00210000
#07613:00000034000000000000000000000000
#07614:0034000000000000
#07715:0000001300230000
#07718:0013000013000013
#07712:0013130000000013
#0771b:0000000000230000
#07710:00410000
#07818:0000001300230000
#07815:0013000013000013
#0781b:0013130000000013
#07812:0000000000230000
#0751a:0014
#07515:0013
#07512:00000024
#07516:00240000
#07518:2300003400340000
#07514:0000000000000034
#09318:00000013
#09315:1300000000130000
#09312:0013
#02815:0000000000000013
#02812:0013000000000000
#02816:0013
#0281b:0000001300000000
#02818:00000013
#02814:0000000000330000
#09415:0013
#09418:0000001300000000
#0941b:00130000
#09515:13000000000000330000000000000000
#09518:0013000000000000
#09513:00000000003300000000000000000000
#09514:0000003300000000
#09519:00000000000000000033000000000000
#0951a:0000000000330000
#0951b:00000000000000000000003300000000
#09115:0000130000000013
#09118:0013000000000000
#0911b:13
#09112:00000013
#09018:0013
#09015:0000001300000000
#0901b:00130000
#01416:00000014000000000014000000000014
#01412:14000014
#0141a:1400001400000000
#01815:1300000000130000
#01812:0000001300000013
#01818:0000000000000013
#0181b:0000000000130000
#01915:0013000000000013
#0191b:0013000000000000
#01910:0041
#02018:13
#0581b:13
#05815:0013000000001300
#05812:0013
#05818:0000000000130013
#0821b:00000000001300000000000000000000
#08212:00000000000000000000000000130000
#08215:0000000023230000
#08218:0023000000000000
#04418:0013000000000000
#04412:00230000
#08612:24
#0861a:00242424
#03617:0023000000000000
#0361b:0000002300000000
#03612:0000000000000023
#03616:0000000000230000
#0881a:24000024
#08812:00242400
#08118:0000000000230000
#08115:0023002300000023
#0811b:0000002300000023
#08112:0000000000230000
#07012:25
#07018:2523
#07019:00000023
#0711a:23
#07115:0023
#07114:00000023
#0721a:0023
#07219:00000023
#07213:23
#07318:23
#07313:0023
#07314:00000023
#07415:23
#07418:0023
#0741b:00000023
#00758:0000000000130000
#0055a:14
#00955:0000000000630000
#01158:0000000000530000
#01152:0000000000530000
#01758:0053000000000000
#0175b:0013
#01755:0013
#0215b:0063
#02157:00000023
#02352:00000014
#0235b:00530000
#02357:00000053
#02355:00130000
#02452:00630000
#0245a:00000014
#02456:00000063
#0255b:00530000
#02557:00000053
#02552:00000014
#02652:00630000
#0265a:00000014
#02656:00000063
#0275b:00530000
#02757:0000000000630000
#0295b:00630000
#02958:0000000000230000
#02952:00530000
#02955:0000000000230000
#03152:0000000000000013
#03158:0000000000000013
#0315b:0013000000000000
#0325b:0000000000000013
#03255:0000000000000013
#03358:0000000000000013
#03352:0000000000000013
#03455:0000000000130000
#03758:00000000000000230000000000000000
#03755:00000000000000230000000000000000
#03752:0053000000000000
#0375b:0053000000000000
#04556:00000023
#04552:00530000
#0455a:00140000
#04657:00530000
#04656:00000053
#04856:00530000
#0485b:00530000
#04857:00000013
#04852:00000013
#09252:00000014
#05252:00530033
#05255:0023
#0525b:00630043
#05258:0023
#0845a:14
#08952:00540000
#0895a:00640000
#08956:0000000000000000000000000000000000000000000000000000000000000012
#08958:0000000000000000000000000000000000000000000000000000000000000012
#05356:0000000000530000
#05457:0000000000630000
#0475b:00630000
#04752:00000063
#0595b:0000000000230000
#05957:00630000
#05956:0000000000230000
#05952:13630000
#08556:0000000000640000
#08756:00000054
#08752:0054
#0685b:0063000000000000
#06858:00000000000000230000000000000000
#06852:0000002400000000560000000000000000000000000000000000000000000000
#06652:0000000000530000
#06655:00530000
#0765b:0000000000000013
#07656:24
#07655:0000000000000013
#07652:00340000
#07752:0000000000000013
#07758:0000000000000013
#0785b:0000000000000013
#07855:0000000000000013
#0755a:0024
#07552:00000054
#07556:00540000
#06752:0000000000000000560000000000000000000024000000005600000000000000
#06252:0000000000530000
#06255:00530000
#06558:00630000
#0655b:0000000000130000
#0635b:0000000000630000
#06358:00630000
#06452:0000000000530000
#06455:00530000
#02852:0063000000000000
#02856:0053
#01557:0054000000000000
#0155a:0014
#01552:0034000000000000
#01456:00000024000000000024000000000024
#01452:5400003400005400
#0145a:4400006400004400
#01955:0063000000000000
#0195b:0063000000000000
#01952:0013
#01958:0013
#0575b:0013
#0585b:13
#05852:0013
#0825b:00000000002300000000000000000000
#08252:00001300000000000000000000230000
#08255:0000000000630000
#08258:0053000000000000
#00852:14
#00252:0014
#04255:00530053
#04258:0053
#04358:53
#04355:00230000
#07955:0013
#07958:0000000000130000
#08358:0053000000000000
#08155:0013000000000063
#0815b:0000001300000013
#08152:0000000000130000
#01052:13
#01058:13
#0125b:13
#01255:13
#03952:00150000
#03959:00140000
#07052:00150000
#07059:00140000
#08058:0000000000000013
#0905b:00130000
#03855:0000000000130000
#000380:1300002300000000
#0003b0:00000013
#0013b0:0023000000000000
#001380:0000000013000023
#0023b0:0000000000000013
#0033a0:33
#003390:0033000000000000
#003380:00230000
#003380:0000000000130000
#003390:00000033
#0033a0:0000000000000033
#0043b0:23
#0043b0:0000001300000000
#0043a0:0033
#004380:0000000000230000
#005320:0000001300000000
#005330:0033
#005340:0000000000330000
#005350:00000023
#006350:0013000000000000
#006340:00330000
#006330:0000003300000000
#006320:0023
#006320:0000000000000013
#007330:33
#007350:0023000000000000
#0083b0:0000000000130000
#008370:0000000000000033
#0093b0:0033000000230000
#009370:0000003300000000
#009351:0000000000130000
#010321:23
#009380:00000013
#010380:23
#010350:0000000000130023
#011380:0000000000130000
#0123b0:23
#011321:0000000000130000
#012351:23
#012381:0000000000130023
#012350:0000000000000013
#013320:0023000000000000
#0133b1:0013000000000000
#013381:0000002300000000
#013350:0000001300000000
#013320:0000000000230000
#014320:1400002400000000
#014360:00000054000000000000000000000000
#0143a1:0000001400002400
#014361:00000000000000000054000000000000
#014320:00000014
#014360:00000000000000000000000000000054
#015320:0024000000000000
#015371:0014000000000000
#0153a1:0000002400000000
#016321:0013000000330000
#016361:0000003300000033
#017321:0023000000000000
#017380:0013000000000000
#0173b0:0023
#017351:00132300
#018381:0013002300000000
#019351:0013000000000000
#019321:0023
#0193b0:0013000000000000
#019380:0023
#020350:0013002300000000
#020381:0000001300000000
#0203b1:0000000000230000
#020320:0000000000130000
#020350:0000000000000023
#020381:0000000000000013
#0213b1:0023000000000000
#0213b1:0013
#021371:00000053
#0223b1:23
#022381:0013002300000000
#022350:0000001300230000
#0233b0:00130000
#023370:00000053
#0243b0:00230000
#024321:00130000
#024361:00000053
#025321:00230000
#0253b0:00130000
#025370:00000053
#0263b0:00230000
#026321:00130000
#026361:00000053
#027321:00230000
#0273b0:00130000
#027370:0023
#027370:0000000000130000
#0273b0:0000000000000023
#028320:0013000000000000
#028360:0000002300000000
#028360:0013
#028340:0000000000330000
#028320:00000023
#0293b0:00130000
#029380:0000000000530000
#0303b0:23
#029321:00130000
#029351:0000000000530000
#030321:23
#035351:00130000
#035341:0000003300000000
#035321:0023
#036321:0013000000000000
#036361:0000002300000000
#0363b1:0000000000130000
#036371:0000000000000023
#0373b1:0013000000002300
#037381:00000000000000530000000000000000
#037320:0013000000002300
#037350:00000000000000530000000000000000
#038380:0013000000000000
#0383b0:0000002300000000
#039320:1556250000000000
#039330:0000000000005500000000000055000000000055000000000055000000000000000000000000000000000000000000000000000000000000000000000000000000000000000000000000000000000000000000000000000000000000000000000000000000000000000000000000000000000000000000000000000000000000
#039350:000000000000000000000000000000000000000000000000000000000000000000000000000000000000000000000000000000000000000000000000000000000000000000000000000000000000000000000000000000000000005300000000000000000000000000000000000000000000000000000000000000000000000000000000000000000000000000000000000000000000000000000000000000000000000000000000000000000000000000000000000000000000000000000000000053000000000000000000000000000000000000000000000000000000000000000000000000000000000000000000000000000000000000000000000000000000000000000000000000000000000000000000000000000000000000005300000000000000000000000000000000000000000000000000000000000000000000000000000000000000000000000000000000000000000000000000000000000000000000000000000000000000000000000000000053000000000000000000000000000000000000000000000000000000000000000000000000000000000000000000000000000000000000000000000000000000000000000000000000000000000000000000000000000000000000000000000000000000000000000000000000000000000000000000000000000000000000000000000000000000000000000000000000000000000000000000000000000000000000000000000000000000000000000000000000000000000000000000000000000000000000000000000000000000000000000000000000000000000000000000000000000000000000000000000000000000000000000000000000000000000000000000000000000000000000000000000000000000000000000000000000000000000000000000000000000000000000000000000000000000000000000000000000000000000000000000000000000000000000000000000000000000000000000000000000000000000000000000000000000000000000000000000000000000000000000000000000000000000000000000000000000000000000000000000000000000000000000000000000000000000000000000000000000000000000000000000000000000000000000000000000000000000000000000000000000000000000000000000000000000000000000000000000000000000000000000000000000000000000000000000000000000000000000000000000000000000000000000000000000000000000000000000000000000000000000000000000000000000000000000000000000000000000000000000000000000000000000000000000000000000000000000000000000000000000000000000000000000000000000000000000000000000000000000000000000000000000000000000000000000000000000000000000000000000000000000000000000000000000000000000000000000000000000000000000000000000000000000000000000000000000000000000000000000000000000000000000000000000000000000000000000000000000000000000000000000000000000000000000000000000000000000000000000000000000000000000000000000000000000000000000000000000000000000000000000000000000000000000000000000000000000000000000000000000000000000000000000000000000000000000000000000000000000000000000000000000000000000000000000000000000000000000000000000000000000000000000000000000000000000000000000000000000000000000000000000000000000000000000000000000000000000000000000000000000000000000000000000000000000000000000000000000000000000000000000000000000000000000000000000000000000000000000000000000000000000000000000000000000000000000000000000000000000000000000000000000000000000000000000000000000000000000000000000000000000000000000000000000000000000000000000000000000000000000000000000000000000000000000000000000000000000000000000000000000000000000000000000000000000000000000000000000000000000000000000000000000000000000000000000000000000000000000000000000000000000000000000000000000000000000000000000000000000000000000000000000000000000000000000000000000000000000000000000000000000000000000000000000000000000000000000000000000000000000000000000000000000000000000000000000000000000000000000000000000000000000000000000000000000000000000000000000000000000000000000000000000000000000000000000000000000000000000000000000000000000000000000000000000000000000000000000000000000000000000000000000000000000000000000000000000000000000000000000000000000000000000000000000000000000000000000000000000000000000000000000000000000000000000000000000000000000000000000000000000000000000000000000000000000000
#039381:1500000000000000000000000000000000000056000000000056000000000000000000000000000000000000000000000000000000000000000000000000000000000000000000000000000000000000000000000000000000000000000000000000000000000000000000000000000000000000000000000000000000000000
#039391:000000000000000000000000000000000000000000000000000000000000000000000000000000000000000000550000000000000000000000000000000000000000000000000000000000000000000000000000000000000000000000000000000055000000000000000000000000000000000000000000000000000000000000000000000000000000000000000000000000000000000000000000000000000000000000000000000000000000000000000000000000000000000000000000000000000000000000000000000000000000000000000000000000000000000000000000000000000000000000000000240000000000000000000000000000000000000000000000000000000000000000000000000000000000000000000000000000000000000000000000000000000000000000000000000000000000000000000000000000000000000000000000000000000000000000000000000000000000000000000000000000000000000000000000000000000000000000000000000000000000000000000000000000000000000000000000000000000000000000000000000000000000000000000000000000000000000000000000000000000000000000000000000000000000000000000000000000000000000000000000000000000000000000000000000000000000000000000000000000000000000000000000000000000000000000000000000000000000000000000000000000000000000000000000000000000000000000000000000000000000000000000000000000000000000000000000000000000000000000000000000000000000000000000000000000000000000000000000000000000000000000000000000000000000000000000000000000000000000000000000000000000000000000000000000000000000000000000000000000000000000000000000000000000000000000000000000000000000000000000000000000000000000000000000000000000000000000000000000000000000000000000000000000000000000000000000000000000000000000000000000000000000000000000000000000000000000000000000000000000000000000000000000000000000000000000000000000000000000000000000000000000000000000000000000000000000000000000000000000000000000000000000000000000000000000000000000000000000000000000000000000000000000000000000000000000000000000000000000000000000000000000000000000000000000000000000000000000000000000000000
#0393b1:000000000000000000000000000000000000000000000000000000000000000000000000000000000000000000000000000000000000000000000000000000000000000000000000000000000000000000000000000000000000005300000000000000000000000000000000000000000000000000000000000000000000000000000000000000000000000000000000000000000000000000000000000000000000000000000000000000000000000000000000000000000000000000000000000000530000000000000000000000000000000000000000000000000000000000000000000000000000000000000000000000000000000000000000000000000000000000000000000000000000000000000000000000000000000000000000000000000000000000000000000000000000000000000000000000000000000000000000000000000000000000000000000000000000000000000000000000000000000000000000000000000000000000000000000000000000000000000000000000000000000000000000000000000000000000000000000000000000000000000000000000000000000000000000000000000000000000000000000000000000000000000000000000000000000000000000000000000000000000000000000000000000000000000000000000000000000000000000000000000000000000000000000000000000000000000000000000000000000000000000000000000000000000000000000000000000000000000000000000000000000000000000000000000000000000000000000000000000000000000000000000000000000000000000000000000000000000000000000000000000000000000000000000000000000000000000000000000000000000000000000000000000000000000000000000000000000000000000000000000000000000000000000000000000000000000000000000000000000000000000000000000000000000000000000000000000000000000000000000000000000000000000000000000000000000000000000000000000000000000000000000000000000000000000000000000000000000000000000000000000000000000000000000000000000000000000000000000000000000000000000000000000000000000000000000000000000000000000000000000000000000000000000000000000000000000000000000000000000000000000000000000000000000000000000000000000000000000000000000000000000000000000000000000000000000000000000000000000000000000000000000000000000000000000000000000000000000000000000000000000000000000000000000000000000000000000000000000000000000000000000000000000000000000000000000000000000000000000000000000000000000000000000000000000000000000000000000000000000000000000000000000000000000000000000000000000000000000000000000000000000000000000000000000000000000000000000000000000000000000000000000000000000000000000000000000000000000000000000000000000000000000000000000000000000000000000000000000000000000000000000000000000000000000000000000000000000000000000000000000000000000000000000000000000000000000000000000000000000000000000000000000000000000000000000000000000000000000000000000000000000000000000000000000000000000000000000000000000000000000000000000000000000000000000000000000000000000000000000000000000000000000000000000000000000000000000000000000000000000000000000000000000000000000000000000000000000000000000000000000000000000000000000000000000000000000000000000000000000000000000000000000000000000000000000000000000000000000000000000000000000000000000000000000000000000000000000000000000000000000000000000000000000000000000000000000000000000000000000000000000000000000000000000000000000000000000000000000000000000000000000000000000000000000000000000000000000000000000000000000000000000000000000000000000000000000000000000000000000000000000000000000000000000000000000000000000000000000000000000000000000000000000000000000000000000000000000000000000000000000000000000000000000000000000000000000000000000000000000000000000000000000000000000000000000000000000000000000000000000000000000000000000000000000000000000000000000000000000000000000000000000000000000000000000000000000000000000000000000000000000000000000000000000000000000000000000000000000000000000000000000000000000000000000000000000000000000000000000000000000000000000000000000000000000000000000000000000000000000000000000000000000000000000000000000000000000000000000000000000000000
#039381:00000013
#0403b1:23
#040321:00130000
#040351:0023
#040381:00000013
#0413b1:23
#041351:00130000
#041321:0023
#0413b1:00000013
#042381:23
#042351:00130000
#042321:0023
#042380:0013
#0423b0:00000023
#042351:00000013
#043321:23
#043380:13
#0433b0:00230000
#043351:00130000
#043321:0023
#043351:00000013
#044351:23
#0443b1:00130033
#044381:0033
#045381:23
#045321:00130000
#045361:00000053
#046321:00230000
#046370:00130000
#0463b0:00000023
#046361:00000013
#047321:00230000
#0473b0:00130000
#047370:00000023
#047321:00000013
#048361:00330000
#048321:00000023
#0483b0:00130000
#048370:00000023
#049320:00130000
#049360:00000033
#050320:00330000
#050350:00000023
#0493b1:00000013
#050371:00230000
#050381:00000013
#0513b1:00330000
#051371:00000033
#0523b1:00330023
#052381:0053
#051360:00130000
#051320:00000023
#052320:00130023
#052350:0053
#053360:0000000000130000
#054320:23
#054370:0000000000130000
#0553b0:23
#056320:00130000
#056350:0023
#0563b0:0000000000130000
#056380:0000000000000023
#057320:00130000
#057350:0023
#0583b0:00130000
#058380:0023
#059370:00130000
#0593b0:0000000000530000
#060370:23
#059321:00130000
#059361:0000000000530000
#060321:23
#062381:00160000
#0633b1:0023000000000000
#062350:0000130000000023
#062320:0000003333330000
#063321:00160000
#064321:0023000000000000
#063380:0000130000000023
#0633b0:0000003333330000
#064381:00160000
#0653b1:0023000000000000
#064350:0000130000000023
#064320:0000003333330000
#065321:00160000
#066321:0023000000000000
#065380:00130000
#0653b0:0000003333230000
#066381:00160000
#0673b1:0023000000000000
#066350:0000130000000023
#066320:0000003333330000
#067321:0000000000000000160000000000000000000054000000003600000000000000
#068321:0000005400000000360000000000000000000000000000000000000000000000
#069321:0023000000000000
#0683b0:0013000000002300
#068380:00000000000000530000000000000000
#069380:0013002300000000
#070320:1556250000000000
#070330:0000000000005500000000000055000000000055000000000055000000000000000000000000000000000000000000000000000000000000000000000000000000000000000000000000000000000000000000000000000000000000000000000000000000000000000000000000000000000000000000000000000000000000
#070350:000000000000000000000000000000000000000000000000000000000000000000000000000000000000000000000000000000000000000000000000000000000000000000000000000000000000000000000000000000000000005300000000000000000000000000000000000000000000000000000000000000000000000000000000000000000000000000000000000000000000000000000000000000000000000000000000000000000000000000000000000000000000000000000000000053000000000000000000000000000000000000000000000000000000000000000000000000000000000000000000000000000000000000000000000000000000000000000000000000000000000000000000000000000000000000005300000000000000000000000000000000000000000000000000000000000000000000000000000000000000000000000000000000000000000000000000000000000000000000000000000000000000000000000000000053000000000000000000000000000000000000000000000000000000000000000000000000000000000000000000000000000000000000000000000000000000000000000000000000000000000000000000000000000000000000000000000000000000000000000000000000000000000000000000000000000000000000000000000000000000000000000000000000000000000000000000000000000000000000000000000000000000000000000000000000000000000000000000000000000000000000000000000000000000000000000000000000000000000000000000000000000000000000000000000000000000000000000000000000000000000000000000000000000000000000000000000000000000000000000000000000000000000000000000000000000000000000000000000000000000000000000000000000000000000000000000000000000000000000000000000000000000000000000000000000000000000000000000000000000000000000000000000000000000000000000000000000000000000000000000000000000000000000000000000000000000000000000000000000000000000000000000000000000000000000000000000000000000000000000000000000000000000000000000000000000000000000000000000000000000000000000000000000000000000000000000000000000000000000000000000000000000000000000000000000000000000000000000000000000000000000000000000000000000000000000000000000000000000000000000000000000000000000000000000000000000000000000000000000000000000000000000000000000000000000000000000000000000000000000000000000000000000000000000000000000000000000000000000000000000000000000000000000000000000000000000000000000000000000000000000000000000000000000000000000000000000000000000000000000000000000000000000000000000000000000000000000000000000000000000000000000000000000000000000000000000000000000000000000000000000000000000000000000000000000000000000000000000000000000000000000000000000000000000000000000000000000000000000000000000000000000000000000000000000000000000000000000000000000000000000000000000000000000000000000000000000000000000000000000000000000000000000000000000000000000000000000000000000000000000000000000000000000000000000000000000000000000000000000000000000000000000000000000000000000000000000000000000000000000000000000000000000000000000000000000000000000000000000000000000000000000000000000000000000000000000000000000000000000000000000000000000000000000000000000000000000000000000000000000000000000000000000000000000000000000000000000000000000000000000000000000000000000000000000000000000000000000000000000000000000000000000000000000000000000000000000000000000000000000000000000000000000000000000000000000000000000000000000000000000000000000000000000000000000000000000000000000000000000000000000000000000000000000000000000000000000000000000000000000000000000000000000000000000000000000000000000000000000000000000000000000000000000000000000000000000000000000000000000000000000000000000000000000000000000000000000000000000000000000000000000000000000000000000000000000000000000000000000000000000000000000000000000000000000000000000000000000000000000000000000000000000000000000000000000000000000000000000000000000000000000000000000000000000000000000000000000000000000000000000000000000000000000000000000000000000000000000000000000000000000000000000000000000000000000000000000000000000000000000000
#070381:1500000000000000000000000000000000000056000000000056000000000000000000000000000000000000000000000000000000000000000000000000000000000000000000000000000000000000000000000000000000000000000000000000000000000000000000000000000000000000000000000000000000000000
#070391:000000000000000000000000000000000000000000000000000000000000000000000000000000000000000000550000000000000000000000000000000000000000000000000000000000000000000000000000000000000000000000000000000055000000000000000000000000000000000000000000000000000000000000000000000000000000000000000000000000000000000000000000000000000000000000000000000000000000000000000000000000000000000000000000000000000000000000000000000000000000000000000000000000000000000000000000000000000000000000000000240000000000000000000000000000000000000000000000000000000000000000000000000000000000000000000000000000000000000000000000000000000000000000000000000000000000000000000000000000000000000000000000000000000000000000000000000000000000000000000000000000000000000000000000000000000000000000000000000000000000000000000000000000000000000000000000000000000000000000000000000000000000000000000000000000000000000000000000000000000000000000000000000000000000000000000000000000000000000000000000000000000000000000000000000000000000000000000000000000000000000000000000000000000000000000000000000000000000000000000000000000000000000000000000000000000000000000000000000000000000000000000000000000000000000000000000000000000000000000000000000000000000000000000000000000000000000000000000000000000000000000000000000000000000000000000000000000000000000000000000000000000000000000000000000000000000000000000000000000000000000000000000000000000000000000000000000000000000000000000000000000000000000000000000000000000000000000000000000000000000000000000000000000000000000000000000000000000000000000000000000000000000000000000000000000000000000000000000000000000000000000000000000000000000000000000000000000000000000000000000000000000000000000000000000000000000000000000000000000000000000000000000000000000000000000000000000000000000000000000000000000000000000000000000000000000000000000000000000000000000000000000000000000000000000000000000000000000000000000000000
#0703b1:000000000000000000000000000000000000000000000000000000000000000000000000000000000000000000000000000000000000000000000000000000000000000000000000000000000000000000000000000000000000005300000000000000000000000000000000000000000000000000000000000000000000000000000000000000000000000000000000000000000000000000000000000000000000000000000000000000000000000000000000000000000000000000000000000000530000000000000000000000000000000000000000000000000000000000000000000000000000000000000000000000000000000000000000000000000000000000000000000000000000000000000000000000000000000000000000000000000000000000000000000000000000000000000000000000000000000000000000000000000000000000000000000000000000000000000000000000000000000000000000000000000000000000000000000000000000000000000000000000000000000000000000000000000000000000000000000000000000000000000000000000000000000000000000000000000000000000000000000000000000000000000000000000000000000000000000000000000000000000000000000000000000000000000000000000000000000000000000000000000000000000000000000000000000000000000000000000000000000000000000000000000000000000000000000000000000000000000000000000000000000000000000000000000000000000000000000000000000000000000000000000000000000000000000000000000000000000000000000000000000000000000000000000000000000000000000000000000000000000000000000000000000000000000000000000000000000000000000000000000000000000000000000000000000000000000000000000000000000000000000000000000000000000000000000000000000000000000000000000000000000000000000000000000000000000000000000000000000000000000000000000000000000000000000000000000000000000000000000000000000000000000000000000000000000000000000000000000000000000000000000000000000000000000000000000000000000000000000000000000000000000000000000000000000000000000000000000000000000000000000000000000000000000000000000000000000000000000000000000000000000000000000000000000000000000000000000000000000000000000000000000000000000000000000000000000000000000000000000000000000000000000000000000000000000000000000000000000000000000000000000000000000000000000000000000000000000000000000000000000000000000000000000000000000000000000000000000000000000000000000000000000000000000000000000000000000000000000000000000000000000000000000000000000000000000000000000000000000000000000000000000000000000000000000000000000000000000000000000000000000000000000000000000000000000000000000000000000000000000000000000000000000000000000000000000000000000000000000000000000000000000000000000000000000000000000000000000000000000000000000000000000000000000000000000000000000000000000000000000000000000000000000000000000000000000000000000000000000000000000000000000000000000000000000000000000000000000000000000000000000000000000000000000000000000000000000000000000000000000000000000000000000000000000000000000000000000000000000000000000000000000000000000000000000000000000000000000000000000000000000000000000000000000000000000000000000000000000000000000000000000000000000000000000000000000000000000000000000000000000000000000000000000000000000000000000000000000000000000000000000000000000000000000000000000000000000000000000000000000000000000000000000000000000000000000000000000000000000000000000000000000000000000000000000000000000000000000000000000000000000000000000000000000000000000000000000000000000000000000000000000000000000000000000000000000000000000000000000000000000000000000000000000000000000000000000000000000000000000000000000000000000000000000000000000000000000000000000000000000000000000000000000000000000000000000000000000000000000000000000000000000000000000000000000000000000000000000000000000000000000000000000000000000000000000000000000000000000000000000000000000000000000000000000000000000000000000000000000000000000000000000000000000000000000000000000000000000000000000000000000000000000000000000000000000000000000000000000000000000000000
#070321:00001333
#070331:0000000000330033
#071321:33230000
#071331:0033000000000000
#0713b0:00133333
#0713a0:0000003300330033
#0723b0:33230000
#0723a0:0033000000000000
#072321:00133333
#072331:0000003300330033
#073321:33230000
#073331:0033000000000000
#0733b0:00133333
#0733a0:0000003300330033
#0743b0:33230000
#0743a0:0033000000000000
#074321:00133333
#074331:0000003300330033
#075321:33230000
#075331:0033000000000000
#075360:00140024
#075380:0000003400340000
#0753a0:0034
#075321:00000014
#075341:0000000000000034
#076361:34
#076351:00340000000000000000000000000000
#076341:0034000000000000
#076331:00000034000000000000000000000000
#076321:00240000
#080351:0000000000130023
#081351:0000000000000013
#082321:0023000000000000
#082380:0013000023000000
#0823b0:00000000005300000000000000000000
#082350:0000000000130000
#082320:00000000000000000000000000530000
#083350:23
#083380:0013000000000000
#0833b0:0000002300000000
#084360:00140000
#0843a0:0024
#0843a0:0000000000140000
#085360:24
#085360:0014000000340000
#0853a0:0000003400000034
#085380:00003434
#0863a0:24
#086360:00140000
#086320:0024
#086320:0000000000140000
#087360:24
#087360:0014000000003400
#087320:0034
#088320:24
#088360:00140000
#0883a0:0024
#088360:00000014
#089320:24
#089320:00140000
#089360:0000000000000000000000000000000032000000320000000000000000000022
#0893a1:00140000
#089381:0000000000000000000000000000000032000000320000000000000000000022
#090351:0000000000130000
#090341:00000033
#090331:0000000000000033
#091321:23
#0913b1:0000001300000000
#0913a1:0033
#091391:0000000000330000
#091381:00000023
#092351:0013000000000000
#092341:00330000
#092321:0000002300000000
#093381:0013000000000000
#093391:00330000
#0933a1:0000003300000000
#0933b1:0023
#093321:0000000000000013
#094331:33
#094341:0033000000000000
#094351:00230000
#094381:0000000000130000
#094391:00000033
#0943a1:0000000000000033
#0953b1:23
#095321:00130000
#095331:00000000003300000000000000000000
#095341:0000003300000000
#095351:00000000000000332300000000000000
#095380:0013
#095390:00000000000000000033000000000000
#0953a0:0000000000330000
#0953b0:00000000000000000000003323000000
#095321:00000013
#096321:0023000000000000
#096351:0000000013000023
#097321:0000130000230000
#0983b1:0000130000230000
#098320:00133333
#098330:0000003300330033
#099320:33333333
#099330:0033003300330033
#100320:33333333
#100330:0033003300330033
#101320:33
#101330:0023000000000000
#099381:1300002300000000
#0993b1:00000013
#1003b1:0023000000000000
#100381:0000000013000023
