This file was generated by Ched 2.7.0.0.
#TITLE ""
#ARTIST ""
#DESIGNER ""
#DIFFICULTY 0
#PLAYLEVEL
#SONGID ""
#WAVE ""
#WAVEOFFSET 0
#JACKET ""
#REQUEST "ticks_per_beat 480"
#00002: 4
#BPM01: 175
#00008: 01
#TIL00: ""
#VOLUME: ""
#HISPEED 00
#MEASUREHS 00
#00215:0013000000000000
#00218:0000001300000000
#00212:0023
#0021a:0000000000000033
#00415:0000000000130013
#00418:00000013
#00419:0000003300000000
#0051b:13
#00513:0000003300000000
#01015:0000001300000013
#01018:0013
#01012:0000000000130000
#00815:0013
#0081b:0000001300000013
#00818:0000000000130000
#00812:24
#00810:41
#0091b:0000000000130000
#00918:0013000000003300
#00915:0000001300000000
#01218:0000001300000000
#01215:0013
#01315:00000013
#03015:0013000000130000
#03018:0000130000000013
#0301a:0000000000240000
#03012:0000002400000024
#0291b:00130000
#02918:0000000000130000
#02912:00130000
#02915:0000000000130000
#03115:00131300
#0311b:0023001300130000
#03110:0041000000000000
#03515:0013001300000000
#03518:0000130000000013
#0351b:0013
#03512:0000000000130000
#04218:0013000000000000
#04212:0013
#04215:00230013
#03716:00000000000000140000000000000000
#03712:0024000000000000
#05515:0013000000000000
#05519:00000013
#05512:0000000000130000
#05513:0000000000000013
#0561a:13
#05614:0013000000000000
#05718:0013000000130000
#0571b:0000000000000013
#06018:0000130000000013
#06015:0013000000130000
#06012:0000002400000024
#0601a:0000000000240000
#03412:0013000000000013
#0341b:0013000000000013
#03418:00333300
#03415:00333300
#05315:0013333333000000
#05312:0000000000130000
#08313:00000014
#0831a:0000000000000014
#08314:0014
#08319:0000000000140000
#08318:0000001400000000
#08312:0024000000000000
#08412:14
#0841a:00240000
#08912:14140000
#0891a:24140000
#08916:0032
#08918:0000000000320000
#05912:00130000
#05918:1300000000130000
#05915:0000000000130000
#0591b:00130000
#05910:00410000
#06515:0013000000000013
#06518:00130000
#0651b:0000003333000000
#06218:0013000000000000
#06212:00000000000033003313330000000000
#06215:00130000
#0621f:00110000
#06718:0013000000130000
#06715:0000001300000013
#0681b:0013000000000000
#06818:00000000000000130000000000000000
#06812:0013000000000000
#06815:00000000000000130000000000000000
#06618:0013000000000000
#06612:00000000000033003313330000000000
#06615:00130000
#06315:0013000000000000
#0631b:00000000000033003313330000000000
#06318:00130000
#06418:0013000000000000
#06412:00000000000033003313330000000000
#06415:00130000
#02715:0013000000000000
#02718:00130000
#0271b:0000000000130000
#0111b:0000001300000000
#01118:0013000000000000
#01115:0000000000130000
#05815:0013000000130000
#05812:0000000000000013
#00718:0013001300130000
#00715:00131300
#01515:0014000000000000
#01512:0000000000000013
#0151a:0024
#01417:14000014
#01415:0000001400000000
#02112:0013
#02118:00130000
#04312:13
#04315:00130013
#04318:0000000000130000
#05418:0013333333000000
#0541b:0000000000130000
#08512:00001414
#0851a:0000000000140000
#08516:0000000000000014
#08812:00141414
#08816:14
#0881a:00242424
#02412:00130000
#02415:00000013
#02815:0013000000000000
#02812:0000000013330000
#02315:0013000000001300
#02318:13230000
#02215:0000000000000013
#02218:1333000000330000
#0221b:0000001300000000
#0251b:00000013
#02518:00130000
#02618:00130000
#03818:0013000000000000
#0381b:0013
#03819:00000033
#0381a:0000003300330000
#06915:0013000000000000
#06912:0013
#06914:00000033
#06913:0000003300330000
#07515:00000016
#07512:00260000
#07518:0026000000000000
#0791b:0000001300000000
#07915:00130000
#07918:0013000000230000
#07912:0000000023000013
#0761b:0000001300000000
#07615:0013
#07612:0000000000000013
#07618:0000000000230000
#0761f:00210000
#0771b:0000001300000000
#07712:0013
#07718:0013000000230000
#07715:0000130000000013
#07710:00410000
#07818:0000001300000000
#07815:0013
#07812:0000130000000013
#0781b:0013000000230000
#08018:1313
#08015:0013001300000000
#0801b:00130000
#08012:0000000000130000
#0801a:0000000000000024
#01718:0000000000000013
#01712:0013000000000000
#01715:00330000
#01815:1300000000130000
#01812:0000000000000013
#01818:0000001300000000
#0181b:0013000000000000
#01618:1300000000000013
#01615:0013000000130000
#01612:0000001300000000
#01915:0000000000000013
#01918:0013000000000000
#01910:0041
#02018:13
#07012:2500000000130000
#07018:25
#07118:0013000000000000
#07112:0000000000130000
#0721b:0013000000000000
#07215:0000000000130000
#0731b:0013000000000000
#0741b:00130000
#07415:0000000000130000
#07418:00000013
#08215:00000000001400000000000000000000
#08217:00000000000000000000000000140000
#08212:0024000000000000
#0821a:0000000000240000
#0461b:00000013
#04618:00130000
#04610:00410000
#04712:00000013
#04715:00130000
#04818:00130000
#05215:00130000
#05218:00130000
#05212:00000023
#0521b:00000023
#0861a:14
#08612:00240000
#0871a:00000014
#09212:0000000000130000
#0921b:00000013
#09215:0013001300000000
#09218:00131300
#09018:00001313
#09015:0000000000130000
#09012:00130000
#09118:0000001300000000
#09115:0013
#09315:1300130000000013
#09318:0013000000000000
#09418:1300000000130013
#09415:00000013
#09515:13
#0951a:00000000003300000000330000000000
#09519:00000000000033000033000000000000
#09518:00000000000000330000000000000000
#0951b:00000000000000000000003300000000
#09815:0013000000000000
#09718:0000000000000013
#03218:00131300
#03212:0013001300130000
#03315:00131300
#0331b:0013001300130000
#04512:00240000
#03612:0024000000000000
#03616:0000002400000024
#0361a:0000000000240000
#08112:0024000000000000
#08119:0000002400000000
#08114:0000000000240000
#08118:0000000000000024
#03912:25
#03918:25
#00314:0000000000330000
#00614:0000000000000033
#00619:0033000000000000
#04418:00363636
#0055b:13
#0095b:0000000000630000
#0295b:00630000
#02958:0000000000230000
#02952:00530000
#02955:0000000000230000
#03756:00000000000000240000000000000000
#03752:0054000000000000
#05355:0053000000000000
#05352:0000000000530000
#08952:00540000
#0895a:00640000
#08956:0000000000000000000000000000000000000000000000000000000000000012
#08958:0000000000000000000000000000000000000000000000000000000000000012
#0345b:0053000000000000
#03452:0063000000000000
#03458:0000000000130000
#03455:0000000000130000
#05952:00630000
#05955:0000000000230000
#0595b:00530000
#05958:0000000000230000
#0685b:0063000000000000
#06858:00000000000000230000000000000000
#06852:0053000000000000
#06855:00000000000000230000000000000000
#06652:00000000000000000023000000000000
#06655:00530000
#02758:00530000
#0275b:0000000000530000
#06252:00000000000000000023000000000000
#06255:00530000
#06558:00630000
#0655b:0000000000130000
#0635b:00000000000000000023000000000000
#06358:00630000
#06452:00000000000000000023000000000000
#06455:00530000
#00758:0000000000130000
#01155:0000000000630000
#01555:0064000000000000
#0155a:0014
#01457:54000054
#01455:0000006400000000
#02152:0053
#0315b:0000000000530000
#04252:0053
#04255:00530053
#04352:53
#04355:00530000
#05458:0063000000000000
#0545b:0000000000630000
#02452:00630000
#02455:00000063
#02855:0063000000000000
#02852:0063
#02355:00000053
#02358:00130000
#02258:53
#0225b:0000002300000000
#0255b:00000053
#02558:00630000
#02658:00530000
#03858:0053000000000000
#0385b:0023
#06955:0063000000000000
#06952:0023
#07555:00000056
#07552:00560000
#07652:0000000000000013
#07755:0000000000000013
#07852:0000000000000013
#01752:0053000000000000
#01958:0053000000000000
#0745b:00530000
#08255:00000000002400000000000000000000
#08257:00000000000000000000000000240000
#08252:0064000000000000
#0825a:0000000000540000
#0465b:00000053
#04658:00530000
#04752:00000053
#04755:00530000
#04858:00530000
#0485b:00000013
#05255:00530000
#05258:00630000
#05252:00000013
#0525b:00000013
#03252:0000000000630000
#0335b:0000000000530000
#00852:14
#00252:0013
#04552:00140000
#07958:0000000000130000
#0805a:0000000000000014
#08152:0014000000000000
#08159:0000001400000000
#08154:0000000000140000
#08158:0000000000000014
#03952:00150000
#03959:00140000
#07052:00150000
#07059:00140000
#0925b:00000013
#000380:1300002300000000
#000350:00000013
#001350:0023000000000000
#001380:0000000013000023
#0023b0:00000013
#0023a0:0000000000000033
#003380:23
#003350:00133300
#003340:0000000000330000
#003320:00000023
#0043b0:13330000
#004390:0000003300000000
#004380:0023
#005320:00130000
#005330:0000003300000000
#005350:0023
#005380:00000013
#006380:33
#006390:0033000000000000
#0063b0:00230000
#006320:00001333
#006340:0000000000000033
#007350:23
#0093b0:0000000000130000
#009380:00000033
#010380:23
#011350:0000000000130000
#012320:23
#012380:0000000000130000
#0123b0:0000000000000033
#013380:0033000000230000
#0133b0:0000003300000000
#014370:14
#0143a0:00240000
#014350:0000001400000000
#014320:0000000000240000
#014370:00000014
#0153a0:24
#015350:0014000000000000
#015320:0000002400000000
#017320:0013000000000000
#017350:00332300
#019380:0013000000000000
#0193b0:0023
#020350:0013000000330000
#020320:0000003300000033
#021350:0023000000000000
#021320:0013
#021350:00000023
#022380:1333000000332300
#0223b0:0000003300000000
#023350:00000013
#024320:00330000
#024350:00000033
#025320:00230000
#025381:00130000
#0253b1:00000033
#026381:00330000
#0263b1:00000023
#027381:0000130000000023
#0273b1:0000000033330000
#028351:0013000000000023
#028321:0000003333330000
#0293b1:00130000
#029381:0000000000530000
#0303b1:23
#029320:00130000
#029350:0000000000530000
#030320:23
#0313b0:0000000000130000
#031380:0000000000000023
#032320:0000000000130000
#032350:0000000000000023
#0333b0:0000000000130000
#033380:0000000000000023
#0343b0:0013000000000000
#034380:0000330033230000
#034321:0013000000000000
#034351:0000330033230000
#037321:0014000000002400
#037361:00000000000000540000000000000000
#038381:0013000000000023
#0383a1:0000003300330000
#0383b1:0033
#038391:00000033
#039321:1556250000000000
#039331:0000000000005500000000000055000000000055000000000055000000000000000000000000000000000000000000000000000000000000000000000000000000000000000000000000000000000000000000000000000000000000000000000000000000000000000000000000000000000000000000000000000000000000
#039351:000000000000000000000000000000000000000000000000000000000000000000000000000000000000000000000000000000000000000000000000000000000000000000000000000000000000000000000000000000000000005300000000000000000000000000000000000000000000000000000000000000000000000000000000000000000000000000000000000000000000000000000000000000000000000000000000000000000000000000000000000000000000000000000000000053000000000000000000000000000000000000000000000000000000000000000000000000000000000000000000000000000000000000000000000000000000000000000000000000000000000000000000000000000000000000005300000000000000000000000000000000000000000000000000000000000000000000000000000000000000000000000000000000000000000000000000000000000000000000000000000000000000000000000000000053000000000000000000000000000000000000000000000000000000000000000000000000000000000000000000000000000000000000000000000000000000000000000000000000000000000000000000000000000000000000000000000000000000000000000000000000000000000000000000000000000000000000000000000000000000000000000000000000000000000000000000000000000000000000000000000000000000000000000000000000000000000000000000000000000000000000000000000000000000000000000000000000000000000000000000000000000000000000000000000000000000000000000000000000000000000000000000000000000000000000000000000000000000000000000000000000000000000000000000000000000000000000000000000000000000000000000000000000000000000000000000000000000000000000000000000000000000000000000000000000000000000000000000000000000000000000000000000000000000000000000000000000000000000000000000000000000000000000000000000000000000000000000000000000000000000000000000000000000000000000000000000000000000000000000000000000000000000000000000000000000000000000000000000000000000000000000000000000000000000000000000000000000000000000000000000000000000000000000000000000000000000000000000000000000000000000000000000000000000000000000000000000000000000000000000000000000000000000000000000000000000000000000000000000000000000000000000000000000000000000000000000000000000000000000000000000000000000000000000000000000000000000000000000000000000000000000000000000000000000000000000000000000000000000000000000000000000000000000000000000000000000000000000000000000000000000000000000000000000000000000000000000000000000000000000000000000000000000000000000000000000000000000000000000000000000000000000000000000000000000000000000000000000000000000000000000000000000000000000000000000000000000000000000000000000000000000000000000000000000000000000000000000000000000000000000000000000000000000000000000000000000000000000000000000000000000000000000000000000000000000000000000000000000000000000000000000000000000000000000000000000000000000000000000000000000000000000000000000000000000000000000000000000000000000000000000000000000000000000000000000000000000000000000000000000000000000000000000000000000000000000000000000000000000000000000000000000000000000000000000000000000000000000000000000000000000000000000000000000000000000000000000000000000000000000000000000000000000000000000000000000000000000000000000000000000000000000000000000000000000000000000000000000000000000000000000000000000000000000000000000000000000000000000000000000000000000000000000000000000000000000000000000000000000000000000000000000000000000000000000000000000000000000000000000000000000000000000000000000000000000000000000000000000000000000000000000000000000000000000000000000000000000000000000000000000000000000000000000000000000000000000000000000000000000000000000000000000000000000000000000000000000000000000000000000000000000000000000000000000000000000000000000000000000000000000000000000000000000000000000000000000000000000000000000000000000000000000000000000000000000000000000000000000000000000000000000000000000000000000000000000000000000000000000000000000000000000000000000000000000000000000000000000000000000000
#039380:1500000000000000000000000000000000000056000000000056000000000000000000000000000000000000000000000000000000000000000000000000000000000000000000000000000000000000000000000000000000000000000000000000000000000000000000000000000000000000000000000000000000000000
#039390:000000000000000000000000000000000000000000000000000000000000000000000000000000000000000000550000000000000000000000000000000000000000000000000000000000000000000000000000000000000000000000000000000055000000000000000000000000000000000000000000000000000000000000000000000000000000000000000000000000000000000000000000000000000000000000000000000000000000000000000000000000000000000000000000000000000000000000000000000000000000000000000000000000000000000000000000000000000000000000000000240000000000000000000000000000000000000000000000000000000000000000000000000000000000000000000000000000000000000000000000000000000000000000000000000000000000000000000000000000000000000000000000000000000000000000000000000000000000000000000000000000000000000000000000000000000000000000000000000000000000000000000000000000000000000000000000000000000000000000000000000000000000000000000000000000000000000000000000000000000000000000000000000000000000000000000000000000000000000000000000000000000000000000000000000000000000000000000000000000000000000000000000000000000000000000000000000000000000000000000000000000000000000000000000000000000000000000000000000000000000000000000000000000000000000000000000000000000000000000000000000000000000000000000000000000000000000000000000000000000000000000000000000000000000000000000000000000000000000000000000000000000000000000000000000000000000000000000000000000000000000000000000000000000000000000000000000000000000000000000000000000000000000000000000000000000000000000000000000000000000000000000000000000000000000000000000000000000000000000000000000000000000000000000000000000000000000000000000000000000000000000000000000000000000000000000000000000000000000000000000000000000000000000000000000000000000000000000000000000000000000000000000000000000000000000000000000000000000000000000000000000000000000000000000000000000000000000000000000000000000000000000000000000000000000000000000000000000000000000000000
#0393b0:000000000000000000000000000000000000000000000000000000000000000000000000000000000000000000000000000000000000000000000000000000000000000000000000000000000000000000000000000000000000005300000000000000000000000000000000000000000000000000000000000000000000000000000000000000000000000000000000000000000000000000000000000000000000000000000000000000000000000000000000000000000000000000000000000000530000000000000000000000000000000000000000000000000000000000000000000000000000000000000000000000000000000000000000000000000000000000000000000000000000000000000000000000000000000000000000000000000000000000000000000000000000000000000000000000000000000000000000000000000000000000000000000000000000000000000000000000000000000000000000000000000000000000000000000000000000000000000000000000000000000000000000000000000000000000000000000000000000000000000000000000000000000000000000000000000000000000000000000000000000000000000000000000000000000000000000000000000000000000000000000000000000000000000000000000000000000000000000000000000000000000000000000000000000000000000000000000000000000000000000000000000000000000000000000000000000000000000000000000000000000000000000000000000000000000000000000000000000000000000000000000000000000000000000000000000000000000000000000000000000000000000000000000000000000000000000000000000000000000000000000000000000000000000000000000000000000000000000000000000000000000000000000000000000000000000000000000000000000000000000000000000000000000000000000000000000000000000000000000000000000000000000000000000000000000000000000000000000000000000000000000000000000000000000000000000000000000000000000000000000000000000000000000000000000000000000000000000000000000000000000000000000000000000000000000000000000000000000000000000000000000000000000000000000000000000000000000000000000000000000000000000000000000000000000000000000000000000000000000000000000000000000000000000000000000000000000000000000000000000000000000000000000000000000000000000000000000000000000000000000000000000000000000000000000000000000000000000000000000000000000000000000000000000000000000000000000000000000000000000000000000000000000000000000000000000000000000000000000000000000000000000000000000000000000000000000000000000000000000000000000000000000000000000000000000000000000000000000000000000000000000000000000000000000000000000000000000000000000000000000000000000000000000000000000000000000000000000000000000000000000000000000000000000000000000000000000000000000000000000000000000000000000000000000000000000000000000000000000000000000000000000000000000000000000000000000000000000000000000000000000000000000000000000000000000000000000000000000000000000000000000000000000000000000000000000000000000000000000000000000000000000000000000000000000000000000000000000000000000000000000000000000000000000000000000000000000000000000000000000000000000000000000000000000000000000000000000000000000000000000000000000000000000000000000000000000000000000000000000000000000000000000000000000000000000000000000000000000000000000000000000000000000000000000000000000000000000000000000000000000000000000000000000000000000000000000000000000000000000000000000000000000000000000000000000000000000000000000000000000000000000000000000000000000000000000000000000000000000000000000000000000000000000000000000000000000000000000000000000000000000000000000000000000000000000000000000000000000000000000000000000000000000000000000000000000000000000000000000000000000000000000000000000000000000000000000000000000000000000000000000000000000000000000000000000000000000000000000000000000000000000000000000000000000000000000000000000000000000000000000000000000000000000000000000000000000000000000000000000000000000000000000000000000000000000000000000000000000000000000000000000000000000000000000000000000000000000000000000000000000000000000000000000000000000000000000000000000000000000000000
#039320:0000000000130000
#039350:00000033
#040350:23
#0403b0:0013000000000000
#040380:00332300
#040350:0000000000130000
#040320:00000033
#041320:23
#041380:0013000000000000
#0413b0:00332300
#041320:0000000000130000
#041350:00000033
#042350:23
#042350:00130033
#042320:0033
#043320:3323
#043350:00330000
#044380:0016360036003600
#045360:24
#046380:00130000
#0463b0:00000033
#047380:00230000
#047351:00130000
#047321:00000033
#048351:00230000
#048380:00130000
#0483b0:00000023
#049350:00130000
#049320:00000033
#050350:00230000
#050381:00130000
#0503b1:00000033
#051381:00230000
#051350:00130000
#051320:00000033
#052350:00330000
#052320:00000023
#052381:00130000
#0523b1:00000023
#053351:0013333333000000
#053321:0000000000330000
#054351:23
#054381:0013333333000000
#0543b1:0000000000330000
#055381:23
#055381:00132300
#0563b1:00130000
#056381:0023
#056351:0000000000130000
#056321:0000000000000023
#057351:00132300
#058381:00132300
#059321:00130000
#059351:0000000000530000
#060321:23
#0593b0:00130000
#059380:0000000000530000
#0603b0:23
#062350:0000130000000023
#062320:00000000000033003353330000000000
#063380:0000130000000023
#0633b0:00000000000033003353330000000000
#064350:0000130000000023
#064320:00000000000033003353330000000000
#065380:00130000
#0653b0:0000003333230000
#066350:0000130000000023
#066320:00000000000033003353330000000000
#0683b0:0013000000002300
#068380:00000000000000530000000000000000
#068321:0013000000002300
#068351:00000000000000530000000000000000
#069351:0013000000000023
#069331:0000003300330000
#069321:0033
#069341:00000033
#070321:1556250000000000
#070331:0000000000005500000000000055000000000055000000000055000000000000000000000000000000000000000000000000000000000000000000000000000000000000000000000000000000000000000000000000000000000000000000000000000000000000000000000000000000000000000000000000000000000000
#070351:000000000000000000000000000000000000000000000000000000000000000000000000000000000000000000000000000000000000000000000000000000000000000000000000000000000000000000000000000000000000005300000000000000000000000000000000000000000000000000000000000000000000000000000000000000000000000000000000000000000000000000000000000000000000000000000000000000000000000000000000000000000000000000000000000053000000000000000000000000000000000000000000000000000000000000000000000000000000000000000000000000000000000000000000000000000000000000000000000000000000000000000000000000000000000000005300000000000000000000000000000000000000000000000000000000000000000000000000000000000000000000000000000000000000000000000000000000000000000000000000000000000000000000000000000053000000000000000000000000000000000000000000000000000000000000000000000000000000000000000000000000000000000000000000000000000000000000000000000000000000000000000000000000000000000000000000000000000000000000000000000000000000000000000000000000000000000000000000000000000000000000000000000000000000000000000000000000000000000000000000000000000000000000000000000000000000000000000000000000000000000000000000000000000000000000000000000000000000000000000000000000000000000000000000000000000000000000000000000000000000000000000000000000000000000000000000000000000000000000000000000000000000000000000000000000000000000000000000000000000000000000000000000000000000000000000000000000000000000000000000000000000000000000000000000000000000000000000000000000000000000000000000000000000000000000000000000000000000000000000000000000000000000000000000000000000000000000000000000000000000000000000000000000000000000000000000000000000000000000000000000000000000000000000000000000000000000000000000000000000000000000000000000000000000000000000000000000000000000000000000000000000000000000000000000000000000000000000000000000000000000000000000000000000000000000000000000000000000000000000000000000000000000000000000000000000000000000000000000000000000000000000000000000000000000000000000000000000000000000000000000000000000000000000000000000000000000000000000000000000000000000000000000000000000000000000000000000000000000000000000000000000000000000000000000000000000000000000000000000000000000000000000000000000000000000000000000000000000000000000000000000000000000000000000000000000000000000000000000000000000000000000000000000000000000000000000000000000000000000000000000000000000000000000000000000000000000000000000000000000000000000000000000000000000000000000000000000000000000000000000000000000000000000000000000000000000000000000000000000000000000000000000000000000000000000000000000000000000000000000000000000000000000000000000000000000000000000000000000000000000000000000000000000000000000000000000000000000000000000000000000000000000000000000000000000000000000000000000000000000000000000000000000000000000000000000000000000000000000000000000000000000000000000000000000000000000000000000000000000000000000000000000000000000000000000000000000000000000000000000000000000000000000000000000000000000000000000000000000000000000000000000000000000000000000000000000000000000000000000000000000000000000000000000000000000000000000000000000000000000000000000000000000000000000000000000000000000000000000000000000000000000000000000000000000000000000000000000000000000000000000000000000000000000000000000000000000000000000000000000000000000000000000000000000000000000000000000000000000000000000000000000000000000000000000000000000000000000000000000000000000000000000000000000000000000000000000000000000000000000000000000000000000000000000000000000000000000000000000000000000000000000000000000000000000000000000000000000000000000000000000000000000000000000000000000000000000000000000000000000000000000000000000000000000000000000000000000000000000000000000000000000000000000000000000000000000000000000000000000000000
#070380:1500000000000000000000000000000000000056000000000056000000000000000000000000000000000000000000000000000000000000000000000000000000000000000000000000000000000000000000000000000000000000000000000000000000000000000000000000000000000000000000000000000000000000
#070390:000000000000000000000000000000000000000000000000000000000000000000000000000000000000000000550000000000000000000000000000000000000000000000000000000000000000000000000000000000000000000000000000000055000000000000000000000000000000000000000000000000000000000000000000000000000000000000000000000000000000000000000000000000000000000000000000000000000000000000000000000000000000000000000000000000000000000000000000000000000000000000000000000000000000000000000000000000000000000000000000240000000000000000000000000000000000000000000000000000000000000000000000000000000000000000000000000000000000000000000000000000000000000000000000000000000000000000000000000000000000000000000000000000000000000000000000000000000000000000000000000000000000000000000000000000000000000000000000000000000000000000000000000000000000000000000000000000000000000000000000000000000000000000000000000000000000000000000000000000000000000000000000000000000000000000000000000000000000000000000000000000000000000000000000000000000000000000000000000000000000000000000000000000000000000000000000000000000000000000000000000000000000000000000000000000000000000000000000000000000000000000000000000000000000000000000000000000000000000000000000000000000000000000000000000000000000000000000000000000000000000000000000000000000000000000000000000000000000000000000000000000000000000000000000000000000000000000000000000000000000000000000000000000000000000000000000000000000000000000000000000000000000000000000000000000000000000000000000000000000000000000000000000000000000000000000000000000000000000000000000000000000000000000000000000000000000000000000000000000000000000000000000000000000000000000000000000000000000000000000000000000000000000000000000000000000000000000000000000000000000000000000000000000000000000000000000000000000000000000000000000000000000000000000000000000000000000000000000000000000000000000000000000000000000000000000000000000000000000000000000
#0703b0:000000000000000000000000000000000000000000000000000000000000000000000000000000000000000000000000000000000000000000000000000000000000000000000000000000000000000000000000000000000000005300000000000000000000000000000000000000000000000000000000000000000000000000000000000000000000000000000000000000000000000000000000000000000000000000000000000000000000000000000000000000000000000000000000000000530000000000000000000000000000000000000000000000000000000000000000000000000000000000000000000000000000000000000000000000000000000000000000000000000000000000000000000000000000000000000000000000000000000000000000000000000000000000000000000000000000000000000000000000000000000000000000000000000000000000000000000000000000000000000000000000000000000000000000000000000000000000000000000000000000000000000000000000000000000000000000000000000000000000000000000000000000000000000000000000000000000000000000000000000000000000000000000000000000000000000000000000000000000000000000000000000000000000000000000000000000000000000000000000000000000000000000000000000000000000000000000000000000000000000000000000000000000000000000000000000000000000000000000000000000000000000000000000000000000000000000000000000000000000000000000000000000000000000000000000000000000000000000000000000000000000000000000000000000000000000000000000000000000000000000000000000000000000000000000000000000000000000000000000000000000000000000000000000000000000000000000000000000000000000000000000000000000000000000000000000000000000000000000000000000000000000000000000000000000000000000000000000000000000000000000000000000000000000000000000000000000000000000000000000000000000000000000000000000000000000000000000000000000000000000000000000000000000000000000000000000000000000000000000000000000000000000000000000000000000000000000000000000000000000000000000000000000000000000000000000000000000000000000000000000000000000000000000000000000000000000000000000000000000000000000000000000000000000000000000000000000000000000000000000000000000000000000000000000000000000000000000000000000000000000000000000000000000000000000000000000000000000000000000000000000000000000000000000000000000000000000000000000000000000000000000000000000000000000000000000000000000000000000000000000000000000000000000000000000000000000000000000000000000000000000000000000000000000000000000000000000000000000000000000000000000000000000000000000000000000000000000000000000000000000000000000000000000000000000000000000000000000000000000000000000000000000000000000000000000000000000000000000000000000000000000000000000000000000000000000000000000000000000000000000000000000000000000000000000000000000000000000000000000000000000000000000000000000000000000000000000000000000000000000000000000000000000000000000000000000000000000000000000000000000000000000000000000000000000000000000000000000000000000000000000000000000000000000000000000000000000000000000000000000000000000000000000000000000000000000000000000000000000000000000000000000000000000000000000000000000000000000000000000000000000000000000000000000000000000000000000000000000000000000000000000000000000000000000000000000000000000000000000000000000000000000000000000000000000000000000000000000000000000000000000000000000000000000000000000000000000000000000000000000000000000000000000000000000000000000000000000000000000000000000000000000000000000000000000000000000000000000000000000000000000000000000000000000000000000000000000000000000000000000000000000000000000000000000000000000000000000000000000000000000000000000000000000000000000000000000000000000000000000000000000000000000000000000000000000000000000000000000000000000000000000000000000000000000000000000000000000000000000000000000000000000000000000000000000000000000000000000000000000000000000000000000000000000000000000000000000000000000000000000000000000000000000000000000000000000000000000000000000000000000
#070320:00000013
#071320:23
#071380:00132300
#071320:00000013
#072320:23
#0723b0:00132300
#072350:00000013
#073350:23
#0733b0:00130033
#073380:0033
#074380:3323
#0743b0:00330000
#075320:00160000
#075350:00000036
#076320:00260000
#082320:0014000024000000
#082350:00000000005400000000000000000000
#0823a0:0000000000140000
#082370:00000000000000000000000000540000
#0833a0:24
#0843a0:00140000
#084370:0000000034340000
#0853a0:3434000000000000
#085370:0000002400000000
#086320:00140000
#086350:0000000034340000
#087320:3434000000000000
#087350:0024
#089320:00140000
#089360:0000000000000000000000000000000032000000000000000000520000000022
#0893a1:00140000
#089381:0000000000000000000000000000000000000000320000000000520000000022
#091321:13
#091351:00230000
#0913b1:00000013
#092381:23
#0933b1:0013
#093381:00000023
#094321:00130000
#094351:0023
#0953b1:00000000130000000000003323000000
#0953a1:00000000003300000000330000000000
#095391:00000000000033000033000000000000
#095381:00000000000000333300000000000000
#095350:00000013
#096350:0023000000000000
#096380:0000000013000023
#097350:0000130000230000
#0983a0:00143434
#098390:0000003400340034
#0993a0:34343434
#099390:0034003400340034
#1003a0:34343434
#100390:0034003400340034
#1013a0:34
#101390:0024000000000000
