This file was generated by Ched 2.7.0.0.
#TITLE ""
#ARTIST ""
#DESIGNER ""
#DIFFICULTY 0
#PLAYLEVEL
#SONGID ""
#WAVE ""
#WAVEOFFSET 0
#JACKET ""
#REQUEST "ticks_per_beat 480"
#00002: 4
#BPM01: 175
#00008: 01
#TIL00: ""
#VOLUME: ""
#HISPEED 00
#MEASUREHS 00
#0021c:0012000000000000
#00218:0000001200000000
#00216:0012000000000000
#00212:0000001200000013
#00217:0000000000130000
#0021b:0023
#0101b:0000001300000000
#01019:0013
#01012:14141414
#01017:0000000000130000
#00912:14141414
#0091b:0013000000001300
#00917:0000001300000000
#00812:24141414
#00817:0000001300000013
#00819:0013
#0081b:0000000000130000
#0081a:24
#00810:41
#01117:0000000000130000
#01112:14141414
#0111b:00000000000000000000000000130000
#0121b:0000001300000000
#01212:14141414
#01219:0013
#01217:0000000000130000
#01312:14141414
#0231b:00130000
#02316:0013
#02315:00000013
#02319:13
#02317:0013000000000000
#02312:14260000
#03016:0014141400140014
#0301b:1300130000230000
#03012:0013002300000023
#03115:00130000
#03118:0000001300000000
#03116:0028000000000013
#03112:0013000000000000
#0311b:0000000013130000
#03110:0041000000000000
#0321b:0013000013000000
#03212:0000001313000000
#03318:00130000
#03315:0000001300000000
#03312:0013000013130000
#0331b:0013000000000000
#03317:0000000000000013
#0341b:0000130013130000
#03412:0000000000000013
#03417:0013001300000000
#03512:0013000000000000
#03516:13
#0351b:00131300
#03517:0000001300000000
#03812:0013000013130000
#0381b:0013000013130000
#03815:0000000000000013
#03818:0000000000000013
#0391b:0013000013000000
#03916:0000000000130000
#03912:00001416000000001300000000000000
#03918:23000000000000000000000000160000000000000000000000000000000000000000000000000000000000000000000000000000000000000000000000000000
#03915:000000000000000000000000000000000000000000000000000000000000000000000000000000000000000000000000000000000000000000000000000000000000000000000000000000000000000000000000000000000000000000000000000000000000000000000000000000000000000000000000001300000000000000000000000000000000000000000000000000000000000000000000000000000000000000000000000000000000000000000000000000000000000000000000000000000000000000000000000000000000000000000000000000000000000000000000000000000000000000000000000000000000000000000000000000000000000000000000000000000000000000000000000000000000000000000000000000000000000000000000000000000000000000000000000000000000000000000000000000000000000000000000000000000000000000000000000000000000000000000000000000000000000000000000000000000000000000000000000000000000000000000000000000000000000000000000000000000000000000000000000000000000000000000000000000000000000000000000000000000000000000000000000000000000000000000000000000000000000000000000000000000000000000000000000000000000000000000000000000000000000000000000000000000000000000000000000000000000000000000000000000000000000000000000000000000000000000000000000000000000000000000000000000000000000000000000000000000000000000000000000000000000000000000000000000000000000000000000000000000000000000000000000000000000000000000000000000000000000000000000000000000000000000000000000000000000000000000000000000000000000000000000000000000000000000000000000000000000000000000000000000000000000000000000000000000000000000000000000000000000000000000000000000000000000000000000000000000000000000000000000000000000000000000000000000000000000000000000000000000000000000000000000000000000000000000000000000000000000000000000000000000000000000000000000000000000000000000000000000000000000000000000000000000000000000000000000000000000000000000000000000000000000000000000000000000000000000000000000000000000000000000000000000000000000000000000000000000000000000000000000000000000000000000000000000000000000000000000000000000000000000000000000000000000000000000000000000000000000000000000000000000000000000000000000000000000000000000000000000000000000000000000000000000000000000000000000000000000000000000000000000000000000000000000000000000000000000000000000000000000000000000000000000000000000000000000000000000000000000000000000000000000000000000000000000000000000000000000000000000000000000000000000000000000000000000000000000000000000000000000000000000000000000000000000000000000000000000000000000000000000000000000000000000000000000000000000000000000000000000000000000000000000000000000000000000000000000000000000000000000000000000000000000000000000000000000000000000000000000000000000000000000000000000000000000000000000000000000000000000000000000000000000000000000000000000000000000000000000000000000000000000000000000000000000000000000000000000000000000000000000000000000000000000000000000000000000000000000000000000000000000000000000000000000000000000000000000000000000000000000000000000000000000000000000000000000000000000000000000000000000000000000000000000000000000000000000000000000000000000000000000000000000000000000000000000000000000000000000000000000000000000000000000000000000000000000000000000000000000000000000000000000000000000000000000000000000000000000000000000000000000000000000000000000000000000000000000000000000000000000000000000000000000000000000000000000000000000000000000000000000000000000000000000000000000000000000000000000000000000000000000000000000000000000000000000000000000000000000000000000000000000000000000000000000000000000000000000000000000000000000000000000000000000000000000000000000000000000000000000000000000000000000000000000000000000000000000000000000000000000000000000000000000000000000000000000000000000000000000000000000000000000000000000000000000000000000000000000000000000000000000000000000000000000000000000000000000000000000000000000
#03914:22
#0401b:0013000000000000
#04016:0000000000130000
#04117:0013000000000000
#04112:0000000000130000
#0421b:0013000013000000
#04217:0013130000000000
#04315:00000000000000000000001300000000
#04318:0000000000130000
#0431b:00001313
#04312:00001414
#03712:1c002600000000150000000000000000
#03719:00000000000000150000000000000000
#03718:0026000000000000
#09818:0012000000000000
#09814:00121212
#09812:0000001200120012
#09718:0000000000000012
#09712:0000000000000012
#0461b:00130013
#04617:0013
#04616:00000013
#04610:00410000
#04817:13130000
#0481b:00130000
#05518:0000130000130000
#0551b:0013001300001300
#05512:1300001300001600
#05515:00130000
#05514:0000000000000016
#05616:16
#05618:0016000000000013
#05612:0000000000130000
#05615:0000000000000013
#0561b:0000000000130000
#06016:0014141400140014
#0601b:1300130000230000
#06012:0013002300000023
#08015:0013000000130000
#08012:13
#08018:00131300
#0801b:0000001300000000
#08017:0000000000000023
#05215:0013
#05216:13
#0521b:00130000
#05218:0013
#05212:00130024
#0521a:00000024
#0511b:00000013
#05112:00130000
#05117:0013
#07915:0000000000000013
#07912:0000131c00130000
#0791b:0013000013000000
#07916:0013000000260000
#07917:00130000
#07914:0026
#08316:0000000000121400
#0831a:0000000000000012
#08312:0026001200000000
#08314:0000000000363636363636360000000012000000000000000000000012000000
#08318:2626000000000000
#08912:26160000
#08916:00000012
#08918:26160012
#08914:0018000000000000
#0471b:00000013
#04716:00130000
#04712:1313
#04717:13
#05916:0000000000140000
#05912:13140000
#0591b:1300230013131313
#05917:0013000000000000
#05910:00410000
#08716:0023000013000000
#08712:23000000001300000000000013000000
#08719:25252525
#07612:0000231c00000000
#0761b:00231300
#07616:0013
#07617:0000000000230013
#07618:2323000000000000
#07615:00230023000000000000000000000000
#0761f:00210000
#0771b:00130000
#07712:0013001c13000000
#07717:0013000013000000
#07716:0000130000230013
#07710:00410000
#01416:0013001300130014
#01412:13001314
#01417:00131300
#0141b:0013001300000000
#0141a:0000000000001414
#0571b:0013
#05719:0000121200001212
#05712:00130000
#05716:0000000000130000
#0581b:13130000
#05812:001c000013000000
#05815:0000121200001212
#05817:0000000000130000
#01516:1400141400000013
#0151a:0014000024001400
#01512:0014140024000000
#01712:0000130000000013
#0171a:14141414
#01814:13
#0181a:14141414
#01816:0013000000000000
#0161a:14141414
#01614:13
#01616:0000001300130013
#01612:00131313
#01916:0013000000000000
#01912:00000000001300000000000000001300
#0191a:14141414
#01910:0041
#0201a:14141414
#02014:13
#02016:0013000000000000
#0211a:1400140000000014
#02116:00130000
#0211b:0013
#02117:0000000000130000
#02112:00001414
#02912:00140000
#02916:0000000000140000
#0291b:0000000013131313
#02918:00160000
#04418:00160000
#04415:0014
#0441a:00000013
#0441b:0013000000000000
#04412:14240000
#02418:00131313
#02412:13
#0241b:0013
#02415:00130000
#03612:00231c001c241c00
#0361b:0000002300000000
#0361a:0000000000000024
#03617:0023000000000000
#03616:0000002300240024
#0271b:1300130000000013
#02716:0000130000000013
#02712:0013000000130000
#02717:0013000000130000
#02812:0000001300000013
#02814:0013
#0281b:0013000000000000
#02817:0000001300000013
#02816:0000000000130000
#04512:00140000
#04517:00270014
#05316:1300000013130000
#05312:0000131300000000
#0531b:0013000000000000
#0721a:1212000000000000
#07216:0000000000001212
#07214:0000000012120000
#07212:2300121200000000
#07215:00230000
#07219:00000023
#07217:0023
#0711c:0000121200001212
#0711a:0000000012120000
#07114:1212000000002300
#07118:00230000
#07116:0023
#0711b:23
#07012:00001416000012000000000012001200
#07012:0000001200000000
#07014:2200000012120000
#0701b:0013000000000000
#07018:23000000000000000000000000160000000000000000000000000000000000000000000000000000000000000000000000000000000000000000000000000000
#07015:000000000000000000000000000000000000000000000000000000000000000000000000000000000000000000000000000000000000000000000000000000000000000000000000000000000000000000000000000000000000000000000000000000000000000000000000000000000000000000000000001300000000000000000000000000000000000000000000000000000000000000000000000000000000000000000000000000000000000000000000000000000000000000000000000000000000000000000000000000000000000000000000000000000000000000000000000000000000000000000000000000000000000000000000000000000000000000000000000000000000000000000000000000000000000000000000000000000000000000000000000000000000000000000000000000000000000000000000000000000000000000000000000000000000000000000000000000000000000000000000000000000000000000000000000000000000000000000000000000000000000000000000000000000000000000000000000000000000000000000000000000000000000000000000000000000000000000000000000000000000000000000000000000000000000000000000000000000000000000000000000000000000000000000000000000000000000000000000000000000000000000000000000000000000000000000000000000000000000000000000000000000000000000000000000000000000000000000000000000000000000000000000000000000000000000000000000000000000000000000000000000000000000000000000000000000000000000000000000000000000000000000000000000000000000000000000000000000000000000000000000000000000000000000000000000000000000000000000000000000000000000000000000000000000000000000000000000000000000000000000000000000000000000000000000000000000000000000000000000000000000000000000000000000000000000000000000000000000000000000000000000000000000000000000000000000000000000000000000000000000000000000000000000000000000000000000000000000000000000000000000000000000000000000000000000000000000000000000000000000000000000000000000000000000000000000000000000000000000000000000000000000000000000000000000000000000000000000000000000000000000000000000000000000000000000000000000000000000000000000000000000000000000000000000000000000000000000000000000000000000000000000000000000000000000000000000000000000000000000000000000000000000000000000000000000000000000000000000000000000000000000000000000000000000000000000000000000000000000000000000000000000000000000000000000000000000000000000000000000000000000000000000000000000000000000000000000000000000000000000000000000000000000000000000000000000000000000000000000000000000000000000000000000000000000000000000000000000000000000000000000000000000000000000000000000000000000000000000000000000000000000000000000000000000000000000000000000000000000000000000000000000000000000000000000000000000000000000000000000000000000000000000000000000000000000000000000000000000000000000000000000000000000000000000000000000000000000000000000000000000000000000000000000000000000000000000000000000000000000000000000000000000000000000000000000000000000000000000000000000000000000000000000000000000000000000000000000000000000000000000000000000000000000000000000000000000000000000000000000000000000000000000000000000000000000000000000000000000000000000000000000000000000000000000000000000000000000000000000000000000000000000000000000000000000000000000000000000000000000000000000000000000000000000000000000000000000000000000000000000000000000000000000000000000000000000000000000000000000000000000000000000000000000000000000000000000000000000000000000000000000000000000000000000000000000000000000000000000000000000000000000000000000000000000000000000000000000000000000000000000000000000000000000000000000000000000000000000000000000000000000000000000000000000000000000000000000000000000000000000000000000000000000000000000000000000000000000000000000000000000000000000000000000000000000000000000000000000000000000000000000000000000000000000000000000000000000000000000000000000000000000000000000000000000000000000000000000000000000000000000000000000000000000000000000000000000000000000000000000000000
#07019:00000023
#07017:0023
#07516:0000001800001414
#07512:00000000140000140018000023000000
#07518:1212000000000000
#0751a:0000140000140000
#0751b:2300000000000023
#09512:13120000
#09518:0000001200000000
#09513:0012
#09519:0000000000120000
#09516:00001300000000000012000000000000
#0951b:00000000000000120000000000000000
#09515:00000000001200000000000000000000
#0951c:00000000000000000000001200000000
#0031b:0013001300000000
#00317:0000130000000013
#00316:0000000000130000
#04912:00130000
#04917:0013
#0491b:00130000
#0501b:00130000
#05016:0013
#0541b:1300131300000000
#05417:0000000013130000
#05412:0013000000000000
#09212:0000131400001300
#09219:0013
#0921b:0000000000130000
#09214:0014
#09216:0013000000140013
#09217:1300001300000000
#09116:0013
#0911b:0013130000001300
#09112:0000001300130000
#09117:1300000000000013
#09012:00000013
#09016:0000000000130013
#09017:0000001313000000
#0901b:00130000
#02512:00130000
#02517:0013
#02515:13
#02518:00000013
#02615:00131313
#0261b:13
#02612:0013
#02618:00130000
#07314:1212000000002300
#07318:0000230000001212
#0731a:0000000012120000
#0731c:0000121200000000
#0731b:23
#07316:0023
#0741a:1212000000000000
#07416:0000000000001212
#07414:0000000012120000
#07412:2300121200000000
#07415:00230000
#07419:00000023
#07417:0023
#08212:00000000001600002600260000000000
#08218:00002600000000000000260000160000
#0821a:14
#08215:0000000000363636363600363636363600000000003636363636003636363636
#08112:0023132400001424
#0811a:0000000014240000
#0811b:1300002300000000
#0841c:12
#08412:12252525
#0841b:0000001300001300
#08417:0000230000230000
#08816:1300000000140000
#08817:0000001200000000
#08815:0000000000000016
#08819:25000025
#08812:00002425
#0881b:00230000
#0881a:0024
#00416:13
#00412:0013000000000000
#00417:0000001300130013
#0041b:0013
#07812:0000131c00240000
#0781b:0013000013000000
#07816:0013000013000000
#07817:00130000
#0781a:0000000000240014
#08612:2500001300001300
#08619:00252525
#08616:0000230000230000
#09914:12121200
#09912:0012001200120000
#0991c:00000012
#0991a:0000000000000012
#06916:0000001200000012
#06914:0000000000120000
#0691a:0000000000120000
#06918:00121200
#0691c:0012000000000000
#06912:0024000000000000
#1001c:12121212
#1001a:0012001200120012
#1011c:12
#1011a:0012000000000000
#02217:0013000000130000
#02219:00000013
#0221b:0000000000000013
#02212:1313000000001400
#02216:0000001300000000
#06818:00000000000000000000001600000000
#06812:17160000
#06717:0017
#06712:00160026
#06718:00000026
#06612:00260016
#06618:00260000
#06516:00000018
#06512:00160000
#06412:00260018
#06418:00260000
#06312:00160000
#00512:1300130000130013
#00516:0013000000001300
#09317:00130000
#0931b:0000001300000000
#09312:1300000000130000
#09316:00001313
#09417:0013000000001300
#0941b:1300000000000013
#09412:00131300
#09416:0000001300000000
#00616:1300001300000000
#00617:00001313
#0061b:0000000000130000
#00718:0013131313130000
#00712:13
#0621f:00110000
#06218:00260000
#06212:00260000
#08512:25252525
#08517:0023002300230000
#0851b:23002323
#0095b:0063000000006300
#00957:0000006300000000
#01157:0000000000530000
#0115b:00000000000000000000000000230000
#0235b:00530043
#02356:0023
#02355:00000053
#02352:00160000
#03156:0018000000000013
#03152:0000000000000013
#0345b:0000000000130000
#03452:0000000000130000
#0395b:0053000013000000
#03952:00005426000000000000000000000000
#03958:53000000000000000000000000260000000000000000000000000000000000000000000000000000000000000000000000000000000000000000000000000000
#03955:000000000000000000000000000000000000000000000000000000000000000000000000000000000000000000000000000000000000000000000000000000000000000000000000000000000000000000000000000000000000000000000000000000000000000000000000000000000000000000000000002300000000000000000000000000000000000000000000000000000000000000000000000000000000000000000000000000000000000000000000000000000000000000000000000000000000000000000000000000000000000000000000000000000000000000000000000000000000000000000000000000000000000000000000000000000000000000000000000000000000000000000000000000000000000000000000000000000000000000000000000000000000000000000000000000000000000000000000000000000000000000000000000000000000000000000000000000000000000000000000000000000000000000000000000000000000000000000000000000000000000000000000000000000000000000000000000000000000000000000000000000000000000000000000000000000000000000000000000000000000000000000000000000000000000000000000000000000000000000000000000000000000000000000000000000000000000000000000000000000000000000000000000000000000000000000000000000000000000000000000000000000000000000000000000000000000000000000000000000000000000000000000000000000000000000000000000000000000000000000000000000000000000000000000000000000000000000000000000000000000000000000000000000000000000000000000000000000000000000000000000000000000000000000000000000000000000000000000000000000000000000000000000000000000000000000000000000000000000000000000000000000000000000000000000000000000000000000000000000000000000000000000000000000000000000000000000000000000000000000000000000000000000000000000000000000000000000000000000000000000000000000000000000000000000000000000000000000000000000000000000000000000000000000000000000000000000000000000000000000000000000000000000000000000000000000000000000000000000000000000000000000000000000000000000000000000000000000000000000000000000000000000000000000000000000000000000000000000000000000000000000000000000000000000000000000000000000000000000000000000000000000000000000000000000000000000000000000000000000000000000000000000000000000000000000000000000000000000000000000000000000000000000000000000000000000000000000000000000000000000000000000000000000000000000000000000000000000000000000000000000000000000000000000000000000000000000000000000000000000000000000000000000000000000000000000000000000000000000000000000000000000000000000000000000000000000000000000000000000000000000000000000000000000000000000000000000000000000000000000000000000000000000000000000000000000000000000000000000000000000000000000000000000000000000000000000000000000000000000000000000000000000000000000000000000000000000000000000000000000000000000000000000000000000000000000000000000000000000000000000000000000000000000000000000000000000000000000000000000000000000000000000000000000000000000000000000000000000000000000000000000000000000000000000000000000000000000000000000000000000000000000000000000000000000000000000000000000000000000000000000000000000000000000000000000000000000000000000000000000000000000000000000000000000000000000000000000000000000000000000000000000000000000000000000000000000000000000000000000000000000000000000000000000000000000000000000000000000000000000000000000000000000000000000000000000000000000000000000000000000000000000000000000000000000000000000000000000000000000000000000000000000000000000000000000000000000000000000000000000000000000000000000000000000000000000000000000000000000000000000000000000000000000000000000000000000000000000000000000000000000000000000000000000000000000000000000000000000000000000000000000000000000000000000000000000000000000000000000000000000000000000000000000000000000000000000000000000000000000000000000000000000000000000000000000000000000000000000000000000000000000000000000000000000000000000000000000000000000000000000000000000000000000000000000000000000000000000000000000000000
#03954:52120000
#0395a:00120000
#03752:00006600000000250000000034000000
#03759:00000000000000250000000000000000
#03758:0056000000000000
#0375a:00000044
#0465b:00530053
#04657:0023
#04656:00000053
#04857:23530000
#0485b:00530000
#04856:00000013
#04852:00000013
#05558:00530000
#05555:00630000
#05552:0000002300000000
#0555b:0000002300000000
#05255:0023
#05256:23
#0525b:00630000
#05258:0023
#05252:00530034
#0525a:00000044
#0515b:00000063
#05152:00530000
#05157:0023
#08952:00560000
#08956:00000022
#08958:16660022
#08955:0000000000000000000000000000000000000000000000000000000000000032
#08959:0000000000000000000000000000000000000000000000000000000000000042
#0475b:00000063
#04756:00530000
#04752:2323
#04757:23
#05956:0000000000240000
#05952:33640000
#0595b:53430000
#05957:0023000000000000
#08756:0063000053000000
#08752:00000000002300000000000063000000
#08759:45454545
#01456:0023003300000024
#01452:53000054
#01457:4323
#0145b:0000006300000000
#0145a:00000044
#0575b:0043
#05752:00530000
#05756:0000000000530000
#0585b:43630000
#05852:0033
#05857:0000000000630000
#00857:0000000000000063
#0085b:0000000000630000
#0085a:14
#01556:00240000
#0155a:0064000000000000
#01552:0034000014000000
#01752:00530000
#01756:0013
#01956:0063000043000000
#01952:00000000002300000000000000000000
#01656:0000005300530053
#01652:00232323
#02952:00640000
#02956:0000000000240000
#02958:00160000
#0385b:0053000000130000
#03852:0063000000130000
#04458:00560000
#04455:0054
#0445a:00000053
#02458:00632353
#02452:23000033
#0245b:0023
#02455:00630000
#02756:0000630000000053
#0275b:00630000
#02752:0000000000530000
#04552:00540000
#04557:00170024
#05356:0000000000530000
#04952:00530000
#04957:0023
#0505b:00630000
#05056:0023
#05457:0000000000630000
#02552:00630033
#02557:0023
#02555:23
#02558:00000063
#02655:00532363
#0265b:23000043
#02652:0023
#02658:00530000
#0285b:0063000000000000
#02857:0000005300000053
#02856:0000000000530000
#02852:0000000000000053
#0755a:0000440000440000
#07552:00000000000000340000000000000000
#08252:00003400002600000000560000000000
#08258:00006600000000000000000000260000
#0845c:12
#08452:12353535
#0845b:0000002300002300
#08457:0000530000530000
#08856:63
#08859:45000015
#08852:00131400
#03357:0000000000000013
#0335b:0000000000000013
#05652:0000000000230000
#05655:0000000000000053
#0565b:0000000000230000
#05658:0000000000000063
#08652:3500002300002300
#08659:00454545
#08656:0000630000630000
#0435b:00000053
#0435a:00140000
#07657:0000000000000043
#0765b:00430000
#07652:0000330000000033
#07756:0000000000000033
#0775b:0000000000000043
#0215b:0063
#02157:0000000000230000
#02152:0034
#02257:0053000000000000
#02252:0053000000000000
#02256:0000005300000000
#0695c:0052000000000000
#06958:00220000
#06952:0034000000000000
#06954:0000000000120000
#0695a:0000000000120000
#06858:00000000460000000000002600000000
#06852:27560000
#06757:0027
#06752:00560036
#06758:00460056
#06652:00360026
#06658:00560000
#06556:00000028
#06552:00560000
#06558:00460000
#06452:00360028
#06458:00560000
#06352:00560000
#06358:00460000
#0705b:0053000000000000
#07052:00005426000000000000000000000000
#07058:53000000000000000000000000260000000000000000000000000000000000000000000000000000000000000000000000000000000000000000000000000000
#07055:000000000000000000000000000000000000000000000000000000000000000000000000000000000000000000000000000000000000000000000000000000000000000000000000000000000000000000000000000000000000000000000000000000000000000000000000000000000000000000000000002300000000000000000000000000000000000000000000000000000000000000000000000000000000000000000000000000000000000000000000000000000000000000000000000000000000000000000000000000000000000000000000000000000000000000000000000000000000000000000000000000000000000000000000000000000000000000000000000000000000000000000000000000000000000000000000000000000000000000000000000000000000000000000000000000000000000000000000000000000000000000000000000000000000000000000000000000000000000000000000000000000000000000000000000000000000000000000000000000000000000000000000000000000000000000000000000000000000000000000000000000000000000000000000000000000000000000000000000000000000000000000000000000000000000000000000000000000000000000000000000000000000000000000000000000000000000000000000000000000000000000000000000000000000000000000000000000000000000000000000000000000000000000000000000000000000000000000000000000000000000000000000000000000000000000000000000000000000000000000000000000000000000000000000000000000000000000000000000000000000000000000000000000000000000000000000000000000000000000000000000000000000000000000000000000000000000000000000000000000000000000000000000000000000000000000000000000000000000000000000000000000000000000000000000000000000000000000000000000000000000000000000000000000000000000000000000000000000000000000000000000000000000000000000000000000000000000000000000000000000000000000000000000000000000000000000000000000000000000000000000000000000000000000000000000000000000000000000000000000000000000000000000000000000000000000000000000000000000000000000000000000000000000000000000000000000000000000000000000000000000000000000000000000000000000000000000000000000000000000000000000000000000000000000000000000000000000000000000000000000000000000000000000000000000000000000000000000000000000000000000000000000000000000000000000000000000000000000000000000000000000000000000000000000000000000000000000000000000000000000000000000000000000000000000000000000000000000000000000000000000000000000000000000000000000000000000000000000000000000000000000000000000000000000000000000000000000000000000000000000000000000000000000000000000000000000000000000000000000000000000000000000000000000000000000000000000000000000000000000000000000000000000000000000000000000000000000000000000000000000000000000000000000000000000000000000000000000000000000000000000000000000000000000000000000000000000000000000000000000000000000000000000000000000000000000000000000000000000000000000000000000000000000000000000000000000000000000000000000000000000000000000000000000000000000000000000000000000000000000000000000000000000000000000000000000000000000000000000000000000000000000000000000000000000000000000000000000000000000000000000000000000000000000000000000000000000000000000000000000000000000000000000000000000000000000000000000000000000000000000000000000000000000000000000000000000000000000000000000000000000000000000000000000000000000000000000000000000000000000000000000000000000000000000000000000000000000000000000000000000000000000000000000000000000000000000000000000000000000000000000000000000000000000000000000000000000000000000000000000000000000000000000000000000000000000000000000000000000000000000000000000000000000000000000000000000000000000000000000000000000000000000000000000000000000000000000000000000000000000000000000000000000000000000000000000000000000000000000000000000000000000000000000000000000000000000000000000000000000000000000000000000000000000000000000000000000000000000000000000000000000000000000000000000000000000000000000000000000000000000000000000000000000000000000000000000000000000000000000000000
#07054:52120000
#0705a:00120000
#09252:00000013
#0905b:00130000
#00758:0000000000130000
#00755:0000000000130000
#0025b:0013
#08552:35353535
#08557:0053000000000000
#07954:0036
#07956:0000000000460000
#03657:0043000000000000
#03656:0000003300440034
#08358:0066000000000000
#08152:0033000000340000
#0815b:0000004300000000
#0815a:0000000000000044
#08057:0000000000000043
#06258:00560000
#06252:00360000
#0405b:13
#04056:0013
#0415b:13
#04152:0013
#04257:13
#01257:33
#01057:13
#03255:0000000000000013
#03258:0000000000000013
#07852:0000000000000034
#0785a:0000000000000044
#03557:0000000000000013
#0355b:0000000000000013
#00552:13
#0003c0:1200002200000000
#000380:00000012
#001380:0022000000000000
#0013c0:0000000012000022
#002360:00001323
#002320:0000000000330000
#0023b1:00000013
#002371:0000000000000033
#0033b1:23
#003360:1323000000000000
#003320:00132300
#003360:0000003300000000
#003371:00001323
#0033b1:0000000000330000
#003320:0000000000001323
#0043b0:13230000
#004370:0033000000000000
#004361:00132300
#004321:0000003300000000
#004321:0000000000130000
#004351:00000000000000000000005323000000
#004380:00000013
#0043b0:00000000000000000000000000532300
#005370:13330000
#0053b0:0033002300000000
#005361:0000001300000000
#005321:0023
#005370:0000000013230000
#0053b0:00000013
#005370:0000000000000033
#0063b0:33
#006370:0023000000000000
#006321:0013000000000000
#006361:00230000
#0063b0:0000132300000000
#006320:00001333
#006360:0000000000330023
#0063b1:0000000000000013
#007371:23
#007351:0013003300230000
#007321:00333300
#0083b1:0000000000130000
#008371:0000000000000033
#0093b1:0033000000230000
#009371:0000003300000000
#0093b1:00000013
#010371:23
#010371:0000000000000013
#011371:23
#011391:0013230000000000
#0113b1:0000001323000000
#011371:0000000000130000
#0113b1:00000000000000000000000000530000
#012371:23
#012371:0000000000000013
#0133b1:5333000053230000
#013371:0000533300000000
#013371:00000013
#014371:23
#014320:13230000
#014360:0033000000000000
#0143b0:0000001300230000
#014370:0033
#014320:00000014
#014360:0000000000000034
#015320:24
#0153a0:0014002400000000
#015360:00340000
#016320:0013530053005300
#016360:0000003300330033
#017320:5323000000000000
#017320:00130000
#017360:0023
#018360:0000001323000000
#018340:0000000000132300
#018320:0000000000000013
#019320:23
#019360:0013000023000000
#019320:00000000005300000000000000000000
#020360:0000001300005333
#020320:0000000053330000
#021320:5323000000000000
#0213b0:00001323
#021370:0000000000530000
#022370:1333000000000000
#0223b0:0000002300000000
#022321:0013000000230000
#022361:0000003300000000
#0233b1:00130023
#023361:0053
#023350:00000013
#024320:53000023
#024350:00330000
#024380:0053
#024381:00130033
#0243b1:0053
#025351:53
#0253b1:00230000
#025320:00130023
#025370:0053
#025381:00000013
#0263b1:53000023
#026381:00330000
#026351:0053
#026350:00130033
#026320:0053
#027380:23
#0273b0:00130000
#027370:0023
#027361:00130000
#027321:0023
#027321:0000000000130000
#027361:0000000000000033
#028321:0023000000000000
#0283b0:0013000000230000
#028370:0000003300000000
#028361:0000000000130000
#028321:0000000000000033
#029361:0023000000000000
#028370:0000000000000013
#0293b0:0023000000000000
#029320:00140000
#029360:0000000000540000
#030320:24
#031360:0000000013330000
#031320:00000000000000000000005300002300
#032350:0013230000000000
#032381:0000132300000000
#032321:0000000000130000
#032351:000000000000000000000000000000005300000000230000
#0323b0:0000000000130000
#032380:000000000000000000000000000000005300000000230000
#033370:0000000013330000
#0333b0:00000000000000000000005300002300
#034320:0013003300230000
#034360:00333300
#034370:0000000000000013
#0353b0:33
#035370:0023000000000000
#035360:00132300
#035320:0000003300000000
#035320:0000000000130000
#035370:00000000000000000000005333002300
#035361:0000000000130000
#0353b1:00000000000000000000005333002300
#037381:0016000000000000
#037321:00000000000000550000000000000000
#0373a1:00000024
#037320:0016000000002400
#037390:00000000000000550000000000000000
#038320:0013000000000000
#0383b0:0000002300000000
#0383b1:0013000000000000
#038321:0000002300000000
#039381:1300000000000000000000000000000000000000005600000000560000000000000000000000000000000000000000000000000000000000000000000000000000000000000000000000000000000000000000000000000000000000000000000000000000000000000000000000000000000000000000000000000000000000
#0393b1:0053000000000000
#0393a1:00220000
#039340:12220000
#039320:00565456000000000000000000000000
#039350:000000000000000000000000000000000000000000000000000000000000000000000000000000000000000000000000000000000000000000000000000000000000000000000000000000000000000000000000000000000000000000000000000000000000000000000000000000000000000000000000005300000000000000000000000000000000000000000000000000000000000000000000000000000000000000000000000000000000000000000000000000000000000000000000000000000000000000000000000000000000000000000000000000000000000000000000000000000000000000000000000000000000000000000000000000000000000000000000000000000000000000000000000000000000000000000000000000000000000000000000000000000000000000000000000000000000000000000000000000000000000000000000000000000000000000000000000000000000000000005300000000000000000000000000000000000000000000000000000000000000000000000000000000000000000000000000000000000000000000000000000000000000000000000000000000000000000000000000000000000000000000000000000000000000000000000000000000000000000000000000000000000000000000000000000000000000000000000000000000000000000000000000000000000000000000000000000000000000000000000000000000000000000000000000000000000000000000000000000000000000000000000000000000000000000000000000000000000000000000000000000000000000000000000000000000000000000000000000000000000000000000000000000000000000000000000000000000000000000000000000000000000000000000000000000000000000000000000000000000000000000000000000000000000000000000000000000000000000000000000000000000000000000000000000000000000000000000000000000000000000000000000000000000000000000000000000000000000000000000000000000000000000000000000000000000000000000000000000000000000000000000000000000000000000000000000000000000000000000000000000000000000000000000000000000000000000000000000000000000000000000000000000000000000000000000000000000000000000000000000000000000000000000000000000000000000000000000000000000000000000000000000000000000000000000000000000000000000000000000000000000000000000000000000000000000000000000000000000000000000000000000000000000000000000000000000000000000000000000000000000000000000000000000000000000000000000000000000000000000000000000000000000000000000000000000000000000000000000000000000000000000000000000000000000000000000000000000000000000000000000000000000000000000000000000000000000000000000000000000000000000000000000000000000000000000000000000000000000000000000000000000000000000000000000000000000000000000000000000000000000000000000000000000000000000000000000000000000000000000000000000000000000000000000000000000000000000000000000000000000000000000000000000000000000000000000000000000000000000000000000000000000000000000000000000000000000000000000000000000000000000000000000000000000000000000000000000000000000000000000000000000000000000000000000000000000000000000000000000000000000000000000000000000000000000000000000000000000000000000000000000000000000000000000000000000000000000000000000000000000000000000000000000000000000000000000000000000000000000000000000000000000000000000000000000000000000000000000000000000000000000000000000000000000000000000000000000000000000000000000000000000000000000000000000000000000000000000000000000000000000000000000000000000000000000000000000000000000000000000000000000000000000000000000000000000000000000000000000000000000000000000000000000000000000000000000000000000000000000000000000000000000000000000000000000000000000000000000000000000000000000000000000000000000000000000000000000000000000000000000000000000000000000000000000000000000000000000000000000000000000000000000000000000000000000000000000000000000000000000000000000000000000000000000000000000000000000000000000000000000000000000000000000000000000000000000000000000000000000000000000000000000000000000000000000000000000000000000000000000000000000000000000000000000000000000000000000000000000000000000000000000000000000000000000000000000000000000000000000000000000
#039360:00000013
#0403b0:23
#039321:00000013
#040371:3333330000000000
#040321:0000000033333300
#041371:23
#0403b0:00130000
#040360:0023
#040360:00000013
#0413b0:23
#041370:00130000
#041320:0023
#0413b1:00130000
#041361:0000000033333300
#0423b1:23
#041320:00000013
#042370:23
#042320:00143424
#042360:00000000005400540054005400000000
#042381:00000012
#0433a1:00240000
#043360:13240000
#043330:00530053000000000000000000000000
#0433b0:00000013
#044360:23
#044380:00160000
#044350:0034
#0443a0:00000033
#045370:22
#045320:00140000
#045370:00000054
#046320:00240000
#0463b1:00130033
#046371:0053
#047371:53
#0473b1:00230000
#046360:00000013
#047320:5353
#047360:00330023
#0473b1:00000013
#048371:53
#0483b1:00330000
#048361:00000023
#048370:00130000
#048320:00000023
#049320:00130033
#049370:0053
#050370:00230000
#049361:00000013
#0503b1:00330033
#050361:0053
#051361:00230000
#050370:00000013
#051320:00330023
#051370:0053
#0513b1:00000013
#052361:53
#0523b1:00330000
#052351:0053
#0523a1:00000024
#052320:00130024
#052380:0053
#053360:0000132300000000
#0533b0:0000000013230000
#053361:0000000000130000
#054321:23
#054371:0000132300000000
#054321:0000000013230000
#054370:0000000000130000
#0553b0:23
#055350:00132300
#055320:0000005300000000
#055381:00132300
#0553b1:0000005300000000
#056321:00130000
#0563b1:0023
#0563b0:00130000
#056320:0023
#056320:0000000000130000
#056350:0000000000000033
#057320:0023000000000000
#0563b1:0000000000130000
#056381:0000000000000033
#0573b1:0023000000000000
#057321:00130000
#057361:0023
#057361:0000000000130000
#057321:0000000000000023
#0583b1:00130000
#058371:0023
#058371:0000000000130000
#0583b1:0000000000000023
#0593b1:13230000
#059371:0053000000000000
#059320:00140000
#059360:0000000000540000
#060320:24
#062380:00160000
#063320:00000000000000000000000000000000000000000000000000000000000000000000000000000000000000000000000000000000000000000000005c000000000000000000000000000000000000000000000000000000000000000000000000000000000000000000000000000000000000000000000000000000000000000000000000000000000000000000000000000000000000000000000000000000000000000000000000000000000000000000000000000000000000000000000000000000000000000000000000000000000000000000000000000000000000000000000000000000000000000000000000
#063380:00260000
#063321:00160000
#064321:00000000000000000000000000000000000000000000000000000000000000000000000000000000000000000000000000000000000000000000005c260000000000000000000000000000000000000000000000000000000000000000000000000000000000000000000000000000000000000000000000000000000000000000000000000000000000000000000000000000000000000000000000000000000000000000000000000000000000000000000000000000000000000000000000000000000000000000000000000000000000000000000000000000000000000000000000000000000000000000000000
#064380:00160000
#064320:00000058
#065320:00000000000000000000000000000000000000000000000000000000000000000000000000000000000000000000000000000000000000000000005c000000000000000000000000000000000000000000000000000000000000000000000000000000000000000000000000000000000000000000000000000000000000000000000000000000000000000000000000000000000000000000000000000000000000000000000000000000000000000000000000000000000000000000000000000000000000000000000000000000000000000000000000000000000000000000000000000000000000000000000000
#065380:00260000
#065321:00160000
#065361:00000058
#066321:00000000000000000000000000000000000000000000000000000000000000000000000000000000000000000000000000000000000000000000005c260000000000000000000000000000000000000000000000000000000000000000000000000000000000000000000000000000000000000000000000000000000000000000000000000000000000000000000000000000000000000000000000000000000000000000000000000000000000000000000000000000000000000000000000000000000000000000000000000000000000000000000000000000000000000000000000000000000000000000000000
#066380:00160000
#066320:00000056
#067320:00000000000000000000000000000000000000000000000000000000000000000000000000000000000000000000000000000000000000000000005c000000000000000000000000000000000000000000000000000000000000000000000000000000000000000000000000000000000000000000000000000000000000000000000000000000000000000000000000000000000000000000000000000000000000000000000000000000000000000000000000000000000000000000000000000000000000000000000000000000000000000000000000000000000000000000000000000000000000000000000000
#067380:00260000
#067321:00000000000000000000000000000000000000000000000000000000000000000000000000000000000000000000000000000000000000000000000016000000000000000000000000000000000000000000000000000000000000000000000000000000000000000000000000000000000000000000000000000000000000000000000000000000000000000000000000000000000000000000000000000000000000000000000000000000000000000000005c260000000000000000000000000000000000000000000000000000000000000000000000000000000000000000000000000000000000000000000000
#067371:0057
#067380:00000016
#068320:57000000000000000000000000000000000000000000000000000000000000000000000000000000000000000000000000000000000000000000005c000000000000000000000000000000000000000000000000000000000000000000000000000000000000000000000000000000000000000000000000000000000000000000000000000000000000000000000000000000000000000000000000000000000000000000000000000000000000000000000000000000000000000000000000000000000000000000000000000000000000000000000000000000000000000000000000000000000000000000000000
#068380:00260000
#068321:00160000
#068381:00000000000000000000005600000000
#069321:0024000000000000
#0693c0:0012002200000000
#069380:00520000
#070380:1300000000000000000000000000000000000000005600000000560000000000000000000000000000000000000000000000000000000000000000000000000000000000000000000000000000000000000000000000000000000000000000000000000000000000000000000000000000000000000000000000000000000000
#0703b0:0053000000000000
#0703a0:00220000
#070341:12220000
#070321:00565456000000000000000000000000
#070351:000000000000000000000000000000000000000000000000000000000000000000000000000000000000000000000000000000000000000000000000000000000000000000000000000000000000000000000000000000000000000000000000000000000000000000000000000000000000000000000000005300000000000000000000000000000000000000000000000000000000000000000000000000000000000000000000000000000000000000000000000000000000000000000000000000000000000000000000000000000000000000000000000000000000000000000000000000000000000000000000000000000000000000000000000000000000000000000000000000000000000000000000000000000000000000000000000000000000000000000000000000000000000000000000000000000000000000000000000000000000000000000000000000000000000000000000000000000000000000005300000000000000000000000000000000000000000000000000000000000000000000000000000000000000000000000000000000000000000000000000000000000000000000000000000000000000000000000000000000000000000000000000000000000000000000000000000000000000000000000000000000000000000000000000000000000000000000000000000000000000000000000000000000000000000000000000000000000000000000000000000000000000000000000000000000000000000000000000000000000000000000000000000000000000000000000000000000000000000000000000000000000000000000000000000000000000000000000000000000000000000000000000000000000000000000000000000000000000000000000000000000000000000000000000000000000000000000000000000000000000000000000000000000000000000000000000000000000000000000000000000000000000000000000000000000000000000000000000000000000000000000000000000000000000000000000000000000000000000000000000000000000000000000000000000000000000000000000000000000000000000000000000000000000000000000000000000000000000000000000000000000000000000000000000000000000000000000000000000000000000000000000000000000000000000000000000000000000000000000000000000000000000000000000000000000000000000000000000000000000000000000000000000000000000000000000000000000000000000000000000000000000000000000000000000000000000000000000000000000000000000000000000000000000000000000000000000000000000000000000000000000000000000000000000000000000000000000000000000000000000000000000000000000000000000000000000000000000000000000000000000000000000000000000000000000000000000000000000000000000000000000000000000000000000000000000000000000000000000000000000000000000000000000000000000000000000000000000000000000000000000000000000000000000000000000000000000000000000000000000000000000000000000000000000000000000000000000000000000000000000000000000000000000000000000000000000000000000000000000000000000000000000000000000000000000000000000000000000000000000000000000000000000000000000000000000000000000000000000000000000000000000000000000000000000000000000000000000000000000000000000000000000000000000000000000000000000000000000000000000000000000000000000000000000000000000000000000000000000000000000000000000000000000000000000000000000000000000000000000000000000000000000000000000000000000000000000000000000000000000000000000000000000000000000000000000000000000000000000000000000000000000000000000000000000000000000000000000000000000000000000000000000000000000000000000000000000000000000000000000000000000000000000000000000000000000000000000000000000000000000000000000000000000000000000000000000000000000000000000000000000000000000000000000000000000000000000000000000000000000000000000000000000000000000000000000000000000000000000000000000000000000000000000000000000000000000000000000000000000000000000000000000000000000000000000000000000000000000000000000000000000000000000000000000000000000000000000000000000000000000000000000000000000000000000000000000000000000000000000000000000000000000000000000000000000000000000000000000000000000000000000000000000000000000000000000000000000000000000000000000000000000000000000000000000000000000000000000000000000000000000000000000000000000000000000000000000000000000000000000000
#076321:0000000000130023
#076361:00000000000000000000005300530000
#0773b1:0000000000130023
#077371:00000000000000000000005300530000
#078321:0000000000140024
#078361:00000000000000000000005400540000
#0793b1:0000000000000013
#080371:33
#0803b1:0023000000000000
#080321:00132300
#080361:0000003300000000
#0803b1:0000000000130000
#080371:00000000000000000000005300002300
#080320:0000000000000013
#080360:00000000000000000000000000000053
#081360:33530000000000000000000000000000
#081320:0023000000000000
#0813b1:0013002300000000
#081371:00000053335300000000000000000000
#081320:0000001400240000
#081360:00000000000000543454000000000000
#0813a1:0000000000140024
#081361:00000000000000000000005434540000
#081320:0000000000000014
#081360:00000000000000000000000000000054
#082360:34540000000000000000000000000000
#082320:0024000000000000
#082381:0016000026000000
#082351:0000000000363636363600363636363600000000000000000000000000000000
#082321:00000000003600000000000000000000
#082321:0000000000160000
#082351:0000000000000000000000000000000000000000003636363636003636363636
#082381:00000000000000000000000000360000
#083321:26
#083381:0016000000000000
#083341:0000000000363636363636362600000000000000000000000000000000000000
#084371:00132300
#0843b1:0000003300000000
#084371:0000000000130023
#0843b1:00000033
#085371:0013000000000000
#0853b1:00230000
#0853b1:00000013
#085371:0000000000000033
#0863b1:23
#086361:00132300
#086321:0000003300000000
#086361:0000000000130023
#086321:00000033
#087361:0000000013000000000000000000000033000000000000000000005300000000
#087321:0000000000000000000053000000000000000053000000003300000000000000
#088361:33
#088321:0000005300000000230000000000000000000000000000000000000000000000
#089321:00160000
#089361:00000000005200000000000052000000
#089351:0000000000000000000000000000000000000000000000000000000000000022
#089380:00000000165200000000000052000000
#089390:0000000000000000000000000000000000000000000000000000000000000022
#090360:00130000
#090320:0000003323000000
#0903b0:0000000000130023
#090370:00000033
#091320:13
#091360:0033230000000000
#091370:0000001300230000
#0913b0:0033
#091360:00000013
#091320:0000000000000033
#092320:23
#0923b0:0013000000000000
#092370:00230000
#092370:00000013
#0923b0:0000000000000023
#093370:13
#0933b0:0023000000000000
#093361:0013002300000000
#093321:00330000
#0933b1:0013
#093371:0000000000230000
#0933b1:00000013
#093371:0000000000000023
#093320:0000000000000013
#094360:33
#094320:0023000000000000
#094370:00130000
#0943b0:0000002300000000
#094370:0013
#0943b0:0000000000230000
#094361:0000000000130023
#094321:00000033
#095371:13230000
#0953b1:0033000000000000
#095321:00000012
#096321:0022000000000000
#096361:0000000012000022
#097321:0000120000220000
#0983a1:0000120000220000
#099381:1200002200000000
#099361:00000012
#100361:0022000000000000
#100341:0000000012000022
