This file was generated by Ched 2.7.0.0.
#TITLE ""
#ARTIST ""
#DESIGNER ""
#DIFFICULTY 0
#PLAYLEVEL
#SONGID ""
#WAVE ""
#WAVEOFFSET 0
#JACKET ""
#REQUEST "ticks_per_beat 480"
#00002: 4
#BPM01: 175
#00008: 01
#TIL00: ""
#VOLUME: ""
#HISPEED 00
#MEASUREHS 00
#00312:14
#00318:0014
#00412:14
#00418:0014
#00514:14
#0051a:0014
#00614:14
#0061a:0014
#00814:0014
#0081a:24000014
#00810:41
#00912:14
#00918:00140000
#00914:0014
#0091a:00000014
#01012:14000014
#01018:0014
#0111a:14
#01114:00140000
#01118:0014
#01112:00000014
#0121a:14
#01214:0014
#01218:00000014
#01312:14
#0131a:00140000
#01314:0014
#01318:00000014
#0161a:14
#01614:00140000
#01618:0014
#01612:00000014
#01718:14
#01714:00140000
#0171a:0014
#01812:14
#01818:00140000
#01814:0014
#0181a:00000014
#01914:14
#01918:00140000
#01912:0014
#01910:0041
#02018:14
#02014:00140000
#0201a:0014
#02012:00000014
#02118:14
#02114:00140000
#02412:00000014
#02414:00140000
#02312:00000014
#02319:00250000
#0261a:00000014
#02618:00140000
#0251a:00000014
#02714:00000014
#02818:00140000
#02814:00000014
#03019:00140000
#03013:00140000
#04315:00000016
#04312:16
#04318:00160000
#04412:00140000
#0441a:00140000
#03114:0000001400000000
#0311a:0024000000000000
#03110:0041000000000000
#03212:0014000000000000
#03218:0000001400000000
#0331a:0014000000000000
#03314:0000001400000000
#03512:0014
#03518:00000014
#0351a:00140000
#03614:14
#0361a:00140000
#03612:0014
#03618:00000014
#03714:14
#0371a:00140000
#03814:00140014
#03818:0014
#0461a:00140000
#04618:00000014
#04610:00410000
#04912:00140000
#04914:00000014
#05012:00140000
#0511a:00140000
#05118:00000014
#0521a:00140000
#05912:00160000
#05914:00000016
#05910:00410000
#06218:00160000
#0621f:00110000
#06316:00160000
#06418:00160000
#06612:00160000
#06814:00160000
#0701a:00140014
#07114:00140014
#07218:00140014
#07312:00140014
#0741a:00140000
#07414:00000014
#07518:00140000
#07512:00000014
#07614:0014
#0761a:00240000
#0761f:00210000
#07718:0014
#07712:00140000
#07710:00410000
#07814:0014
#07818:00140000
#07918:0014
#07914:00140000
#0801a:00140000
#08014:0014
#08018:00000014
#08112:14
#0811a:00140000
#08114:0014
#08118:00000014
#08212:14000026
#08218:00260000
#08314:0014
#08318:00140014
#08414:14
#08412:0014
#0841a:00240014
#08512:14
#08518:00140014
#08514:0014
#08614:14
#0861a:00140000
#08612:0014
#08618:00000014
#08714:14
#0871a:00140000
#08712:0014
#08718:00000014
#08814:14
#0901a:00000014
#09014:00240000
#09112:00140000
#09118:00000014
#09214:00140000
#0921a:00000014
#09314:00140000
#09318:00000014
#09412:00140000
#0941a:00000014
#09514:00140000
#04218:00160016
#04212:0016
#0471a:00140000
#04718:00000014
#0481a:00140000
#00218:0024
#03912:24
#0391a:24
#04512:00240000
#06018:0000000000260000
#06012:0000000000000026
#00554:14
#02452:00000054
#02454:00540000
#02352:00000054
#02359:00150000
#0265a:00000064
#02658:00640000
#0255a:00000064
#0375a:00640000
#03758:00000014
#0465a:00640000
#04658:00000024
#04952:00540000
#04954:00000024
#05052:00540000
#0515a:00640000
#05158:00000024
#0525a:00640000
#05258:00000014
#05952:00660000
#05954:00000026
#06258:00560000
#06356:00560000
#06458:00560000
#06652:00660000
#06854:00660000
#04358:00160000
#0475a:00640000
#04758:00000024
#0485a:00640000
#00258:0014
#0085a:14
#04552:00140000
#01552:0015
#03952:00140000
#0395a:00140000
#08958:0000000000000000000000000000000000000000000000000000000000000014
#000340:1400003400003400
#001340:0024000000000000
#001380:0000000014000034
#002380:0034003424000000
#007340:1400340034240000
#014320:15000035
#014340:0000003500000000
#015340:0035000000000000
#015320:0000003525000000
#021390:0015
#021370:0000000000000035
#022390:00350000
#022370:0000000000350000
#023390:35250000
#023320:00000014
#024340:00340000
#024320:00000034
#025340:00240000
#0253a0:00000014
#026380:00340000
#0263a0:00000034
#027380:00240000
#029380:00140024
#0313a0:0000000000140024
#032320:0000000000140024
#0333a0:0000000000140024
#034340:0014340000000000
#034320:0000000034340000
#035320:24
#0373a0:00140000
#037380:00000024
#039320:14240000
#0393a1:14240000
#039341:00000014
#040341:24
#040381:00142400
#040321:00000014
#041321:24
#0413a1:00142400
#041341:00000014
#042341:24
#0463a1:00140000
#046381:00000034
#0473a1:00340000
#047381:00000034
#0483a1:00340000
#048381:00000024
#049321:00140000
#049341:00000034
#050321:00340000
#050341:00000024
#0513a1:00140000
#051381:00000034
#0523a1:00340000
#052381:00000024
#053341:00140000
#053321:00000034
#054321:00340000
#054341:00000024
#055381:00140000
#0553a1:00000034
#0563a1:00340000
#056381:00000024
#057321:00140000
#057341:00003434
#058321:24
#0583a1:00140000
#058381:00003434
#0593a1:24
#059321:00160000
#059341:00000056
#060321:00260000
#062381:00160000
#063361:00360000
#064381:00360000
#065361:00260000
#066321:00160000
#067341:00360000
#067321:00000036
#068341:00360000
#069321:00260000
#0763a1:00000014
#0773a1:24
#077321:00000014
#078321:24
#0783a1:00000014
#0793a1:24
#079321:00000014
#080321:24
#082381:00162600
#082321:00000016
#083321:26
#0883a1:00142400
#088321:00000014
#089321:24
#089381:0000000000000000140000000000000000000000000000000000000000000024
#095381:00000014
#096381:0034000000000000
#0963a1:0000000034000034
#097381:0000340000340024
#098341:0000140000340000
#099321:3400003400000000
#099341:00000034
#100341:0034000000000000
#100321:0000000034000024
