This file was generated by Ched 2.7.0.0.
#TITLE ""
#ARTIST ""
#DESIGNER ""
#DIFFICULTY 0
#PLAYLEVEL
#SONGID ""
#WAVE ""
#WAVEOFFSET 0
#JACKET ""
#REQUEST "ticks_per_beat 480"
#00002: 4
#BPM01: 85
#00008: 01
#TIL00: ""
#VOLUME: ""
#HISPEED 00
#MEASUREHS 00
#0041a:14
#00410:41
#0121a:14
#0121f:11
#0131a:14
#01512:14
#01912:0016
#01918:26
#0191f:21
#01910:0041
#02112:16
#02118:0016
#02318:1616
#02512:1616
#00514:14
#00618:14
#00712:14
#00710:0041
#0081a:14
#00914:14
#01018:14
#01112:14
#01110:41
#01412:14
#01618:14
#02718:26
#02910:41
#03310:41
#0003a0:14
#0013a0:24
#002320:14
#003320:24
#017340:1434
#018340:24
#020380:1626
#022320:16362600
#024380:1626
#026320:16362600
#027380:16
#027370:0036
#028370:36
#028380:0026
#029320:16
#029330:0036
#030330:36
#030320:0026
#031380:16
#031370:0036
#032380:36
#032370:0026
#033320:16
#033330:0036
#034320:36
#034330:0026
#0353a0:1424
#036340:1424
#037380:1424
#038320:14003424
