This file was generated by Ched 2.7.0.0.
#TITLE ""
#ARTIST ""
#DESIGNER ""
#DIFFICULTY 0
#PLAYLEVEL
#SONGID ""
#WAVE ""
#WAVEOFFSET 0
#JACKET ""
#REQUEST "ticks_per_beat 480"
#00002: 4
#BPM01: 85
#00008: 01
#TIL00: ""
#VOLUME: ""
#HISPEED 00
#MEASUREHS 00
#00112:1414
#00113:0014001400140014
#00114:00140014
#00118:2200000000220000
#0011c:0000002200000022
#0011a:00002222
#00018:14
#00012:1414
#00013:0014001400140014
#00014:00140014
#0001c:00000022
#00316:2400000000140000
#00312:000000000000000000000000000000000000000000000013
#00419:000000130000000000000000000013000000000000000000
#0041b:000000000000130000000013000000000000000013000000
#00416:000000000013000000130000130000000000000000000000
#00414:000013000000000000000000000000130000000000000000
#00412:000000000000000000000000000000000000130000000013
#00417:230000000000000000000000000000000013000000000000
#00410:41
#00514:000013000000000000000000000000000000000000130000
#00519:000000130000000000000000000000000000000013000000
#00516:000000000013000013000000000000330000000000000000
#0051b:000000000000130000130000000000130013000000000000
#00517:130000000000000000000000000000000000000000000013
#00512:0013
#00616:000000000013000013000013000000000000000013000000
#0061b:000000000000130000130013000000000000000000000013
#00612:230000000000000000000000000000130013000000000000
#00617:33000013
#0071b:000000000000000000130000000000000000000013000013
#00717:000000130000130000000000000000000013000000000000
#00716:131300
#00712:000000000013000000000000000000130000130000000000
#00710:0041
#01116:000000130000000000000000130000000000000000001300
#01117:130000000013000000130000000000000000000000000000
#01112:000000000013000013000000000000000000000013000000
#01110:41
#01615:000000000000000000000013000000000000000000000000
#0161b:0000230000000013
#01612:13
#01618:0023
#01716:1313
#01717:0013230000132300
#0171b:130000000000000000000033000000000000000000000000
#01712:00230023
#01816:12121200
#01818:000000000012000000000012000000000000000000000000
#01812:000000000000000000000000000000000000000000000013
#01817:00000022
#01916:000013000000240000000000130000130000000014000000
#0191b:000000130000000000000000000000000000000013000000
#01912:000000000013000000130000000000000000000000000000
#0191a:0000000000140000
#01917:2400001300000000
#0191f:21
#01910:0041
#02017:000013000000000000000000000000130000000000000000
#02012:000000130000000000000013000013000000000000000000
#0201b:000000000013000000130000000000000000000000130013
#02016:000000240000140000001300
#02014:000000000000000000000000000000000013000000000000
#02019:00000023
#02116:1413240000000013
#02112:000000000013000000130000000000000000230000000000
#0211b:000013000000000000000000000000130000000000000000
#02117:0000001313000000
#02716:2413000013001300
#0271b:0023000013001300
#02717:0000000000130000
#02712:0000000000130000
#01214:0000000000130000
#01212:2400000013000013
#01217:130000000000000000000033130000000000000000130000
#0121b:00130013
#0121f:11
#01216:00230023
#01412:0000000013000013
#01417:130000000000000000000033130000000000000000130000
#0141b:00130013
#01414:0000000000130000
#01416:00230023
#01516:13000023
#01517:0000231300000000
#0151b:00000013
#01512:0000001300130000
#01319:0000000000130000
#0131b:0000000013000013
#01316:130000000000000000000033130000000000000000130000
#01312:00130013
#01317:00230023
#02216:1300230000130000
#02212:0013000013002300
#02217:0013000013002300
#0221b:130000000000230000000000000000130000000000000013
#02617:1300230000130000
#0261b:0013000013002300
#02616:0013000013002300
#02612:130000000000230000000000000000130000000000000013
#02817:000000000000000000000013000000000000130000000000
#0281b:1300000000130000
#02812:000000000000130000000000130000000000000000000013
#02816:0000000000130000
#02917:00000000000000130000000000000000
#0291b:0013000000000000
#02916:0013000000000000
#02912:00000000000000130000000000000000
#02910:41
#0351b:13000013
#03517:00130000
#03519:0013
#03516:0012
#03619:1313
#03617:00130000
#03616:0012
#03712:13000013
#03716:00130000
#03714:0013
#03718:0012
#03814:1313
#03816:00130000
#03818:0012
#0021a:1414
#00219:0014001400140014
#00218:00140014
#00212:00000022
#00814:000000130000000000000000000013000000000000000000
#00812:000000000000130000000013000000000000000013000000
#00817:000000000013000000130000130000000000000000000000
#00819:000013000000000000000000000000130000000000000000
#0081b:000000000000000000000000000000000000130000000013
#00816:230000000000000000000000000000000013000000000000
#00919:000013000000000000000000000000000000000000130000
#00914:000000130000000000000000000000000000000013000000
#00917:000000000013000013000000000000330000000000000000
#00912:000000000000130000130000000000000013000000000000
#00916:130000000000000000000000000000000000000000000013
#0091b:0013
#01017:000000000013000013000013000000000000000013000000
#01012:000000000000130000130013000000000000000000000013
#0101b:230000000000000000000000000000130013000000000000
#01016:33000013
#02317:000013000000000000000000130000130000000000000000
#02312:000000130000000000000000000000140000000013000000
#0231b:000000000013000000130000000000000000000000000000
#02316:000000000000240000130000000000000000000014000000
#02315:14
#02416:000013000000240000000000140000130000000000000000
#0241b:000000130000000000000013000013000000000000000000
#02412:000000000013000000130000000000000000000000130013
#02417:000000000013
#02419:000000000000000000000000000000000013000000000000
#02414:00000023
#02517:0013000000000013
#0251b:000000000013000000130000000000000000230000000000
#02512:000013000000000000000000000000130000000000000000
#02516:1400241313000000
#03016:000000000000000000000013000000000000130000000000
#03012:1300000000130000
#0301b:000000000000130000000000130000000000000000000013
#03017:1300000000130000
#03116:00000000000000130000000000000000
#03112:0013000000000000
#03117:0013000000000000
#0311b:00000000000000130000000000000000
#03217:000000000000000000000013000000000000130000000000
#0321b:130000000000000000000000000000000000000000000000000000000000130000000000000000000013000000000000
#03212:000000000000130000000000130000000000000000000013
#03216:1300000000130000
#03316:0013000000130000
#03314:00131300
#03319:00131300
#03312:0000001300000000
#03317:0000001300000000
#0331b:0023000000130000
#03310:41
#03416:13001323
#03417:0000000000130000
#0341b:1313
#03412:0000130000130000
#00153:0054005400540054
#00152:2424
#00154:00240024
#00354:00000018
#00356:0000000000240000
#0045b:000000130000000000002300
#00452:00000013
#00457:000000000000000000000000000000000063000000000000
#0055b:0000136300000000
#00552:0063
#00556:00000013
#00557:000000000000000000000000000000000000000000000063
#01157:5300006300000000
#01152:000000000063
#01156:000000000000000000000023
#01658:00000013
#0165b:00130000
#01656:00130000
#01652:63
#01655:00000013
#01756:6363
#01757:00630063
#01752:00130013
#0195b:000000000053
#01956:000000000000140000000000000000630014000054000000
#01957:440000000000000000000000000000000000000000000013
#01952:000000000000000000000000000000000013000000000014
#0195a:0000000000640000
#02056:00141400
#02059:00000013
#02756:4463000000006300
#0275b:0063000000001300
#02752:0000000000230000
#01556:63000013
#01557:0000005300000000
#0155b:43000053
#01552:0000000000630000
#01252:34
#01257:6300000063000023
#0125b:00230053
#01356:5300000053000023
#01352:00230063
#0135b:43
#01457:6300000063000023
#0145b:00230053
#01452:33
#02256:5300430000230000
#02252:0023000063003300
#02257:0023000063003300
#0225b:5300430000230000
#02657:6300330000230000
#0265b:0023000053004300
#02656:0023000053004300
#02652:6300330000230000
#0295b:0063000000001300
#02957:00000000000000230000000000000000
#02956:0063000000001300
#02952:00000000000000230000000000000000
#02857:00000063
#02852:000000000000130000000000630000000000330000000063
#02856:0000000000230000
#0285b:63
#0355b:63000023
#03559:0063
#03557:00230000
#03659:6363
#03657:00230000
#03752:53000023
#03756:00230000
#03754:0053
#03854:5353
#03856:00230000
#00052:2424
#00053:0054005400540054
#00054:00240024
#0025a:2424
#00259:0064006400640064
#00258:00240024
#00756:63
#00757:00130000
#0075b:0000006300000000
#00852:000000130000000000002300
#0085b:00000013
#00856:000000000000000000000000000000000053000000000000
#00952:0000135300000000
#0095b:0053
#00957:00000013
#00956:000000000000000000000000000000000000000000000063
#02352:000000000000000000000000000000540000000063000000
#02356:000000000000140000000000000000000014000064000013
#02357:0000000000530000
#0235a:000000000000000000000000000000000000000000000014
#0235b:000000000000000000000000000000000013000000000000
#02355:34
#02456:00141400
#02454:00000013
#01052:000000000000000000000063000000000000000000000000
#01056:00000063
#03056:00000053
#0305b:000000000000130000000000530000000000430000000053
#03057:0000000000230000
#03052:53
#03156:00000000000000230000000000000000
#03152:0053000000001300
#03157:0053000000001300
#0315b:00000000000000230000000000000000
#03257:00000063
#03252:00136333
#03256:0000000000230000
#0325b:630000000000000000000000000000000000000000000000000000000000000000000000000000000023000000000000
#03457:0000000000630000
#03456:00000033
#0345b:63
#03452:00130000
#00657:00000063
#0065b:000000000000000000000063000000000000000000000000
#03354:00635300
#03359:00635300
#03352:0000002300003300
#03357:0000002300003300
#03356:0023000000230000
#0335b:0023000000230000
#02556:14140000
#0255b:00000013
#02156:14140000
#02152:00000013
#000320:1454
#000330:0054005400540054
#000340:00540054
#001320:3454
#001330:0054005400540054
#001340:00540054
#002320:24
#0023a1:1454
#002391:0054005400540054
#002381:00540054
#0033a1:24
#003360:1400000000000000340000003400000034343434340000000000000000000000
#003340:00000028
#004370:000000000000000000000000000000000013000000000023
#0043b0:000000000033
#0053b0:0000001300000000
#005370:0023
#005321:0013
#005361:0000000000332300
#005371:000000000000000000000000000000000000000000000013
#006371:33
#0063b1:000000000023000000000000000000000000000000000000
#0063b1:000000000000000000000013000000000000000000000000
#006371:0000000000230000
#006371:00000013
#0063b1:000000000023
#007361:13
#007321:0023000000000000
#0073b1:0000001300000000
#007371:0000000000230000
#008361:000000000000000000000000000000000013000000000023
#008321:000000000033
#009321:0000001300000000
#009361:0023
#0093b0:0013
#009370:0000000000332300
#009360:000000000000000000000000000000000000000000000013
#010360:33
#010320:000000000023000000000000000000000000000000000000
#010320:000000000000000000000013000000000000000000000000
#010360:0000000000230000
#010360:00000013
#010320:000000000023
#011370:13
#0113b0:0023000000000000
#011370:0000001300000000
#0113b0:0023
#011360:0000000000130000
#011320:00000023
#0113b1:00000013
#011371:000000000023
#011320:000000000013
#011360:000000000000000000000053
#012320:24
#012371:130000000000000000000033330000000000000000530000
#0123b1:00330033
#0133b1:23
#013360:130000000000000000000033330000000000000000530000
#013320:00330033
#014320:23
#014371:130000000000000000000033330000000000000000530000
#0143b1:00330033
#0153b1:23
#015360:13
#015320:00230000
#015370:0000001300000000
#0153b0:0000000000230000
#015321:0000000000130000
#015361:00000023
#0153b0:00000013
#016370:23
#016321:13
#016361:00230000
#016381:0000000013332300
#016350:0000000000132300
#017360:13
#017320:00230000
#017371:00130000
#0173b1:000000000000000000000033230000000000000000000000
#017360:0013
#017320:00000023
#017371:00000013
#0183b1:23
#0193a1:0000000014340000
#019361:000000000000000000000000000000000024000000000000
#019360:0000000000130000
#019320:000000000000000000000000000000000023000000000000
#0193b0:000000000013
#019370:000000000000000000000000000000000000000000005323
#019361:000000000014
#019321:000000000000000000000000000000000000000000005424
#021321:0013
#021361:0000000000230000
#021371:00000013
#0213b1:0000000000000023
#022361:13230000
#022321:0053000000000000
#0223b0:13230000
#022370:0053000000000000
#022370:00001323
#0223b0:0000000000530000
#022321:00001323
#022361:0000000000530000
#023321:0000000014340000
#023361:000000000000000000000000000000000024000000000000
#023370:0000000000130000
#0233b0:000000000000000000000000000000000023000000000000
#023320:000000000013
#023360:000000000000000000000000000000000000000000005323
#023361:000000000014
#0233a1:000000000000000000000000000000000000000000005424
#0253b1:0013
#025371:0000000000230000
#025361:00000013
#025321:0000000000000023
#026371:13230000
#0263b1:0053000000000000
#026320:13230000
#026360:0053000000000000
#026360:00001323
#026320:0000000000530000
#0263b1:00001323
#026371:0000000000530000
#0273b1:0013000000000000
#027371:0000002300000000
#027360:0013000000000000
#027320:0000002300000000
#027320:0000000000130000
#027360:00000033
#028320:23
#0283b1:13
#028371:000000000033230000000000000000000000000000000000
#028321:00001323
#028361:0000000000330000
#028370:00000013
#0283b0:000000000000000000000000000000000000000000000023
#028321:000000000000000000000000000000000000000000000013
#029361:0033000000002300
#029321:00000000000000530000000000000000
#0293b0:0013000000002300
#029370:00000000000000530000000000000000
#030320:13
#030360:000000000033230000000000000000000000000000000000
#0303b0:00001323
#030370:0000000000330000
#030361:00000013
#030321:000000000000000000000000000000000000000000000023
#0303b0:000000000000000000000000000000000000000000000013
#031370:0033000000002300
#0313b0:00000000000000530000000000000000
#031321:0013000000002300
#031361:00000000000000530000000000000000
#0323b1:13
#032371:000000000033230000000000000000000000000000000000
#032321:00001323
#032361:0000000000330000
#032370:000000000000000000000000000000000000130000000023
#0323b0:000000000000000000000000000000000000000000000000000000000000000000000000000000000033000000000000
#0333b0:0013000000530000
#033390:00535300
#033370:0000005300002300
#033361:0013000000530000
#033341:00535300
#033321:0000005300002300
#0343b1:13
#034371:000000000033230000000000000000000000000000000000
#034371:0000000000130000
#0343b1:00000023
#0343b1:0000000000000013
#0353b1:33000033
#035371:00330000
#035391:0033
#036391:3333
#036371:00330000
#0363b1:00000023
#035320:120000000022000000000000000000000000000000000000
#035360:0000000000122200
#036320:120000000022000000000000000000000000000000000000
#036360:0000000000122200
#0373c0:120000000022000000000000000000000000000000000000
#037321:13000033
#037361:00330000
#037341:0033
#038341:3333
#038361:00330000
#038321:00000023
#037380:0000000000122200
#0383c0:120000000022000000000000000000000000000000000000
#038380:0000000000122200
