This file was generated by Ched 2.7.0.0.
#TITLE ""
#ARTIST ""
#DESIGNER ""
#DIFFICULTY 0
#PLAYLEVEL
#SONGID ""
#WAVE ""
#WAVEOFFSET 0
#JACKET ""
#REQUEST "ticks_per_beat 480"
#00002: 4
#BPM01: 85
#00008: 01
#TIL00: ""
#VOLUME: ""
#HISPEED 00
#MEASUREHS 00
#0121f:11
#01215:0013
#01212:00130013
#0121b:23
#0181b:000000000000000000000000000000000000000000000013
#01817:12121200
#0081b:000013000013000000000000000033130000000000000000
#00818:0000001313000000
#00812:000000000000000000000013000000000000000000000013
#00815:2313130000000000
#01415:1313
#01412:00130013
#01318:1313
#0131b:00130013
#03818:0012
#03716:0012
#03618:0012
#03516:0012
#03418:13
#03412:0013
#0341b:000000000033000000000000000000000000000000000000
#03415:0000000000330000
#03212:130000000000000000000000000000000000000000000013
#03215:00130000
#0321b:0013000000130000
#03218:000000000000000000000013000000000000000000000000
#02818:0013000000130000
#0281b:000000000000000000000013000000000000000000000000
#02812:130000000000000000000000000000000000000000000013
#02815:00130000
#03015:0013000000130000
#03012:000000000000000000000013000000000000000000000000
#0301b:130000000000000000000000000000000000000000000013
#03018:00130000
#02918:13
#0291b:0013000000000000
#02910:41
#02712:0013000000000000
#02715:23
#02612:0013
#02618:0013
#0261b:130000000000000000000000000000000000000000000013
#02615:13
#02518:000000000033000000000000000000000000000000130000
#02512:0000000000130000
#02515:0000001313000000
#0251b:000000003313330000000000000000000000000000000000000000000000000000000000000000000000000000000000
#0221b:0013
#02215:0013
#02212:130000000000000000000000000000000000000000000013
#02218:13
#02418:000000130000000000000000000000130000000013000013
#02415:000000000013000000130000000000000000000000130000
#02412:000013000000000000000033000000000000130000000000
#0241b:00130000
#0231b:000000000013
#02315:0013
#02318:2313130000000000
#02312:000013000013000000000000000000000000000000000000
#0211b:0000000000130000
#02118:0000001313000000
#02112:000000003313330000000000000000000000000000000000000000000000000000000000000000000000000000000000
#02115:000000000033000000000000000000000000000000130000
#02015:000000130000000000000000000000130000000013000013
#02018:000000000013000000130000000000000000000000130000
#0201b:000013000000000000000033000000000000130000000000
#02012:00130000
#01912:000000000013
#01918:0013
#01915:2313130000000000
#0191b:000013000013000000000000000000000000000000000000
#0191f:21
#01910:0041
#01718:000000000000000000000013000000000000000000000000
#0161b:000000000000000000000013000000000000000000000000
#01612:00130000
#01518:1300000000000013
#0151b:0013000000001300
#01515:0000001300000000
#01512:0013
#00918:130000130000000033130000000000000000000000000000
#00915:000000000013
#00912:000013000013000000000000000000000013330000330000
#0091b:00130000
#01118:000000001300000000331300
#0111b:0013000000130000
#01112:0000001300000000
#01115:000000000013000000000000000000000000000000000000
#01110:41
#01015:000000000000000000000000000000000013330000000033
#01012:000000000013
#01018:001300
#0101b:000000000013330000330000000000000000000000000000
#00712:0000001300000000
#00718:001300
#00715:000000000013000000000000000000000000000000000000
#0071b:000000130000000000000000000000000000000000000013
#00710:0041
#00615:000000000000000000000000000000000013330000000033
#00612:000000000013
#00618:001300
#0061b:000000000013330000330000000000000000000000000000
#00515:000000000013
#00512:000000000000000000000000000000000013330000330000
#00518:003300130000000000000000
#0051b:130000000000000033330000000000000000000000000000
#00418:0000001313000000
#0041b:000000000000000000000000000033130000000000000000
#00415:130000000000000000000013000000000000000000000013
#00412:000033130033000000000000000000000000000000000000
#00410:41
#00218:13
#00012:13
#00015:00000033
#00112:00000013
#00118:0013
#0011b:0000001300000013
#00115:0000000000130000
#0031b:000000000000000000000000000000000000000000000013
#00315:23
#03115:0013000000000000
#03112:13
#0331b:0013000000000000
#03315:0000000000230000
#03318:23
#03310:41
#0345b:00130000
#03458:53
#03452:0063
#03455:00000013
#03352:00000013
#03355:0000000000630000
#0335b:0053000000000000
#03358:53
#03158:00000013
#03155:0053000000000000
#03152:63
#02955:00000013
#02958:63
#0295b:0053000000000000
#02758:00000013
#02755:63
#02752:0063000000000000
#02358:000000000000630000000000000000000000000000000013
#02352:000000000000000000000000000000000013000000000000
#0235b:000000000063
#02355:0063
#01955:000000000000530000000000000000000000000000000013
#0195b:000000000000000000000000000000000013000000000000
#01952:000000000053
#01958:0053
#00355:00000013
#0125b:13
#01255:0063
#01252:00530053
#0085b:0000000000230000
#00858:0053
#01455:6363
#01452:00630053
#01358:5363
#0135b:00530053
#02858:0000000000230000
#0285b:000000000000000000000063000000000000000000000000
#03055:0000000000230000
#03052:000000000000000000000053000000000000000000000000
#02652:00136300
#02658:00136300
#0265b:53000013
#02655:53000013
#0225b:00135300
#02255:00135300
#02252:63000013
#02258:63000013
#02552:0000000000230000
#02555:0063
#0255b:000000000023000000000000000000000000000000000000000000000000000000000000000000000000000000000000
#02458:000000000000000000000000000000000000000000000063
#02452:00000013
#02455:0000006300000000
#0245b:00130000
#0215b:0000000000230000
#02158:0053
#02152:000000000023000000000000000000000000000000000000000000000000000000000000000000000000000000000000
#02055:000000000000000000000000000000000000000000000053
#0205b:00000013
#02058:0000005300000000
#02052:00130000
#01558:6300000000000023
#0155b:0023000000006300
#01555:0000006300000000
#01552:0023
#01652:00130000
#00958:0000002300000000
#00955:000000000063
#00952:000000000000000000000000000000000063000000000000
#0095b:00530000
#01158:000000000053
#0115b:0000000000530000
#01152:0000005300000000
#01055:000000000000000000000000000000000063000000000000
#01052:000000000023
#01058:005300
#0105b:000000000053000000000000000000000000000000000000
#00752:0000006300000000
#00655:000000000000000000000000000000000063000000000000
#00652:000000000023
#00658:005300
#0065b:000000000053000000000000000000000000000000000000
#00555:000000000063
#00552:000000000000000000000000000000000063000000000000
#00558:00630000
#0055b:63
#00458:0053
#0045b:0000000000230000
#00455:63
#00452:0023000000000000
#00258:63
#00052:63
#0325b:0000000000230000
#03258:000000000000000000000053000000000000130000000000
#000320:13
#000350:00000033
#001350:23
#002380:13
#0023b0:00000023
#003350:13000000330033003333330023000000
#004350:13230000
#004320:000033330033000000000000000000000000000000000000
#004380:0013
#0043b0:000000000000000000000000000033330023000000000000
#0053b0:130000000000000033330000230000000000000000000000
#005380:000033330033330000000000000000000000000000000000
#005320:000000000000000000000000000000000013330000330023
#005350:000000000033
#0063b0:000000000013330000330023000000000000000000000000
#006380:003300
#006350:000000000000000000000000000000000013330000000033
#006320:000000000033
#007350:23
#007320:0000001300000000
#007350:000000000000000000000000000000000033330023000000
#008380:0013
#0083b0:000000000000000000000000000033330023000000000000
#0093b0:00132300
#009380:000000000000000033330000000000000000000000000000
#009320:000000000000000000000000000000000013330000330023
#009350:000000000033
#0103b0:000000000013330000330023000000000000000000000000
#010380:003300
#010350:000000000000000000000000000000000013330000000033
#010320:000000000033
#011350:23
#011320:0000001300000000
#011350:0023
#0113b0:0000000000130000
#011380:000000000000000000333300
#0123b0:23
#012320:0000130000333300
#012350:000000000000000000000033330000000000000000230000
#013380:130000000000000000000033330000000000000000230000
#0133b0:0000330000333300
#014350:130000000000000000000033330000000000000000230000
#014320:0000330000333300
#015380:13230000
#0153b0:0053000000000000
#015350:0000001300230000
#015320:0053
#0153b0:00000013
#015380:0000000000000053
#0163b0:23
#016350:00001333
#016320:0000000000330023
#017380:13230000
#0173b0:0033000000000000
#017350:00001323
#017320:0000000000330000
#019350:00130000
#019320:0000002300000000
#019380:0013
#0193b0:000000000000000000000000000000330023000000000000
#019320:000000000013
#019350:000000000000000000000000000000000000000000000023
#020380:0000001300000000
#0203b0:000000000000000000000033230000000000000000000000
#020350:000000000000000000000000000000000000000000000013
#021320:000000003353330000000000000000000000000000000000000000000000000000000000000000000000000000000000
#021350:000000000033230000000000000000000000000000000000
#021380:00001323
#0213b0:0000000000330000
#022320:13
#022350:00230000
#022381:13
#0223b1:00230000
#0223b1:0013
#022381:00000023
#022350:0013
#022320:00000023
#023380:00130000
#0233b0:0000002300000000
#023350:0013
#023320:000000000000000000000000000000330023000000000000
#0233b0:000000000013
#023380:000000000000000000000000000000000000000000000023
#024350:0000001300000000
#024320:000000000000000000000033230000000000000000000000
#024380:000000000000000000000000000000000000000000000013
#0253b0:000000003353330000000000000000000000000000000000000000000000000000000000000000000000000000000000
#025380:000000000033230000000000000000000000000000000000
#025350:00001323
#025320:0000000000330000
#0263b0:13
#026380:00230000
#026351:13
#026321:00230000
#026321:0013
#026351:00000023
#026380:0013
#0263b0:00000023
#027350:1323
#027320:0033000000000000
#027380:0000000000132300
#0283b0:000000000000000000130033000000000000230000000000
#028380:0000000000330000
#029380:1323
#0293b0:0033000000000000
#029350:0000000000132300
#030320:000000000000000000130033000000000000230000000000
#030350:0000000000330000
#031320:1323
#031350:0033000000000000
#031380:0000000000132300
#032380:000000000000000000130033000000000000230000000000
#0323b0:0000000000330000
#033380:1323
#0333b0:0033000000000000
#033350:0000000000130000
#033320:00000023
#034380:13
#0343b0:000000000033230000000000000000000000000000000000
#034320:0013
#034350:0000000000332300
#0353a0:120000000022000000000000000000000000000000000000
#0353a0:0000000000122200
#036340:120000000022000000000000000000000000000000000000
#036340:0000000000122200
#037380:120000000022000000000000000000000000000000000000
#0373a0:0000000000122200
#038360:120000000022000000000000000000000000000000000000
#038340:0000000000122200
