This file was generated by Ched 2.7.0.0.
#TITLE ""
#ARTIST ""
#DESIGNER ""
#DIFFICULTY 0
#PLAYLEVEL
#SONGID ""
#WAVE ""
#WAVEOFFSET 0
#JACKET ""
#REQUEST "ticks_per_beat 480"
#00002: 4
#BPM01: 85
#00008: 01
#TIL00: ""
#VOLUME: ""
#HISPEED 00
#MEASUREHS 00
#00018:12
#00012:1212
#00014:0012001200120012
#00016:00120012
#0001c:00000022
#0041b:001300000000000000000000
#00416:000000130013000000000000000000000000000013000000
#0041a:24140014
#00412:000000000000000000130000130013000013000000000000
#00417:000000000000000000000013000000130000000000000013
#00410:41
#00512:130013000000140000140000000000000000130013000000
#00517:000000130013000013000000130000000000000000000000
#00516:00000000000000140000140000001400
#0051b:000000000000000000000000000000000013000000000000
#00616:240000000000000000000000000000000013000013000013
#0061a:000000000000000000141400
#0061b:131300
#00612:000000000014140000000000000000140000000000000000
#00617:0000000000130000
#00717:0013000000000000
#0071b:000000000013000000000000000000000000000000000000
#00716:000000000000000014000000000000000013000013000000
#0071a:14000014
#00715:000000000000000000000000000000000000000000000015
#00712:000000000013000000000000000000000000130000000000000000000000000000000000000000000000000000000000
#00710:0041
#00812:231300130000000000140000
#00815:000000150015000000000000000000000000000015000000
#00819:000000000000000000150000150015000015000000000000
#00816:000000000000000000000013000000130000000000000013
#00919:151500150000000000000000
#00916:000000130013000000000000130000140000000000140000
#00912:000000000000000015000000000000000013000000000000
#0091b:000000000000000000130000000000000000130013000000
#00917:00000000000000130000000000000000
#01018:000000000000000000000000000000000013000013000000
#01012:130000001300000000151500
#0101b:000000000000000000000000000000000000000000000013
#01019:000000000015150000000000000000150000000000000000
#01015:0000000000130000
#01016:24
#01116:000000000000000000000000000000001300000000000000000000000000000000140000000000000000000000000000
#0111b:00000000000013000000001300000000
#01112:150000130013000000001300000000130000000015000000
#01117:00000000000000130000130000000000
#01118:000000000000000000000013
#01119:00150000
#01110:41
#01612:000000120000000000000012000000000000000000120000
#0161c:1200001200120000
#01617:2212000022120000
#01717:120000120000220000000012120000120000220000000000
#0171c:12
#01712:00220022
#01818:000000000000120000000012000000000000000000000000
#01816:000000000012000000000000120000000000240000000000
#01817:120000000000000000000000000000000000000000120032
#0181c:0022000000000000
#01812:0000002200000000
#01814:0000000000220000
#0181a:000000000000002200000000
#02318:001400000000000000000000
#02314:1614000000002600
#0231b:000000000013000000000000000000000013000000000000
#02312:000000000000000000000000000000160000000013000000
#02315:000000000015
#02316:000000000000000000000000260000000000130000000000000000000000000000000000000000000000001300000000
#02319:000000000000000000000000000000000000150000000000000000000000000000000000000000000000001500000000
#0241b:000013000013000000000000000000000000000000000000
#02416:000000160000260000000000000000000000260000140014
#02412:000000000000000000130000120000000000000016000000
#02415:000000000000001200000000
#02419:0000000000120000
#0241c:000000000000000000000000000000000012000000000000
#02414:0016
#02417:0000001300000000
#02716:0013000013000014
#0271a:0014
#02717:0000000000130000
#0271b:0023000000001300
#01212:250000000000000000000012120000000000000000120000
#01214:0000000000120000
#01217:1200000012000012
#0121c:00120012
#0121f:11
#01216:00220022
#01412:000000000000000000000012120000000000000000120000
#01417:1212
#0141c:00120000
#01414:0000000000120000
#01418:0000000000000012
#01416:00220022
#0131c:000000000000000000000012120000000000000000120000
#0131a:0000000000120000
#01317:1200000012000012
#01312:00120012
#01318:00220022
#02215:14000024
#02212:000000130000000000000000240000000000000000000000140000000000000000130000000000000000000000001300
#02217:0000130000000000001400000000001400000000000013000000000000000000
#0221a:14000024
#02219:0013000000130000
#02214:0013000000130000
#0221b:00000013000000000013000000000000
#02216:00000013000000000013000000000000
#02213:0000001500000000
#02218:0000340034000016
#02817:0000131300131300
#02819:0013000013000000
#0281b:0000000000130000
#02812:000000000000000000130013000000000000000000000000
#02816:0000000000000014
#0281a:000000000000000000000000000000000000000000000014
#03012:130000000000000000000000000000130000000000000014
#0301b:000000000000000000130013000000000000000000000000
#03016:0000131300131314
#03014:0013000013000000
#0021c:1212
#0021a:0012001200120012
#00218:00120012
#00212:00000022
#02912:0000130000000013
#02917:0000000000000013
#0291b:0000000013130000
#0291a:0014000000000000
#02916:2413140000000000
#02915:0000001300130000
#02918:0013
#02919:0000001300000000
#02910:41
#00112:1212
#00114:0012001200120012
#00116:00120012
#00118:2200000000220000
#0011c:0000002200000022
#0011a:00002222
#00316:240000000000000000000000000000000000000000000000140000000000000000000000140000000000000000000000140000140000140000140000140000000000000000000000000000000000000000000000000000000000000013000000
#00317:00000000000000000000001200000000
#02618:0000001500001300
#02613:000000000000000000000000000000000000000000000000000000000000000000000000000000000015000000000000
#02617:14000013000000000013000000000000
#0261b:00130000000000000000001300000000
#02616:00130000000000000000001300000000
#02612:140000000000000000130000000000000000000000000000000000130000000000000000240000000000000000002400
#0261a:00241400
#02615:0000000000000000001400000000001400000000000000000000000000000000
#02614:0013340034130000
#02619:0013000000130000
#0321a:0000000014141400
#03212:000000000000000000140014000000000000000000000014
#03217:0000131300000000
#0321b:13
#03219:0013000000000000
#02518:001600260000000000000000
#02516:000000140014000000000000000000000000000000000000
#02519:0000001500002500
#02512:1600001500150000
#02517:0015
#02514:0000000000000015
#01518:12220000
#01512:00000022
#0331b:0000130000000013
#03316:2400140000000013
#03312:0014000013130000
#03318:0000001300130000
#03315:0013
#03314:0000001300000000
#03317:0023000000000000
#03310:41
#03112:0014000013130000
#03116:2400140000000013
#03117:0013000000000000
#0311b:0000130000000013
#03118:0000001300130000
#03115:0013
#03114:0000001300000000
#01914:001400260000000000000000
#01918:0014000000160000
#01912:000000000000000000001300000000000000150000000000000000000000000000001300000000000000001500000000
#0191b:000000000013
#01916:000000000000000000261500
#01917:000000000000000000000000000000000000130000000000000000000000000000000000000000000000001300000000
#0191f:21
#01910:0041
#02012:000013000013000000000000000000000012000000000000
#02014:0016260000002600
#0201b:000000000000000000130013000000000000000000000000
#02019:000000000000001200000000
#02015:0000000000120000
#02018:000000000016
#02016:000000000000000000130000160000000000000000140014
#02112:000016000000260000150000000000000000250000000000
#02116:000000140014000000000000000000000000000000000000
#02119:0000001500150000
#02118:16
#02114:0015
#02117:0000000000000015
#03416:0000131313002414
#0341a:0000001414000000
#03412:1300000000140000
#03417:0000000000130000
#03414:0013000000000000
#03512:12000012
#03516:00120000
#03514:0012
#03518:0012
#03614:1212
#03616:00120000
#03618:0012
#0371c:12000012
#03718:00120000
#0371a:0012
#03716:0012
#0381a:1212
#03818:00120000
#03816:0012
#0045a:00140014
#00452:000000000000000000000000000000000063000000000000
#00456:000000000023
#00552:0000145400001300
#00557:0063
#00556:00000000000000240000000000000000
#0065a:00000014
#00656:340000000000000000000034000000000000000000000063
#0065b:630000000000000000000033000000000000000000000000
#00652:00640000
#0075a:44000014
#00756:000000146400000000006300
#00752:000000000023000000000000000000000000630000000000000000000000000000000000000000000000000000000000
#00852:00130014
#00859:000000000000000000000000000000000055000000000000
#00855:000000000025
#00959:00150000
#00956:0053
#0095b:0000006300001300
#00957:00000000000000230000000000000000
#01052:530000000000000000000043000000000000150000000000
#0105b:000000000000000000000000000000000000000000000053
#01056:440000000000000000000045000000000000000000000000
#01059:00550000
#01156:000000000000000000000000000000005300000000000000430000000000000000240000000000000000000000000000
#0115b:00000000000053004300002300000000
#01152:350000000000000000002300000000630000350065000000
#01157:00000000000000230000630000000000
#01158:000000000000000000004323
#01159:00450000
#01757:62625252
#01752:00120012
#02756:0063000000000000
#0275b:0063000000001300
#01256:00000012
#01252:35
#01257:6200000062000022
#0125c:00220052
#01456:00000012
#01457:6262
#0145c:00220012
#01452:32
#01357:5200000052000022
#01352:00220062
#01358:00000012
#0135c:42
#02255:54000044
#02252:00230000340000006400002300000000
#02257:0000230000000000006400000000006400000000000023000000000000000000
#0225a:54000044
#02259:0063000000630000
#02254:0063000000630000
#0225b:00000023000000000023000000000000
#02256:00000023000000000023000000000000
#02253:0000002500000000
#02857:0000000000236300
#02852:000000000000140000000063000000000000340000000000
#0305b:000000000000000000000053000000000000000000000000
#03056:0000000000235300
#0305a:00140044
#00052:2222
#00054:0052005200520052
#00056:00220022
#0025c:2222
#0025a:0062006200620062
#00258:00220022
#01856:00000054
#01857:0000000000000022
#02356:000000000000000000000000160000000000530000000000000000000000000000000000000000000000002300000000
#02352:000000000000000000000000130000000000000063000033
#02355:000000000000000000000000150000000000000065000035
#02359:000000000000000000000000000000000000550000000000000000000000000000000000000000000000002500000000
#02354:16000016
#0235b:000000000000000000000000000000000013000000000000
#02456:00160016
#02454:0016
#00152:2222
#00154:0052005200520052
#00156:00220022
#00356:6400000000000000640000006400000064646464640000000000000000000000
#00357:00000000000000000000002200000000
#00354:00000018
#02653:000000000000000000000000000000000000000000000000000000000000000000000000000000000025000000000000
#02652:640000000000000000230000000000000000000000000000000000230000000000000000340000000000000000004400
#02657:640000000000000000230000000000000000000000000000000000230000000000000000000000000000000000004500
#0265b:00230000000000000000002300000000
#02656:00230000000000000000002300000000
#0265a:00445400
#02655:0000000000000000005400000000005400000000000000000000000000000000
#02654:0053000000530000
#02659:0053000000530000
#02658:0000002500006300
#01657:6222420062223200
#0165c:6200420000220000
#01652:0022000000003200
#02558:00160000
#02552:16
#02557:0035
#02559:00000035
#0295b:0000000000630000
#02956:0063140000000000
#02952:00230014
#02955:0000006300630000
#02958:0023
#03252:000000000000140000000064000000000000000000000000
#03256:00000014
#0325a:00000014
#01954:18160000
#0195b:000000000000000000000000130000000000000053000043
#01956:000000000000000000000000150000000000160055000045
#01957:000000000000000000000000000000000000630000000000000000000000000000000000000000000000002300000000
#01952:000000000000000000000000000000000000650000000000000000000000000000001300000000000000002500000000
#01558:42120000
#01552:00000012
#01556:00000012
#03152:0000000000530000
#03156:00140000
#03157:0053000000000000
#0315b:00230000
#03158:0000005300530000
#03155:0023
#0315a:00000014
#03352:0000000000530000
#03356:00140000
#0335b:00230000
#03358:0000005300530000
#03355:0023
#0335a:00000014
#03357:0063000000000000
#02056:0016
#02054:00160016
#02158:16
#02154:0045
#02152:00160045
#03457:0000000000530000
#03456:00000034
#0345a:00140000
#03552:52000022
#03556:00220000
#03554:0052
#03654:5252
#03656:00220000
#0375c:62000022
#03758:00220000
#0375a:0062
#0385a:6262
#03858:00220000
#000320:1252
#000340:0052005200520052
#000360:00520052
#001320:3252
#001340:0052005200520052
#001360:00520052
#002320:22
#0023c1:1252
#0023a1:0052005200520052
#002381:00520052
#0033c1:22
#003360:1400000000000000340000003400000034343434340000000000000000000000
#003370:000000000000000000000000000000000000000000000000000000000000000000000000000000000000000000000000000000000000000000000000000000000000000000000000000000000000000000000000000000000000000000000000000000000000000000000000000000000000000000000000000000000000000000000000000000000000000000000000000000000000000000000000000000000000000000000000000000000000000000000000000000000000000000000000000000000000000000000000000000000000000000000000000000000000000000000000000000000000000000000000000000000000000000000000000000000000000000000000000000000000000000000000000000000000000000000000000000000000000000000000000000000000000000000000000000000000000000000000000000000000000000000000000000000000000000000000000000000000000000000000000000000000000000000000000000000000000000000000000000000000000000000000000000000000000000000000000000000000000000000000000000000000000000000000000000000000000000000000000000000000000000000000000000000000000000000000000000000000000000000052000000000000000000000000000000000000000000000000000000000000000000000000000000000000000000000000000000000000000000000000000000000000000000000000000000000000000000000000000000000000000000000000000000000000000000000000000000000000000000000000000000000000000000000000000000000000000000000000000000000000000000000000000000000000000000000000000000000000000000000000000000000000000000000000000000000000000000000000000000000000000000000000000000000000000000000000000000000000000000000052000000000000000000000000000000000000000000000000000000000000000000000000000000000000000000000000000000000000000000000000000000000000000000000000000000000000000000000000000000000000000000000000000000000000000000000000000000000000000000000000000000000000000000000000000000000000000000000000000000000000000000000000000000000000000000000000000000000000000000000000000000000000000000000000000000000000000000000000000000000000000000000000000000000000000000000000000000000000000000000052000000000000000000000000000000000000000000000000000000000000000000000000000000000000000000000000000000000000000000000052000000000000000000000000000000000000000000000000000000000000000000000000000000000000000000000000000000000000000000000052000000000000000000000000000000000000000000000000000000000000000000000000000000000000000000000000000000000000000000000052000000000000000000000000000000000000000000000000000000000000000000000000000000000000000000000000000000000000000000000052000000000000000000000000000000000000000000000000000000000000000000000000000000000000000000000000000000000000000000000000000000000000000000000000000000000000000000000000000000000000000000000000000000000000000000000000000000000000000000000000520000000000000000000000000000000000000000000000000000000000000000000000000000000000000000000000000000000000000000000000000000000000000000000000000000000000000000000000000000000000000000000000000000000000000000000000000000000000000000000000000000000000000000000000000000000000000000000000000000000000000000000000000000000000000000000000000000000000000000000000000000000000000000000000000000000000000000000000000000000000000000000000000000000000000000000000000000000000000000000000000000000000000000000000000000000000000000000000000000000000000000000000000000000000000000000000000000000000000000000000000000000000000000000000000000000000000000000000000000000000000000000000000000000000000000000000000000000000000000000000000000000000000000000000000000000000000000000000000000000000000000000000000000000000000000000000000000000000000000000000000000000000000000000000000000000000000000000000000000000000000000000000000000000000000000000000000000000000000000000000000000000000000000000000000000000000000000000000000000000000000000000000000000000000000000000000000000000000000000000000000000000000000000000000000000000000000000000000000000000000000000000000000000000000000000000000000000000000000000000000
#003340:00000028
#004320:000000000000000000000000000000000013000000000023
#004360:000000000033
#005320:0000001424000000
#005360:00000000000000540000000000000000
#005371:0013
#0053b1:0000000000230000
#0053b1:000000000000000000000000000000000000000000000013
#0063b1:33
#006371:000000000023000000000000000000000000000000000000
#006321:00140000
#006361:000000000000000000540024000000000000000000000000
#0063b0:000000000000000000130023000000000000000000000000
#006360:000000000000000000000000000000000000000000000013
#007320:000000000053000000000000000000000000000000000000000000000000000000000000000000000000000000000000
#007360:00240000
#007360:001400
#0073a0:0000000054240000
#007321:0000001300000000
#007361:0000000053230000
#007361:000000000013
#007321:000000000000000000000000000000000000000000000023
#008391:000000000000000000000000000000000015000000000025
#008351:000000000035
#0093b1:0000001323000000
#009371:00000000000000530000000000000000
#009360:0013
#009320:0000000000230000
#009320:000000000000000000000000000000000000000000000013
#010320:33
#010360:000000000023000000000000000000000000000000000000
#010390:00150000
#010360:000000000000000000550025000000000000000000000000
#010321:000000000000000000130023000000000000000000000000
#0103b1:000000000000000000000000000000000000000000000013
#011371:0023000000000000
#011361:000013230000
#011321:000000000053000000000000
#0113b0:0000001323000000
#011370:00000000000000530000000000000000
#011320:0000000000132500
#011360:00000000000000000000005400000000
#011371:0000000000130000
#0113b1:00000000000000000000005300000000
#011381:000000000000000000332300
#011320:000000000015
#011380:000000000000000000000053
#012320:25
#012371:1200000032000052
#0123c1:00520052
#0133c1:22
#013370:1200000032000052
#013320:00520052
#014320:22
#014371:1232
#0143c1:00520022
#015321:12
#015381:00220000
#0153c0:0000122200000000
#015381:0000001200000000
#015321:0000000000220000
#015360:0000000000122200
#0163c0:12220000
#016370:0052000000000000
#016371:12220000
#016321:0052000000000000
#016371:00001222
#0163c1:0000000000320000
#016370:0000000000120000
#016320:00000022
#017370:12
#017320:00220000
#017371:00120000
#0173c1:0022
#017370:0012
#017320:00000022
#017371:00000012
#0183c1:22
#018361:00000014
#018371:000000000000000000000000000000000000000000520032
#019341:28
#019371:0000001300000000
#0193b1:000000000000000000000053230000000000000000000000
#019320:0000001500000000
#019360:000000000000000000000055250000000000000000000000
#0193b0:000000000000000000000000000000000000000013000023
#019370:000000000000000000000000000000000000000000000000000000000000000000000000000000000000005300000000
#019361:000000000000000000000000000000000000000015000025
#019321:000000000000000000000000000000000000000000000000000000000000000000000000000000000000005500000000
#021321:0012
#021371:0000000000220000
#021371:00000012
#0213c1:0000000000000022
#022351:14
#022321:00530000240000000000000000000000
#022341:0053000000000000
#022361:00000053000000000000000000000000
#0223a0:14000024
#022370:0000530000000000005400000000005400000000000053000000000000000000
#022390:0053000000530000
#0223b0:00000053000000000053000000000000
#022380:00343400
#022330:0000005500000000
#022321:00000000000000001400005300000000
#022361:00000000000000000053000000000000
#022341:0000000000530000
#022351:00000024
#023361:0000001300000000
#023321:000000000000000000000053230000000000000000000000
#023390:0000001500000000
#023350:000000000000000000000055250000000000000000000000
#023320:000000000000000000000000000000000000000013000023
#023360:000000000000000000000000000000000000000000000000000000000000000000000000000000000000005300000000
#023351:000000000000000000000000000000000000000015000025
#023391:000000000000000000000000000000000000000000000000000000000000000000000000000000000000005500000000
#0253c1:0012
#025371:0000000000220000
#025371:00000012
#025321:0000000000000022
#026371:14000053000000000000000000000000
#0263b1:00530000000000000000000000000000
#026391:0053000000000000
#0263a1:00240000
#026320:14000053000000000053000024000000
#026360:00530000000000000000005300000000
#026340:0053340034530000
#026350:0000000000000000005400000000005400000000000000000000000000000000
#026380:0000005500000000
#0263a1:0014
#026371:000000000000000000000000000000000000000000000000000000530000000000000000000000000000000000002500
#026391:0000000000530000
#0263b1:00000000000000000000005300000000
#026381:00000033
#026331:000000000000000000000000000000000000000000000000000000000000000000000000000000000055000000000000
#027361:0013000000000000
#027321:0000002300000000
#0273b0:0013000000000000
#027370:0000002300000000
#027320:0000000000140000
#027360:00000024
#0273b0:0000000000000013
#0283b0:23
#028361:14
#028321:00240000
#028321:000000000000000000000013000000000000240000000000
#028371:0000000000330000
#028370:00000013
#0283b0:0000000000000023
#029360:0013000000000000
#029320:00530024
#029350:0000005300530000
#029380:0053
#0293b1:0000000000130000
#029371:00000023
#030361:14
#0303a1:00240000
#0303b1:000000000000000000000013000000000000000000000000
#030361:0000000000330000
#0303a1:00000024
#030360:00000013
#030320:0000000000000023
#031370:0013000000000000
#0313b0:00530000
#031380:0000005300530000
#031350:0053
#0313a0:00000024
#031321:0000000000130000
#031361:00000023
#032361:14
#032321:00240000
#032321:000000000000000000000014000000000000000000000000
#032361:0000000000342400
#033371:0013000000000000
#0333b1:00530000
#033381:0000005300530000
#033351:0053
#0333a1:00000024
#033320:0000000000130000
#033360:00000023
#034360:14
#0343a0:00240000
#034370:0000000000130000
#0343b0:00000023
#034320:0000000000000012
#035320:32000032
#035360:00320000
#035340:0032
#036340:3232
#036360:00320000
#036320:00000022
#0353c1:120000000022000000000000000000000000000000000000
#035381:0000000000122200
#0363c1:120000000022000000000000000000000000000000000000
#036381:0000000000122200
#037321:120000000022000000000000000000000000000000000000
#0373c0:12000032
#037380:00320000
#0373a0:0032
#0383a0:3232
#038380:00320000
#0383c0:00000022
#037361:0000000000122200
#038321:120000000022000000000000000000000000000000000000
#038361:0000000000122200
