This file was generated by Ched 2.7.0.0.
#TITLE ""
#ARTIST ""
#DESIGNER ""
#DIFFICULTY 0
#PLAYLEVEL
#SONGID ""
#WAVE ""
#WAVEOFFSET 0
#JACKET ""
#REQUEST "ticks_per_beat 480"
#00002: 4
#BPM01: 85
#00008: 01
#TIL00: ""
#VOLUME: ""
#HISPEED 00
#MEASUREHS 00
#00112:0014
#00118:00000014
#0041a:14
#00414:0014
#00410:41
#00518:14
#00512:0014
#0081a:1414
#01918:0014
#01914:00140000
#01912:00000014
#0191a:24
#0191f:21
#01910:0041
#0061a:14
#00614:0014
#00912:1414
#0101a:14
#01016:0014
#00718:14
#00712:0014
#00710:0041
#0201a:14
#02014:00140000
#02114:0014
#02118:00140000
#0211a:00000014
#02112:14
#03112:14
#03118:00140000
#0321a:14
#03216:00140000
#0331a:14
#03314:00140000
#03310:41
#03412:14
#03416:00140000
#0281a:14
#02812:0014
#02816:00140000
#03012:14
#0301a:0014
#03016:00140000
#02314:0014
#02318:00140000
#0231a:00000014
#02312:14
#02412:14
#02416:00140000
#02514:0014
#02518:00140000
#0251a:00000014
#02512:14
#0121f:11
#0121a:00340000
#01312:00340000
#01418:00340000
#01514:00340000
#0161a:00340000
#01712:00340000
#02714:00340000
#02918:00340000
#02910:41
#00214:00000034
#01110:41
#02254:00140000
#02258:00000014
#02654:00140000
#02658:00000014
#0195a:14
#0345a:00000014
#03252:00000014
#0045a:14
#01152:0014
#02852:0014
#0305a:0014
#0003a0:14
#000380:00000034
#001380:24
#002320:14
#002340:00000034
#003340:34343424
#011320:1424
#0123a0:14340000
#012380:00000024
#013320:14340000
#013340:00000024
#014380:14340000
#0143a0:00000024
#015340:14340000
#015320:00000024
#0163a0:14340000
#016380:00000024
#017320:14340000
#017340:00000034
#018340:24
#0203a0:00001424
#022320:14
#022340:00240000
#0223a0:0014
#022380:00000024
#0243a0:00001424
#026320:14
#026340:00240000
#0263a0:0014
#026380:00000024
#027320:14
#027340:00340024
#0293a0:14
#029380:00340024
#031320:00001424
#032320:00001424
#0333a0:00001424
#0343a0:00001424
#035320:14000024
#035340:000000000034000000000000340000000000000000000000
#035330:0000000000340000
#0363a0:14000024
#036380:000000000034000000000000340000000000000000000000
#036390:0000000000340000
#037340:14000024
#037320:000000000034000000000000340000000000000000000000
#037330:0000000000340000
#038380:14000024
#0383a0:000000000034000000000000340000000000000000000000
#038390:0000000000340000
