This file was generated by Ched 2.7.0.0.
#TITLE ""
#ARTIST ""
#DESIGNER ""
#DIFFICULTY 0
#PLAYLEVEL
#SONGID ""
#WAVE ""
#WAVEOFFSET 0
#JACKET ""
#REQUEST "ticks_per_beat 480"
#00002: 4
#BPM01: 218
#00008: 01
#TIL00: ""
#VOLUME: ""
#HISPEED 00
#MEASUREHS 00
#0091a:14
#00910:41
#0101a:14
#01114:14
#01214:14
#01318:14
#01418:14
#01512:14
#01612:14
#0171a:14
#01814:14
#01918:14
#02012:14
#02118:14
#02214:14
#02512:14
#02510:41
#02618:14
#02714:14
#0281a:14
#02914:14
#03018:14
#04118:14
#04110:41
#04214:14
#0431a:14
#04412:14
#05418:1616
#09214:000000000000000000000014
#09314:0014
#09418:1414
#09512:14
#0951a:0014
#11612:1616
#11818:1616
#12012:16
#12018:0016
#05912:16
#05918:0016
#06512:16
#06518:0016
#06612:16
#0671a:14
#0681a:14
#06914:14
#07014:14
#07118:14
#07218:14
#07312:14
#07412:14
#04912:0016
#05018:16
#05012:0016
#05312:1616
#05618:000000000000000000000016
#05610:000000000000000000000041
#05712:0016
#05818:1616
#10518:1616
#11012:16
#11018:0016
#10012:0016
#10010:000000000000000000000041
#10118:16
#10112:0016
#10412:1616
#10718:000000000000000000000016
#10812:0016
#10918:1616
#09614:14
#09618:0014
#0841f:000000000000000000000011
#06318:26
#12112:26
#04818:000000000000000000000026
#06118:26
#06212:26
#11418:26
#09918:000000000000000000000026
#0991f:000000000000000000000021
#11218:26
#11312:26
#03914:34
#03813:34
#03518:34
#03419:34
#07910:41
#0003a0:000000000000000000000014
#0013a0:000000000000000000000034
#0023a0:000000000000000000000034
#0033a0:000000000000000000000024
#004320:000000000000000000000014
#005320:000000000000000000000034
#006320:000000000000000000000034
#007320:000000000000000000000024
#0233a0:14
#0243a0:24
#031320:14
#032320:24
#0333a0:14
#034390:34
#035380:34
#036380:24
#037320:14
#038330:34
#039340:34
#040340:24
#045380:14
#046380:24
#047340:140000000000000000000024
#051380:1636
#052380:3626
#055320:16
#056320:26
#060320:1626
#063380:1636
#064380:3626
#0753a0:14
#0763a0:24
#077340:14
#078340:24
#079380:14
#080380:24
#081320:14
#082320:24
#0833a0:14
#0843a0:24
#085340:14
#088320:24
#089380:14
#0923a0:24
#097320:140000000000000000000034
#098320:000000000000000000000024
#102380:1636
#103380:3626
#106320:16
#107320:26
#111320:1626
#114380:1636
#115380:3626
#117320:1626
#119380:1626
#121320:160000000036000036000026
