This file was generated by Ched 2.7.0.0.
#TITLE ""
#ARTIST ""
#DESIGNER ""
#DIFFICULTY 0
#PLAYLEVEL
#SONGID ""
#WAVE ""
#WAVEOFFSET 0
#JACKET ""
#REQUEST "ticks_per_beat 480"
#00002: 4
#BPM01: 218
#00008: 01
#TIL00: ""
#VOLUME: ""
#HISPEED 00
#MEASUREHS 00
#00118:001200000000
#00115:00120000
#00119:000000000012000000000000
#0011a:000000000000000012000024
#00112:000000000000000000000024
#00415:000013
#00418:00000013
#00419:002300000000
#00417:000000000023000000000000
#00412:000023000023000000000024
#0041a:000000000000000000000024
#00712:000000130000000000000013
#0071b:000013000000000000000013
#00719:000000000013000000000000
#00714:0013
#00717:000013
#00917:00130013
#00912:001300001300
#0091b:0013
#00916:000000000013000000000013
#00910:41
#0131b:001300001300
#01312:000000000013000000000013
#01316:00230023
#01317:0023
#01416:001300000000
#01412:000000000016000013000026
#01418:000016
#0141b:000000230013000000000013
#01417:23
#01518:001300000000
#01512:000000130000000000000013
#0151b:000000000013000000000013
#01515:0013
#01617:001300000000000000000000000000001300000000000000
#0161a:000000000014000000000000
#01612:000014000000000000130000
#01616:000000000000001400000000000000000000000000001300
#01712:00130013
#0171b:1313
#01716:0013
#0171a:000000000000000000000024
#0201b:000013
#02016:000000000024000000130000
#02017:000000000000000000000013
#02018:24
#0201a:00240000
#02014:002400000000
#02116:00141414
#0211b:00130013
#02112:1313
#02216:001300000000
#02217:130000000013000000000000
#0221b:000000000000000013000013
#02212:130013
#02315:000000131300
#0231b:00000013
#02318:000000000013001300000000
#02316:13
#02615:000013
#0261b:000023000000000000130000
#02618:000000000000000000000013
#02616:24240000
#0261a:000000000024000000000000
#02612:000000000024000000000000
#02816:000000000000000000000013
#02815:13
#02812:000013000000000000130000
#0281b:001300000000
#02817:00000013
#02916:000013
#0291b:23000023
#03017:13
#03012:130000000013000000000013
#03016:001300001300
#0301b:00230013
#03117:00130000
#03116:001300000013000000000000
#03112:000013
#0311b:000000231300
#03319:00000015
#03312:00000015
#03415:00000013
#03412:000000000000000000000000000000000000000000003313
#03418:00000013
#0341b:000000000000000000000000000000000000000000003313
#03712:00130013
#03718:000013
#0371b:000000130000000000000013
#03817:00130013
#0381b:0013
#0411b:13130013
#04112:1313
#04115:00130013
#04110:41
#04212:1313
#04218:130000000013000013000000
#0421b:000000130000000000000013
#04215:00130013
#04412:1300000000130000
#0441b:00001313
#04417:2300000000000013
#04416:0013
#04312:13
#04315:00130000
#0431b:23
#04318:002300000000
#04317:000000000023000000000000
#0451b:00130013
#04517:0013
#04512:1313
#04516:00130000
#04719:000000000014000000000000
#04718:001400000000
#0471a:000014
#04712:25
#04713:00250000
#04714:0025
#04916:001300000000
#0491b:000000130000000000130013
#04912:000000000000130000000016
#04917:000000000013000000000000
#05116:000000000000130000000013
#05116:000000000000000000000013
#05112:001300000000000013000000
#05117:001300000000000013000000
#0511b:000000000000130000000013
#0511b:000000000000000000000013
#05417:000000000000000000130013
#05412:000000000000000000000013
#05415:0013
#0541b:00130000
#05416:001300000000
#05512:000000000000000000000013000000000000000000000000
#05516:001300000000
#05517:000000000000000000000013000000000000000000000000
#0551b:001300000000
#0551a:000000000000000000000014
#0651a:000000000000000000000014
#06512:000000000000130000000014
#0651b:000000130000000013000000
#06517:0013
#06516:001300001300
#07015:000000000000000000130013
#07017:000000130013000000000000
#0701b:13
#07012:0013
#07118:16
#07117:00130013
#0711b:0013
#07212:00130013
#07216:0013
#0731b:13130013
#07312:130000000000130000000013
#07316:000013000000000013000014
#07317:000000000013000000000000
#07416:000014000014000000000000
#0741b:001300000000
#07412:000000000013000000000000
#07418:000000001313
#07415:000000000000000000130013
#07716:00130000
#07712:000000160016
#07718:000016
#0771b:13130000
#08216:001300001300
#08217:000000000013000000000013
#08219:00000013
#08214:000000000013
#0821b:001300000000
#08212:000000000013000000000000
#0831b:000000000013000000000000
#08312:130013
#08319:001300000000
#08316:00001324
#08314:00130000
#08517:0014
#0861a:0014
#08612:12
#0891a:0014
#08912:16
#09014:000000000000000000000018
#09012:0014
#09018:16
#09612:000000000013000000000000000000000000130000001300
#0961b:000000000000000000130013
#09617:000000000013000000000000000000000000000000000000
#0971b:000000000000000013000013
#09712:000000000000000013000013
#09715:00130000
#09718:00130000
#09814:00000013
#09819:00000013
#0981b:000000000000000000000013
#09812:000000000000000000000013
#11815:0013
#11812:130000000000000013000023
#11814:001300000000
#11819:001300000000
#1181b:130000000000000023000023
#11818:0023
#11915:001300000000000000000013
#11918:001300000000000013000013
#00318:001200000000
#00315:00120000
#00319:000000000012000000000000
#0031a:000012
#00312:000000000000000000000023
#0031b:000000000000000000000023
#00518:001200000000
#00514:00120000
#0051a:000000000012000000000024
#0051c:000012
#00512:000000000000000000000024
#00815:0013
#00818:0013
#00812:00000023
#0081b:00000023
#02715:1313
#02712:0013000000130000
#02718:00130013
#0271b:0000001300000013
#0251b:00001313
#02512:130000130000000000000023
#02517:13
#02516:0013
#02510:41
#03515:000000000013000000000000
#03512:330000000000001300000013
#03518:000000000013000000000000
#0351b:330000000000001300000000
#03916:13000024
#0391b:13
#03917:00130000
#03912:00130000
#05218:000000000000000000000016
#05216:000000000013000000000000
#05212:000000130000000023000013
#05217:000013
#0521b:00132300
#06615:000000000000000000000013
#06718:00130013
#0671b:0013
#06712:001300
#06917:001300000000
#06912:00130013
#06915:1313
#06916:000000000000000000000013
#1081b:000013000013000000230013
#10816:00231300
#10812:000000000000000000000026
#10915:000000000000000000000013
#10918:000000000000000000000013
#10912:000013000013000000230000
#10917:00231300
#11118:000000000013000000000000000000000000000000000000
#11115:000000000013000000000000000000000000000000000000
#11112:000000000000000000000014
#11117:000000000000000000240014
#00618:000000000000000000000013
#00615:000000000000000000000013
#00616:001200000000
#0061a:00120000
#00614:000000000012000000000000
#00612:000012
#09918:000000000000000000000000000000000013000000000000
#09916:00140000
#0991b:0023
#09912:0023
#09915:000000000000000000000000000000000023000000000000
#0991f:000000000000000000000021
#0101b:13
#01012:00131400
#0101a:000000141400
#01212:130000141400
#0121a:0014
#0121b:00130000
#01816:000000000024000013000000
#0181b:00000013
#01817:000000000000000000000013
#01814:24
#01812:00240000
#01818:002400000000
#0191b:00130013
#01912:130000000000130000000024
#01917:0013
#02412:13131300
#02416:00000014
#0241a:000034
#04617:000000130000000000000014
#04612:00130013
#04616:1313
#0461b:1313
#04818:000000130013000000000026
#04815:000013130000
#0481b:000013
#04812:000000000000000013000013
#05016:000000000013000000000013
#05017:001300000000
#05012:00130013
#0501b:000000000000130000000013
#0681b:13000013
#06815:13130000
#06818:000000000000130000000013
#06812:0013
#08112:000000130000000000130013
#08116:1313
#07616:00000013
#07612:0000130000000013
#0761b:1313
#07617:0000000000130000
#08715:0014
#08718:16
#08812:0014
#0881c:12
#09118:00000013
#09115:000013
#09112:000000000000000000000014
#0641b:00002313
#06412:000000000000230000000013
#06416:00000013
#11612:000000130000000013000000
#1161b:000000000000130000000013
#11617:001300001300
#11616:0013
#11615:000000000000000000000013
#11715:001300000000
#11718:000000000013000013001300
#11716:000000000000000000000013
#1171b:001300000000
#11712:000000000013000013000000
#03616:000013000000000000000013
#03614:000000000000001300000000000000000000000000000000
#03617:13000013
#0361b:001300000000
#03619:000000000000001300000000000000000000000000000000
#03612:00000013
#04015:000000000000001300000000
#04018:000000000000001300000000
#04012:240000000023000000000000
#04016:002400000000
#0401a:24
#0401b:000000000023000000000000
#05317:000000000013000000000013
#05312:000000000000130000000013
#05316:001300001300
#0531b:00130013
#07517:0013
#07516:00000013
#07512:00240000
#0751a:00240000
#01116:00130013
#0111b:001300001300
#01112:0013
#01117:000000000013000000000013
#10017:001300000000
#10012:000000230000000000230013
#1001b:0013
#10016:000000000013000000000000
#10018:000000000000000000000026
#10010:000000000000000000000041
#10217:000000000000130000000023
#1021b:001300000000000013000000
#10216:001300000000000013000000
#10212:000000000000130000000023
#1061b:000000000000000000000013000000000000000000000000
#10617:001300000000
#10616:000000000000000000000013000000000000000000000000
#10612:001300000000
#1061a:000000000000000000000024
#10117:000000000013000000000013
#10116:001300000000
#10112:000000000000130000000013
#1011b:00230023
#08412:000000000000000000000016
#0841f:000000000000000000000011
#08012:001300000000
#0791b:000000000013000000000000
#07918:26
#07912:00000026
#07910:41
#11512:00000013
#1151b:000000000000000000000013
#11517:00000013
#0621b:001300000000000000000000000000001300000000000000
#06212:000000000000000000000000130000000000001300000000
#06215:001300000000000000000000000000001300000000000000
#06218:000000000000130000000013
#0631b:001300000000001300000000
#06318:00130000
#06312:000000000000001300000000
#06315:00130000
#06115:0013
#06112:001300000000000000000000000000000000230000001300
#06118:001300000000000000000000000000000000000000001300
#0611b:0013
#0601b:000000000013000000000000000000000000230000001300
#06015:000000000000000000000013
#06016:000000000013000000000000000000000000000000000000
#0931b:000000130013000000130013
#09316:000000130000130000000013
#09417:00131300
#09412:000000130013000000130000
#09416:000000000000000000000013
#0941b:000000000000000000000013
#09217:000000000000000000000013
#09212:000000000000000000000013
#09214:000000000014000000000000
#0921a:000014
#09218:001400000000
#09512:000000130000000023000000
#09517:001300002300
#09516:000000000023000000000023
#0951b:000000000023000000000023
#05812:000000000000000000000013
#05817:000000000000000000000013
#0581b:000000130013000000130000
#05816:00131300
#05916:001300002300
#0591b:000000130000000023000000
#05912:000000000023000000000023
#05917:000000000023000000000023
#05614:001400000000
#05612:000014
#05618:000000000014000000000000
#0561b:000000000000000000000013
#05616:000000000000000000000013
#05610:000000000000000000000041
#05712:000000130013000000130013
#05717:000000130000130000000013
#12115:000000000014000000000000
#12117:001400001400
#12114:000000000000000000000024
#12112:002400002400
#1211a:000000000024000000000000
#12118:000000000000000000000024
#12018:00000013
#12015:000000001313
#1201b:0013
#12012:0013
#1201a:000000000000000000000024
#10712:000000000000000024000013
#10718:000000000024000000000026
#10714:002400000000
#1031b:000000130000000023000013
#10317:000000000013000000000000
#10316:000000130000000013000000
#10312:000000000000230000000026
#1041b:000000000000130000000023
#10417:001300001300
#10416:000000000013000000000023
#10412:00230023
#00216:001200000000
#00219:00120000
#00215:000000000012000000000000
#00214:000012
#00212:000000000000000000000024
#0021a:000000000000000000000024
#11312:001400000000000000000000000000001300000000000000
#1131b:000000000000000000000000000000000000001300000000
#11315:000000000000140000000023
#11317:001400000000000000000000000000000000000000000000
#1131a:0014
#11318:000023
#11412:001300000000001300000000
#11415:00130000
#1141b:000000000000001300000000
#11418:00230000
#11217:0014
#1121a:001400000000000000000000000000000000000000001400
#11215:001400000000000000000000000000000000240000001400
#11212:0014
#00012:000000000000000000000024
#0001a:000000000000000000000024
#1101b:000033000023000000000023
#11019:000023
#11014:000023
#11012:000033000023000000000023
#03215:00230000
#03219:000000000000000000000033
#03213:000000000033000000000000
#07816:002400002400
#0781a:2424
#07812:000024000024
#10516:000000000000000000230023
#1051b:000000000000000000000023
#10517:002300000000
#10512:00230000
#10518:0023
#01856:000000000014000000000000
#12154:000000000000000000000014
#12158:000000000000000000000014
#04155:00130013
#0415b:00530000
#04858:000000000000000000000016
#04952:000000000000230000000016
#08356:00000014
#09054:000000000000000000000058
#09052:0034
#09058:66
#09852:000000000000000000000013
#0985b:000000000000000000000013
#11852:230000000000000000000053
#1185b:230000000000000000000063
#11855:00130000
#11854:005300000000
#11859:006300000000
#11858:00130000
#11955:002300000000000000000063
#11952:00330000
#11958:002300000000000000000053
#1195b:00430000
#00452:000000000000000000000014
#0045a:000000000000000000000014
#00552:000000000000000000000014
#0055a:000000000000000000000014
#00752:000000000000000000000053
#0075b:000000000000000000000053
#00855:0053
#00858:0053
#00852:00000013
#0085b:00000013
#0155b:000000000053000000000053
#01555:0053
#0235b:00000013
#02356:53
#02252:000053
#02256:005300000000
#02257:63
#02855:530000000013000000000000
#02858:000000000013000000000000
#02852:005300000000
#0285b:005300000000
#02755:5353
#02752:0023000000230000
#02758:00630063
#0275b:0000002300000023
#0265a:000000000014000000000000
#02652:000000000014000000000000
#03052:000000000000000000000063
#03156:002300000000000000000000
#03155:000000000000000000000013
#03158:000000000000000000000013
#0315b:000053
#03152:000053
#0335b:00130000
#03352:00130000
#03455:00000063
#03452:000000000000150000000000000000000000000000000023
#03459:00150000
#03458:00000053
#0345b:000000000000000000000000000000000000000000000023
#03555:000000000053000000000000
#03552:000000000000002300000000
#03558:000000000063000000000000
#0355b:000000000000002300000000
#03956:63
#0395b:63
#03957:00230000
#03952:00230000
#04255:00130013
#04452:6300000000230000
#04457:6300000000000023
#0445b:00000053
#04456:0053
#05258:000000000000000000000016
#05556:005300000000
#05552:000000000000000000000023000000000000000000000000
#05557:000000000000000000000023000000000000000000000000
#0555b:005300000000
#0555a:000000000000000000000044
#06552:000000000000000000000014
#0655a:000000000000000000000014
#06655:000000000000000000000063
#06758:00000053
#06752:002300
#06957:006300000000
#06956:000000000000000000000053
#09652:000000000023000000000000000000000000000000005300
#0965b:000000000000000000000063
#09657:000000000023000000000000000000000000000000000000
#09755:00530000
#09758:00630000
#09752:000000000000000000000053
#0975b:000000000000000000000053
#05156:000000000000000000000013
#05156:000000000000000000000013
#0515b:000000000000000000000013
#0515b:000000000000000000000013
#05152:002300000000000000000000
#05157:002300000000000000000000
#00052:000000000000000000000014
#0005a:000000000000000000000014
#00152:000000000000000000000014
#0015a:000000000000000000000014
#00252:000000000000000000000014
#0025a:000000000000000000000014
#11158:000000000023000000000000000000000000000000000000
#11155:000000000023000000000000000000000000000000000000
#11152:000000000000000000000054
#11157:000000000000000000000054
#1105b:000000000000000000000053
#11052:000000000000000000000063
#05455:0053
#0545b:00530000
#05452:000000000000000000000053
#05457:000000000000000000000053
#09958:000000000000000000000000000000000023000000000000
#0995b:0053
#09959:000000000000000000000045
#09955:000000000000000000000000000000000023000000000000
#09952:000000000000000000000035
#10856:0023
#1085b:000000000000000000000063
#10852:000000000000000000000036
#00655:000000000000000000000053
#0105b:23
#0105a:000014
#01056:000000000000000000000014
#0165a:000044000044000000000000
#01657:002300000000000000000000000000000000000000000000
#01656:000000000000002400000000000000000000000000000000
#01652:000064000034000000000000
#0175b:2323
#01952:2323
#02056:000000000014000000000000
#02556:0023
#02557:23
#01452:000000000036000000000036
#01458:000046
#0375b:00230000
#03752:00230000
#05056:000000000000000000000063
#0505b:000000000000230000000063
#07158:16
#0685b:23
#06855:00630000
#06852:0023
#0745b:004300000000
#07452:000000000033000000000000
#07455:000000000000000000000053
#07458:000000000053
#07352:000000000000000000000033
#07656:00000063
#07652:0000530000000023
#0765b:6363
#07657:0000000000230000
#08557:0044
#0865a:0044
#08652:22
#08755:0034
#08758:66
#08852:0034
#0885c:22
#0895a:0044
#08952:56
#10754:003400000000
#10752:000000000000000034000053
#10758:000000000044000000000046
#1065a:000000000000000000000044
#1065b:000000000000000000000023000000000000000000000000
#10657:006300000000
#10656:000000000000000000000023000000000000000000000000
#10652:006300000000
#03656:002300000000
#03654:000000000000006300000000000000000000000000000000
#0365b:002300000000
#03657:630000000013000000000000
#03659:000000000000006300000000000000000000000000000000
#03652:000000000013000000000000
#04052:000000000053000000340000
#04055:000000000000002300000000
#04058:000000000000002300000000
#0405b:000000000063000000000000
#0405a:00000044
#05357:000000000000000000000023
#07557:0053
#07556:00000063
#07552:00140000
#0755a:00140000
#0475a:000064
#04756:000000000000000000000014
#01252:230014
#01256:000000000000000000000014
#08256:001300000000
#08257:000000000013000000000000
#08157:000000000000000000000013
#10157:000000000000000000000053
#10152:000000000000230000000053
#1025b:002300000000000000000000
#10256:002300000000000000000000
#10252:000000000000000000000013
#10257:000000000000000000000013
#1005b:0023
#10058:000000000000000000000016
#10352:000000000000000000000016
#11756:000000000000000000000053
#11755:001300000000
#11758:000000000013000000006300
#11752:000013
#1205b:00130000
#12052:00130000
#08452:000000000000000000000056
#10556:000000000000000000000053
#1055b:000000000000000000000053
#10552:00630000
#10558:0063
#10456:000000000000000000000023
#10955:000000000000000000000023
#10958:000000000000000000000023
#10957:0023
#08055:00000013
#08058:00000013
#08057:001300000000
#08052:001300000000
#0635b:002300000000002300000000
#06358:00530000
#06352:000000000000002300000000
#06355:00630000
#06252:000000000000330000000000000000000000002300000000
#06255:002300000000000000000000000000006300000000000000
#06258:000000330000000000000053
#0625b:002300000000000000000000000000000000000000000000
#06152:002300000000000000000000000000000000000000005300
#06158:002300000000000000000000000000000000000000005300
#06155:00430000
#0615b:00430000
#0605b:000000000023000000000000000000000000000000006300
#06055:000000000000000000000063
#06056:000000000023000000000000000000000000000000000000
#06452:0013
#0645b:0013
#09457:0013
#09456:000000000000000000000023
#09356:000000000000130000000063
#0935b:000000000000000000000063
#09257:000000000000000000000063
#09252:000000000000000000000063
#09254:000000000034000000000000
#0925a:000044
#09258:004400000000
#09152:000000000000000000000034
#09556:000000000000000000000053
#0955b:000000000000000000000053
#05952:000000000000000000000063
#05957:000000000000000000000063
#05857:000000000000000000000023
#05856:0013
#05654:003400000000
#05652:000034
#05658:000000000044000000000000
#0565b:000000000000000000000053
#05656:000000000000000000000053
#05757:000000000000130000000053
#05752:000000000000000000000053
#04552:5353
#04556:00530000
#0465b:6363
#04657:00630000
#1165b:000000000000000000000013
#07956:000000000013000000000000
#0795b:000000000013000000000000
#11452:002300000000002300000000
#11455:00630000
#1145b:000000000000002300000000
#11458:00630000
#1135b:000000000000000000000000000000000000002300000000
#11352:002400000000000000000000000000000000000000000000
#11357:002400000000000000000000000000000000000000000000
#11355:000000440000000000000063
#11358:000063
#1135a:00440000
#1125a:002400000000000000000000000000000000000000006400
#11255:002400000000000000000000000000000000000000006400
#11257:00340000
#11252:00340000
#1155b:0013
#11552:0013
#07057:000000000063000000000000
#001360:000000122200
#002380:000000122200
#003360:000000122200
#005360:000000122200
#006380:000000122200
#006350:000000000000000000000013
#007320:002300000000
#007320:000000000000000000000013
#008350:000053330000
#008320:000000000000005300230000
#0073b1:000000000000000000000013
#008381:000053330000
#0083b1:000000000000005300230000
#0103b1:13
#010371:00230000
#010321:000014
#010361:000000000000000000540024
#012321:13
#012361:00230000
#0123a1:000014
#012361:000000000000000000540024
#0153b1:000000000013000000000000
#015371:00000023
#015350:0013
#015320:00000023
#0153b0:000000000000000000000013
#016370:005300000000000000000000000000000000000000000000
#0163a0:002400000000
#016321:000014000024000000000000
#016361:000000000000005400000000000000000000000000000000
#0173b1:13
#017371:00230000
#0173b1:0013
#017371:00000023
#019321:13
#019361:00230000
#019321:0013
#019361:00000023
#022371:13
#0223b1:002300000000
#022360:001300000000
#022320:000000000023000000000000
#022320:000013
#022360:000000000000000000000023
#023360:13
#023320:000000000023000000000000
#024360:14
#0243a0:000000000000000034240000
#025370:13
#0253b0:00230000
#025360:0013
#025320:00000023
#027350:13230000
#027320:0053000000000000
#027381:00132300
#0273b1:0000005300000000
#027350:00001323
#027320:0000000000530000
#027381:00000013
#0273b1:0000000000000053
#028381:23
#028350:130000000023000000000000
#028320:003300000000
#0283b1:001300000000
#028381:000000000023000000000000
#029361:00130000
#029321:0023
#0293b0:00130000
#029370:0023
#030370:000000000013000000000000
#0303b0:000023
#030320:000000000000000000000013
#031360:005300000000000000000000
#031320:00230000
#031320:000013
#031350:000000000000000000000023
#0313b1:000013
#031381:000000000000000000000023
#032381:000000130033330000000000
#0323b1:00000033
#032391:000000000000000000000033
#033381:33
#0333b1:005300230000000000000000
#032350:000000130000000000330033
#032330:000000000033000000000000
#032320:0033
#033350:33
#033320:005300230000000000000000
#034390:15250000
#034321:15250000
#034351:00000013
#034321:000000000000000000000000000000000000000000003353
#035321:330000000000005300000000
#035351:000033000033000000230000
#034380:00000013
#0343b0:000000000000000000000000000000000000000000003353
#0353b0:330000000000005300000000
#035380:000033000033000000230000
#036370:130000000023000000000000
#0363b0:003300000000
#036390:000000000000005300000000000000000000000000000000
#036361:001300000000
#036341:000000000000005300000000000000000000000000000000
#036321:000000000023000000000000
#0373b1:13330000
#037381:0023
#037320:00130000
#037350:0023
#038360:130053330053
#038320:005300330000005300330000
#039360:3323
#039320:00530000
#0393b1:1323
#039371:00530000
#040321:000000000013000000240000
#040351:000000000000005300000000
#0403b0:000000000013000000000000
#040380:000000000000005300000000
#0403a0:00000024
#0413b0:00130000
#041370:0023
#043370:000000000013000000000023
#0433b0:000033
#043321:000000000013000000000023
#043361:000033
#044321:13
#044361:00230000
#044370:13
#0443b0:00230000
#044360:00001323
#044320:0000000000530000
#0443b1:00000013
#044371:0000000000000053
#0453b1:23
#045320:1333
#045360:00330023
#0463b0:1333
#046370:00330023
#0473a0:000014
#047360:000000000000000000000024
#049320:0013
#049360:00000023
#0503b0:0013
#050370:00000023
#050360:000000000000000000000013
#051320:005300000000000000000000
#051360:00230000
#0503b1:000000000000000000000013
#051371:005300000000000000000000
#0513b1:00230000
#053371:000000000000000000000013
#0543b1:002300000000
#0543b1:00130000
#054381:0023
#054350:0013
#054320:00000023
#054320:000000000000000000000013
#055360:000033000000000000230000
#055320:000000000000000000000053000000000000000000000000
#054371:000000000000000000000013
#0553b1:000033000000000000230000
#055371:000000000000000000000053000000000000000000000000
#0563b1:000000000000000000000013
#057371:002300000000
#056360:000000000000000000000013
#057320:002300000000
#057320:000000000000000000000013
#058360:002300000000
#057371:000000000000000000000013
#0583b1:002300000000
#058371:000000000000000000000013
#0593b1:002300000000
#059371:000000000000000000000013
#0603b1:000000000053000000000000000000000000000000000000
#060371:0023
#059320:000000000000000000000013
#060360:000000000053000000000000000000000000000000000000
#060320:0023
#060350:000000000000000000130033
#061320:005300000000000000000000000000000000000000000000
#061350:00230000
#0603b1:000000000000000000130033
#061381:005300000000000000000000000000000000000000000000
#0613b1:00230000
#061381:000000000000000000130033
#0623b1:005300000000000000000000000000000000000000000000
#062381:00230000
#061320:000000000000000000130033
#062350:005300000000000000000000000000000000000000000000
#062320:00230000
#062350:000000000000000013000023
#062320:000000000000000000000000000000000000005300000000
#062381:000000000000000000000013
#0633b1:005300000000005300000000
#063381:000000330000000000000033
#0643b1:5323
#063350:000000130000000000000033
#063320:000000000000005300000000
#064320:5323
#064370:000000000000000000000013
#0653b0:002300000000
#066350:000000000000000000000013
#067320:005300
#067350:00000023
#067381:00000013
#0683b1:53
#068381:00230000
#068350:00130023
#068320:0053
#069370:001300000000
#0693b0:00000023
#069360:000000000000000000000013
#070320:00230000
#070370:000000000013000000000000
#0703b0:00000023
#071320:00130033
#071360:0033
#072360:23
#0723b1:1333
#072371:00330023
#074381:000000000013
#0753a1:00240000
#074350:000000000000000000000013
#075320:00240000
#075370:0013
#0753b0:00000023
#075361:00000013
#076321:23
#0763b0:13
#076370:00230000
#076321:00130000
#076361:0023
#0763b0:00001323
#076370:0000000000530000
#076361:00000013
#076321:0000000000000053
#077361:23
#079321:001300000000
#079361:000000530023000000000000
#0793b1:000000000000000000000013
#080371:532300000000
#080321:000000000013000000000000
#080351:00003323
#0803b0:000000000013000000000000
#080380:00003323
#0813b0:133300333300
#081370:000000330033000000330023
#084320:000000000000000000000016
#086320:52
#087320:26
#087381:16
#0883c1:52
#089381:26
#089320:16
#090320:22
#090381:16
#0903c1:000000000000000000000022
#090340:000000000000000000000018
#091370:0022
#092370:000000000000000000000013
#0933b0:002300000000
#092321:000000000000000000000013
#093361:002300000000
#093361:000000000000000000000013
#094321:002300000000
#0933b0:000000000000000000000013
#094370:002300000000
#094360:000000000000000000000013
#095320:002300000000
#0953b0:000000000000000000000013
#096370:000000000053000000000000000000000000000000000000
#0963b0:0023
#095361:000000000000000000000013
#096321:000000000053000000000000000000000000000000000000
#096361:0023
#0963b1:000000000000000000000013
#097381:00330000
#0973b1:0023
#096320:000000000000000000000013
#097350:00330000
#097320:0023
#097320:000000000000000000000013
#098350:0000005323000000
#0973b1:000000000000000000000013
#098381:0000005323000000
#0993b1:0013
#099381:000000000000000000000000000000000053000000000000
#099391:000000000000000000000025
#099350:000000000000000000000000000000000013000000000000
#099320:000000000000000000000025
#1003b0:0013
#100370:00000023
#101320:0013
#101360:00000023
#101370:000000000000000000000013
#1023b0:005300000000000000000000
#102370:00230000
#101321:000000000000000000000013
#102361:005300000000000000000000
#102321:00230000
#104361:000000000000000000000013
#105321:002300000000
#105321:00130000
#105351:0023
#105380:0013
#1053b0:00000023
#1053b0:000000000000000000000013
#106370:000033000000000000230000
#1063b0:000000000000000000000053000000000000000000000000
#105361:000000000000000000000013
#106321:000033000000000000230000
#106361:000000000000000000000053000000000000000000000000
#107321:000000000000000000000013
#108361:002300000000
#108361:0013
#108321:00000023
#1083b1:000000000000000000000013
#109371:002300000000
#109371:0013
#1093b1:00000023
#109381:000000000000000000000013
#1103b1:000033230000000000000000
#109350:000000000000000000000013
#110320:000033230000000000000000
#1103b0:000000000000000000000013
#111380:000000000053000000000000000000000000000000000000
#1113b0:0023
#110321:000000000000000000000013
#111351:000000000053000000000000000000000000000000000000
#111321:0023
#111371:000000000000000000140034
#1123a1:005400000000000000000000000000000000000000000000
#112371:00240000
#111320:000000000000000000140034
#112350:005400000000000000000000000000000000000000000000
#112320:00240000
#112350:000000000000000000140034
#113320:005400000000000000000000000000000000000000000000
#113350:00240000
#1123a1:000000000000000000140034
#113371:005400000000000000000000000000000000000000000000
#1133a1:00240000
#113381:000000000000000013000023
#1133b1:000000000000000000000000000000000000005300000000
#113350:000000000000000000000013
#114320:005300000000005300000000
#114350:000000330000000000000033
#115320:5323
#114381:000000130000000000000033
#1143b1:000000000000005300000000
#1153b1:5323
#115361:000000000000000000000013
#116321:002300000000
#117381:000000000013
#1183b1:53
#118391:003300000000
#118381:00230000
#117360:000000000000000000000013
#118320:53
#118340:003300000000
#118350:00230000
#118320:000000000000000000000013
#119350:005300000000000000000000
#119320:00230000
#1183b1:000000000000000000000013
#119381:005300000000000000000000
#1193b1:00230000
#119351:000000000000000000130033
#120321:53230000
#119380:000000000000000000000013
#1203b0:53230000
