This file was generated by Ched 2.7.0.0.
#TITLE ""
#ARTIST ""
#DESIGNER ""
#DIFFICULTY 0
#PLAYLEVEL
#SONGID ""
#WAVE ""
#WAVEOFFSET 0
#JACKET ""
#REQUEST "ticks_per_beat 480"
#00002: 4
#BPM01: 218
#00008: 01
#TIL00: ""
#VOLUME: ""
#HISPEED 00
#MEASUREHS 00
#00712:000000000000000000000013
#0071b:000013330033330000000000
#00918:000013330000000000000000
#00915:000000000000000000000013
#0091b:000000000033330000000000
#00910:41
#02018:000013
#02015:00000013
#02012:340034340000000000000000
#03015:001300000000
#0301b:000000230013000000000000
#03012:000000000000000000000013
#04714:000014000014000000000000
#04718:24242400
#04915:000013000013000000000000
#0491b:00130000
#04912:000000000000000000000014
#07117:00130000
#07114:0013
#07116:00000013
#07112:00130000
#07119:0013
#0711b:13000013
#07115:13
#07414:001400000000
#07417:000000000014000000000000
#0741a:00000014
#07412:00000014
#0771a:000000140014
#07714:000014
#09615:00000013
#09618:000000000000000000000013
#09617:000000000014000000000000000000000000000000000000
#09718:0013
#09715:000013
#09712:000000000000000000000013
#09818:00000013
#09815:000000000000000000000013
#11918:001300000000000013000013
#11915:001300000000000000130000
#00812:0013
#00815:000000000013000000000000000000000000230000000000
#06615:000000000013000000000013
#06618:001300001300
#06718:00000013
#06712:001300
#06912:331300000000
#06918:000000000000000000130033
#0701b:000000330013000000000000
#07018:000033
#10812:000013000000000000000024
#10818:00130000
#1081b:0013
#10815:000000000013000000000000
#05318:000000003313330000000000000000000000000000001300
#05315:00000013
#0531b:000000000033000000000000
#12015:0013
#12018:000013
#12012:000000000000000000000026
#0231a:14
#02316:0014
#04614:000000000000000000000014
#04615:00130000
#04618:1313
#04612:13
#0461b:00000013
#05215:00130000
#0521b:000000000000000000000013
#05218:000000131300
#05212:000000232300
#0681b:0013000000000000
#06815:0013
#06812:000000000000000000330033
#0991a:00142400
#09912:00142400
#0991f:000000000000000000000021
#1171a:001300000000
#11713:000000000013000000000000
#11718:000013
#11715:000000000000000000000013
#11714:001300000000
#11719:000000000013000000000000
#11712:000013
#03419:00000013
#03414:00000013
#0341b:000000000000000000000033
#03412:000000000000000000000033
#0351b:330033130033000000000000
#03512:330033130033000000000000
#0501b:000000000000000000000013
#05018:000013000013000000000000
#05012:00130000
#05118:000000000013330000000000000000003300000000000000
#0511b:0013
#00518:00120000
#00516:001200000000
#00512:000000000000000000000024
#0051b:000000000032320000000000
#00616:00120000
#00618:001200000000
#00613:000000000032320000000000
#02518:130000000013000000000024
#02515:0013
#02510:41
#02815:130000000000000000000013
#02818:13
#03812:1313
#03815:00130013
#03818:1313
#0381b:00130013
#03918:13
#0391b:00130000
#03912:13
#03915:00130000
#0391a:00000024
#04412:1313
#04415:00000013
#0441b:13
#04518:1313
#0451b:00130000
#04515:00000013
#04512:13
#05415:00000013
#0541b:000000003313330000000000000000000000000000000000
#05412:000000000000000000000033
#05512:001300000000
#06118:13
#06112:00000013
#06115:000000000000000000000033
#0601b:00000013
#06015:000000000014000000000000000000000000000000000000
#06018:000000000000000000000033
#06312:000000000000001300000000
#06315:00130000
#06218:0013
#06215:13
#0621b:000033
#07212:13000013
#07218:13
#0721b:00130000
#07216:00130000
#07219:0013
#07217:00000013
#07214:0013
#07512:00241300
#07517:0013
#07519:00000013
#07514:00000013
#0751a:00240000
#0761b:13130000
#07616:13130000
#07619:0013
#07614:0013
#07612:00000013
#07617:00000013
#0791b:00000013
#07912:13
#07918:000000000000000000000033
#07915:003300000000
#07910:41
#08012:000000000013000000000000
#08015:0033
#1091b:000013000000000000000013
#10915:00130000
#10912:0013
#10918:000000000013000000000000
#11117:000000000014000000000000000000000000000000000000
#11112:00000024
#11115:000000000000000000000034
#01115:000013330000000000000000
#01118:000000000000000000000013
#01112:000000000033330000000000
#01512:00140000
#01514:00000014
#0151a:0014
#03718:13
#03618:00000013
#03614:001300000000
#03619:001300000000
#03615:000000000000000000000013
#04016:000000000014000000000000
#04018:003400000000
#0401a:34
#01618:000013
#01615:00000013
#01612:000000000014000000000000
#01319:00000013
#0131b:00130000
#0131a:0013
#01315:00230000
#01314:0023
#01313:00000023
#01414:000014
#01418:000000000014000000000024
#01412:23
#00118:001300000000
#00112:00130000
#0011a:000000000000000000000024
#00115:000000000033330000000000
#00215:001300000000
#0021b:00130000
#00212:000000000000000000000024
#00218:000000000033330000000000
#00318:001300000000
#00312:00130000
#0031a:000000000000000000000024
#00315:000000000033330000000000
#0211a:14000014
#02116:0014
#02112:00140000
#02415:000000000000000000000013
#02912:000013
#0291b:23
#02918:00000023
#03115:000013
#0311b:0023
#06515:000000000000000000000013
#0651b:000000003300331300000000330000000000000000000000
#06415:00000013
#06418:000000000000000000000013
#06412:0023
#0641b:0023
#08217:001400001400
#08212:000000000014000000000014
#0561a:001400000000
#05616:000000000014000000000000
#05612:000014
#0561b:000000000000000000000013
#05610:000000000000000000000041
#09212:000014000000000000000013
#09216:000000000014000000000000
#0921a:000014
#10018:000013000013000000000000
#10012:00130000
#1001a:000000000000000000000024
#10010:000000000000000000000041
#10318:00130000
#10312:000000000000000000000013
#10315:000000131300
#1031b:000000232300
#10112:000000000000000000000013
#10115:000013000013000000000000
#1011b:00130000
#10215:000000000013330000000000000000003300000000002300
#10212:0013
#1061b:001300000000
#10418:00000013
#10415:000000003313330000000000000000000000000000002300
#10412:000000000033000000000000
#10512:000000003313330000000000000000000000000000000000
#10518:00000023
#1051b:000000000000000000000033
#1141b:000000000000001300000000
#11415:000000000000000000000023
#11418:00230000
#1161b:000000000000000000000013
#11612:000000003300331300000000330000000000000000000000
#11615:000000000000000000000013
#11518:00000013
#11515:000000000000000000000013
#01918:0013
#01915:13
#01912:000000000000000000000024
#01815:000013
#01818:00000013
#0181a:340034340000000000000000
#01718:13
#01715:0013
#0171a:000000000000000000000024
#02718:1313
#0271b:00130013
#02715:1313
#02712:00130013
#02612:000013
#02614:24240000
#02618:000024000024000000000000
#02615:000000000000000000330033
#04818:00140000
#0481a:000000000034340000000024
#08112:000000000000000000000014
#08612:1334
#08412:000000000000000000000016
#0841f:000000000000000000000011
#08718:16
#0871a:0034
#0881b:13
#0881a:0034
#08912:1634
#09012:1334
#11215:14
#1121a:00000024
#11217:000000000000000000000034
#11317:14
#11315:0023
#11312:000033
#05818:00000013
#05815:000000000000000000000013
#05812:000033330000000000000000
#05715:00000013
#05718:000033330000000000000000
#05712:000000000000000000000033
#09415:00000013
#09418:000000000000000000000013
#0941b:000033330000000000000000
#09318:00000013
#09315:000033330000000000000000
#0931b:000000000000000000000033
#04112:13
#04118:00130013
#04115:0013
#0411b:13
#04110:41
#04212:13
#04215:00130013
#04218:0013
#0421b:13
#04315:000000000033130000000000
#0431b:130033330000000033000033
#04318:000000000033130000000000
#04312:230033330000000033000033
#00416:002400002400
#00412:000000000024000000000000
#0041a:000000000000000000000024
#12112:000000000026000000000026
#12118:002600002600
#1181b:000000000000000000000023
#11818:0023
#11815:000023
#11812:000000000000000000000023
#1071a:000000000000000000000024
#10712:002400000000
#10718:000000000024000000000000
#10714:000024
#11012:000000000024000000000000
#11016:000024
#1101a:000000000000000000000024
#11018:003300000000
#07818:002400000000
#07812:242400
#07814:000024
#0781a:000000240024
#00012:000000000000000000000024
#0831a:00000024
#05916:000024
#0591a:000000000024000000000000
#05912:000033000000000000000024
#09516:000024
#09512:000000000024000000000000
#0951a:000000000000000000000024
#0951b:003300000000
#0221a:000000000000000000000034
#02214:003400000000
#08512:0034
#03218:000000000033000000000000
#12152:000000000000000000000016
#0485a:000000000000000000000014
#04858:00540000
#04952:000000000000000000000014
#09855:000000000000000000000013
#11958:002300000000000000000053
#1195b:00430000
#11955:002300000000000000000000
#11952:00330000
#1185b:000000000000000000000063
#11852:000000130000000000000053
#0045a:000000000000000000000014
#00552:000000000000000000000014
#00558:00620000
#00752:000000000000000000000053
#0075b:005300000000
#06655:000000000000000000000063
#06758:00000053
#06752:002300
#09658:000000000000000000000063
#09657:000000000024000000000000000000000000000000000000
#05358:000000000023000000000000000000000000000000005300
#09755:000053
#09752:000000000000000000000053
#0995a:0054
#09952:0064
#09954:000000000000000000000014
#09958:000000000000000000000014
#0235a:54
#02356:0024
#0685b:0023000000000000
#06855:0053
#06958:00000053
#06952:002300000000
#03459:00000053
#03452:00160000
#03454:00000063
#0355b:00230000
#03552:00230000
#04754:000000000000000000000014
#0505b:000000000000000000000063
#05158:000000000023000000000000000000000000000000001300
#0515b:0053
#11755:000000000000000000000053
#08055:00000013
#08052:000000000063000000000000
#00656:00520000
#00852:0053
#00855:000000000023000000000000000000000000130000000000
#02558:53
#02555:0063
#0305b:000000000053000000000000
#03052:000000000000000000000063
#03958:53
#0395b:00230000
#03952:53
#03955:00230000
#0395a:00000054
#05455:00000063
#0545b:000000000023000000000000000000000000000000000000
#05552:006300000000
#06158:23
#0615b:00430000
#06152:00000053
#0605b:00000063
#06055:000000000024000000000000000000000000000000000000
#06352:000000000000002300000000
#06355:00630000
#06452:0013
#0645b:0013
#06458:000000000000000000000063
#06258:0053
#06255:23
#06252:00330000
#07457:000000000014000000000000
#07454:001400000000
#0755a:00140000
#07552:00140000
#0795b:00000063
#07952:63
#1085b:0053
#10852:000000000000000000000014
#10952:0063
#1095b:000000000000000000000053
#11157:000000000024000000000000000000000000000000000000
#11152:00000064
#1105a:000000000000000000000054
#1205b:00130000
#00958:005300000000
#00955:000000000000000000000063
#01155:006300000000
#01158:000000000000000000000053
#04056:000000000054000000000000
#0405a:00000014
#01652:000000000014000000000000
#0165a:001400000000
#01458:000000000000000000000014
#00152:00630000
#0015a:000000000000000000000014
#0025b:00530000
#00252:000000000000000000000014
#00352:00630000
#00052:000000000000000000000014
#03152:000000000000000000000013
#03155:000053
#0525b:000000000000000000000053
#0655b:000000000000002300000000000000000000000000000000
#07357:000000000000000000000014
#07652:00000053
#07657:00000053
#0835a:00000014
#10152:000000000000000000000053
#10255:000000000023000000000000000000000000000000001300
#10252:0063
#1065b:005300000000
#10352:000000000000000000000063
#10455:000000000023000000000000000000000000000000005300
#10552:000000000023000000000000000000000000000000000000
#10558:00000053
#1145b:000000000000002300000000
#11458:00630000
#11555:000000000000000000000053
#11552:0013
#1155b:0013
#11652:000000000000002300000000000000000000000000000000
#1125a:00000064
#11255:24
#11252:00340000
#11355:0063
#11357:24
#1135a:00440000
#0245a:44
#01958:0063
#01952:000000000000000000000064
#01955:63
#02055:000000000014000000000000
#01758:53
#01755:0053
#0175a:000000000000000000000054
#01857:000000000014000000000000
#02758:6363
#0275b:00230023
#02755:5353
#02752:00230023
#02858:63
#02855:53
#0285b:000000000013000000000000
#02852:000000000013000000000000
#02652:000053
#02658:000000000014000000000000
#0705b:000000000053000000000000
#08652:23
#08452:000000000000000000000056
#08758:66
#0885b:23
#08952:56
#09052:23
#0565b:000000000000000000000053
#05855:000000000000000000000053
#05852:0013
#05952:000000000000000000000064
#05758:0013
#05755:00000053
#09252:000000000000000000000063
#09458:000000000000000000000063
#0945b:0013
#09358:00000063
#09355:0013
#0955a:000000000000000000000054
#1005a:000000000000000000000014
#0335b:00130000
#1075a:000000000000000000000014
#03652:000000000013000000000000
#03654:005300000000
#03659:006300000000
#0365b:000000000013000000000000
#01252:000000000000000000000013
#0105b:000000000000000000000013
#04355:0023
#04352:53
#0435b:53
#04358:0023
#04452:63
#0445b:53
#001320:00130000
#001350:000000000033330023000000
#0023b0:00130000
#002380:000000000033330023000000
#003320:00130000
#003350:000000000033330023000000
#005380:00120000
#0053b0:000000000032320022000000
#006360:00120000
#006330:000000000032320022000000
#0063b0:000000000000000000000013
#0073b0:000033330033330000000000
#007380:000023
#007320:000000000000000000000013
#008350:000000000053000000000000000000000000230000000000
#008320:0033
#009380:000013330000000000000000
#0093b0:000000000033330023000000
#009350:000000000000000000000013
#010320:00230000
#010380:000000133300
#0103b0:000000000000000000530023
#011350:000013330000000000000000
#011320:000000000033330023000000
#011380:000000000000000000000013
#0123b0:00230000
#012350:000000133300
#012320:000000000000000000530023
#014380:13
#0143b0:00230000
#014321:13
#014351:00230000
#015381:000000000000000000000014
#0163a1:542400000000
#017381:13
#0173b1:00230000
#017351:0013
#017321:00000023
#0173a1:000000000000000000000014
#0183a1:340034340000000000000000
#018371:000000000024000000000000
#019351:13
#019321:00230000
#019381:0013
#0193b1:00000023
#019321:000000000000000000000014
#020321:340034340000000000000000
#020351:000000000024000000000000
#022321:14
#022341:000034000024000000000000
#022381:000014
#0223a1:000000000000000000000034
#0233a1:34
#023361:0054
#0243a1:24
#025381:13
#0253b1:00230000
#025351:0013
#025321:00000023
#026321:000013
#026351:000000000000000000330033
#027351:3333
#027321:00330033
#028351:33
#028321:000033000023000000000000
#027380:1333
#0273b0:00330033
#028380:33
#0283b0:000033000023000000000000
#0293b0:13230000
#029380:00000013
#030380:23
#0303b0:000000130033000000000000
#030380:00000023
#030320:000000000000000000000013
#031350:00230000
#031350:000013
#031320:000000000000000000000023
#032380:000000130033330000000033
#0323b0:000000000000000053330000
#033380:33
#0333b0:000053230000000000000000
#033320:00000016
#034320:36260000
#034390:00000013
#0343b0:000000000000000000000033
#0353b0:330033530033000000000000
#035380:00000023
#034341:00000013
#034321:000000000000000000000033
#035321:330033530033000000000000
#035351:00000023
#036341:133300000000
#036321:000000000023000000000000
#036390:133300000000
#0363b0:000000000023000000000000
#037320:00130023
#037350:0033
#0373b1:00130023
#037381:0033
#039381:1323
#0393b1:00530000
#039320:1323
#039350:00530000
#0393a0:00000014
#0403a0:34000024
#040380:003400000000
#040360:000000000034000000000000
#043320:130033330000000033000033
#043350:000000000033530000000000
#044320:33
#044350:00230000
#0433b1:130033330000000033000033
#043381:000000000033530000000000
#0443b1:33
#044381:00230000
#047341:000000000000000014000024
#048381:00140000
#0483a1:000000000034340034000024
#0493b1:0013
#049381:00000023
#050321:0013
#050351:00000023
#0503b1:000000000000000000000013
#051381:000000000053330000000000000000003300000000002300
#0513b1:0033
#0523b1:000000000000000000000013
#053381:000000003353330000000000000000000000000000000000
#0533b1:000000000033230000000000
#053381:000000000000000000000013
#0543b1:000000003353330000000000000000000000000000000000
#054381:0023
#054351:00000013
#054321:000000000000000000000033
#055321:003300000000
#055361:000000000000000000000023
#0563b1:000000000000000000000013
#057381:000033330033230000000000
#057351:00000013
#057321:000000000000000000000033
#058321:000033330033230000000000
#058351:000000000000000000000013
#059321:000033230000000000000000
#059321:000000000000000000000014
#060351:000000000054000000000000000000000000000000000000
#060321:0024
#0603b1:00000013
#060381:000000000000000000000033
#061381:53
#0613b1:00230000
#061321:00000013
#061351:000000000000000000000033
#062351:53
#062321:00230000
#062381:0013
#0623b1:000000000000000033000023
#063351:000000130000000000000033
#063321:000000000000005300000000
#064321:0023
#063380:000000000000000000000013
#0643b0:0023
#064380:000000000000000000000013
#0653b0:000000003300335300000000330000000000000000000000
#065380:000023
#066350:000000000000000000000013
#067320:005300
#067350:00000023
#067381:00000013
#0683b1:0053000000000000
#068381:0023
#068350:0013
#068320:000000000000000000330033
#069320:333300000000
#069350:00000023
#069381:000000000000000000130033
#0703b1:000000330033000000000000
#070381:000000000000000033230000
#0733a1:143400343400
#073371:000000340034000000340024
#075321:14240000
#0753a0:14240000
#076320:00000013
#077360:00230000
#076371:00000013
#0773b1:00230000
#079321:13
#079351:000033000023000000000000
#0793b1:00000013
#079381:000000000000000000000033
#080381:002300000000
#080321:000000000013000000000000
#080351:00003323
#0813a1:140000000000000000000000000000000000000000000000000000000000000000000000000000000000000000000000000000000000000000000000000000000000000000000000000000000000000000000000000000000000000000000000000000000000000000000000000000000000000000000000000000000000000000000000000000000000000000000000000000000000000000000000000000000000000000000000000000000000000000000000000000000000000000000000000000000000000000000000000000000000000000000000000000000000000000000000000000000000000000000000000000000000000000000000000000000000000000000000000000000000000000000000000000000000000000000000000000000000000000000000000000000000000000000000000000000000005400000000000000000000000000000000000000000000000000000000000000000000000000000000000000000000000000000000000000000000000000000000000000000000000000000000000000000000000000000000000000000000000000000000000000000000000000000000000000000000000000000000000000000000000000000000000000000000000000000000000000000000000000000000000000000000000000000000000000000000000000000000000000000000000000000000000000000000000000000000000000000000000000000000000000000000000000000000000000000000000000000000000000000000000000000000000000000000000000000000000000000000000000000000000000000000000000000000000000000000000000000000000000000000000000000000000000000000000000000000000000000000000000000000000000000000000000000000000000000000000000000000000000000000000000000000000000000000000000000000000000000000000000000000000000000000000000000000000000000000000000000000000000000000000000000000000000000000000000000000000000000000000000000000000000000000000000000000000000000000000000000000000000000000000000000000000000000000000000000000000000000000000000000000000000000000000000000000000000000000000000000000000000000000000000000000000000000000000000000000000000000000000000000000000000000000000000000000000000000000000000000000000000000000000000000000000000000000000000000000000000000000000000000000000000000000000000000000000000000000000000000000000000000000000000000000000000000000000000000000000000000000000000000000000000000000000000000000000000000000000000000000000000000000000000000000000000000000000000000000000000000000000000000000000000000000000000000000000000000000000000000000000000000000000000000000000000000000000000000000000000000000000000000000000000000000000000000000000000000000000000000000000000000000000000000000000000000000000000000000000000000000000000000000000000000000000000000000000000000000000000000000000000000000000000000000000000000000000000000000000000000000000000000000000000000000000000000000000000000000000000000000000000000000000000000000000000000000000000000000000000000000000000000000000000000000000000000000000000000000000000000000000000000000000000000000000000000000000000000000000000000000000000000000000000000000000000000000000000000000000000000000000000000000000000000000000000000000000000000000000000000000000000000000000000000000000000000000000000000000000000000000000000000000000000000000000000000000000000000000000000000000000000000000000000000000000000000000000000000000000000000000000000000000000000000000000000000000000000000000000000000000000000000000000000000000000000000000000000000000000000000000000000000000000000000000000000000000000000000000000000000000000000000000000000000000000000000000000000000000000000000000000000000000000000000000000000000000000000000000000000000000000000000000000000000000000000000000000000000000000000000000000000000000000000000000000000000000000000000000000000000000000000000000000000000000000000000000000000000000000000000000000000000000000000000000000000000000000000000000000000000000000000000000000000000000000000000000000000000000000000000000000000000000000000000000000000000000000000000000000000000000000000000000000000000000000000000000000000000000000000000000000000000000000000000000000000000000000000000000000000000000000000000000
#081391:000000000000000000000000000000000000000000000000000000000000000000000000000000000000000000000000000000000000000000000000000000000000000000000000000000000000000000000000000000000000000000000000000000000000000000000000000000000000000000000000000000000000000000000000000000000000000000000000000000000000000000000000000000003400000000000000000000000000000000000000000000000000000000000000000000000000000000000000000000000000000000000000000000000000000000000000000000000000000000000000340000000000000000000000000000000000000000000000000000000000000000000000000000000000000000000000000000000000000000000000000000000000000000000000000000000000000000000000000000000000000000000000000000000000000000000000000000000000000000000000000000000000000000000000000000000000000000000000000000000000000000000000000000540000000000000000000000000000000000000000000000000000000000000000000000000000000000000000000000000000000000000000000000000000000000000000000000000000000000000000000000000000000000000000000000000000000000000000000000000000000000000000000000000000000000000000000000000000000000000000000000000000000000000000000000000000000000000000000000000000000000000000000000000000000000000000000000000000000000000000000000000000000000000000000000000000000000000000000000000000000000000000000000000000000000000000000000000000000000000000000000000000000000000000000000000000000000000000000000000000000000000000000000000000000000000000000000000000000000000000000000000000000000000000000000000000000000000000000000000000000000000000000000000000000000000000000000000000000000000000000000000000000000000000000000000000000000000000000000000000000000000000000000000000000000000000000000000000000000000000000000000000000000000000000000000000000000000000000000000000000000000000000000000000000000000000000000000000000000000000000000000000000000000000000000000000000000000000000000000000000000000000000000000000000000000000000000000000000000000000
#081381:000000000000000000000000000000000000000000000000000000000000000000000000000000000000000000000000000000000000000000000000000000000000000000000000000000000000000000000000000000000000000000000000000000000000000000000000000000000000000000000000000000000000000000000000000000000000000000000000000000000000000000000000000000000000000000000000000000000000000000000000000000000000000000000000000000000000000000000000000000000000000000000000000000000000000000000000000000000000000000000000000000000000000000000000000000000000000000000000000000000000000000000000000000000000000000000000000000000000000000000000000000000000000000000000000000000000000000000000000000000000000000000000000000000000000000000000000000000000000000000000000000000000000000000000000000000000000000000000000000000000000000000000000000003400000000000000000000000000000000000000000000000000000000000000000000000000000000000000000000000000000000000000000000000000000000000000000000000000000000000000340000000000000000000000000000000000000000000000000000000000000000000000000000000000000000000000000000000000000000000000000000000000000000000000000000000000000000000000000000000000000000000000000000000000000000000000000000000000000000000000000000000000000000000000000000000000000000000000000000000000000000000000000000540000000000000000000000000000000000000000000000000000000000000000000000000000000000000000000000000000000000000000000000000000000000000000000000000000000000000000000000000000000000000000000000000000000000000000000000000000000000000000000000000000000000000000000000000000000000000000000000000000000000000000000000000000000000000000000000000000000000000000000000000000000000000000000000000000000000000000000000000000000000000000000000000000000000000000000000000000000000000000000000000000000000000000000000000000000000000000000000000000000000000000000000000000000000000000000000000000000000000000000000000000000000000000000000000000000000000000
#081371:000000000000000034240000
#083371:1400000000000000000000000000000000000000000000000000000000000000000000000000000000000000000000000000000000540000000000000000000000000000000000000000000000000000000000000000000000000000000000000000000000000000000000000000000000000000000000000000000000000000000000000000000000000000000000000000000000000000000000000000000000000000000000000000000000000000000000000000000000000000000000000000000000000000000000000000000000000000000000000000000000000000000000000000000000000000000000000000000000000000000000000000000000000000000000000000000000000000000000000000000000000000000000000000000000000000000000000000000000000000000000000000000000000000
#083381:000000000000000000000000000000000000000000000000000000000000000000000000000000000000000000000000000000000000000000000000000000000000000000000000000000000000000000000000000000000000000000000000000000000000000000000000000000000000000000000000000000000000000000000000000000000000000000000000000000000000000000000000000000000000000000000000000000000000000000000000000000000000000000000000000000000000000000000000000000000000000000000000000000000000000000000000000000000000000000000000000000000000000000000000000000000000000000000000000000000000000000000000000000000000000000000000000000000000000000000000000000000000000000000000000000000000000034000000000000000000000000000000000000000000000000000000000000000000000000000000000000000000000000000000000000000000000000000000000000000000000000000000000000000000000000000000000000000000000000000000000000000000000000000000000000000000000000000000000000000000000000000000000000000000000000000000000000000000000000000000340000000000000000000000000000000000000000000000000000000000000000000000000000000000000000000000000000000000000000000000000000000000000000000000000000000000000000000000000000000000000000000000000000000000000000000000000000000000000000000000000000000000000000000000000000000000000000000000000000000000000000000000000000000000000000000000000000000000000000000000000000000000000000000000000000000000000000000000000000000000000000000000000000000000000000000000000000000000000000000000000000000000000000000000000000000000000000000000000000000000000000000000000000000000000000000000000000000000000000000000000000000000000000000000000000000000005400000000000000000000000000000000000000000000000000000000000000000000000000000000000000000000000000000000000000000000000000000000000000000000000000000000000000000000000000000000000000000000000000000000000000000000000000000000000000000000000000000000000000000000000000000000000000000000000000000000000000000000000000000000000000000000000000000000000000000000000000000000000000000000000000000000000000000000000000000000000000000000000000000000000000000000000000000000000000000000000000000000000000000000000000000000000000000000000000000000000000000000000000000000000000000000000000000000000000000000000000000000000000000000000000000000000000000000000000000000000000000000000000000000000000000000000000000000000000000000000000000000000000000000000000000000000000000000000000000000000000000000000000000000000000000000000000000000000000000000000000000000000000000000000000000000000000000000000000000000000000000000000000000000000000000000000000000000000000000000000000000000000000000000000000000000000000000000000000000000000000000000000000000000000000000000000000000000000000000000000000000000000000000000000000000000000000000000000000000000000000000000000000000000000000000000000000000000000000000000000000000000000000000000000000000000000000000000000000000000000000000000000000000000000000000000000000000000000000000000000000000000000000000000000000000000000000000000000000000000000000000000000000000000000000000000000000000000000000000000000000000000000000000000000000000000000000000000000000000000000000000000000000000000000000000000000000000000000000000000000000000000000000000000000000000000000000000000000000000000000000000000000000000000000000000000000000000000000000000000000000000000000000000000000000000000000000000000000000000000000000000000000000000000000000000000000000000000000000000000000000000000000000000000000000000000000000000000000000000000000000000000000000000000000000000000000000000000000000000000000000000000000000000000000000000000000000000000000000000000000000000000000000000000000000000000000000000000000000000000000000000000000000000000000000000000000000000000000000000000000000000000000000000000000000000000000000000000000000000000000000000000000000000000000000000000000000000000000000000000000000000000000000000000
#083391:000000000000000000000000000000000000000000000000000000000000000000000000000000000000000000000000000000000000000000000000000000000000000000000000000000000000000000000000000000000000000000000000000000000000000000000000000000000000000000000000000000000000000000000000000000000000000000000000000000000000000000000000000000000000000000000000000000000000000000000000000000000000000000000000000000000000000000000000000000000000000000000000000000000000000000000000000000000000000000000000000000000000000000000000000000000000000000000000000000000000000000000000000000000000000000000000000000000000000000000000000000000000000000000000000000000000000000000000000000000000000000000000000000000000000000000000000000000000000000000000000000000000000000000000000000000000000000000000000000000000000000000000000000000000000000000000000000000000000000000000000000000000000000000000000000000000000000000000000000000000000000000000000000000000000000000000000000000000000000000000000000000000000000000000000000000000000000000000000000000000000000000000000000000000000000000000000000000000000000000000000000000000000000000000000000000000000000000000000000000000000000000000000000000000000000000000000000000000000000000000000000000000000000000000000000000000000000000000000000000000000000000000000000000000000000000000000000000000000000000000000000000000000000000000000000000000000000000000000000000000000000000000000000000000000000000000000000000000000000000000000000000000000000000000000000000000000000000000000000000000000000000000000000000000000000000000000000000000000000000000000000000000000000000000000000000000000034000000000000000000000000000000000000000000000000000000000000000000000000000000000000000000000000000000000000000000000000000000000000000000000000000000000000000000000000000000000000000000000000000000000000000000000000000000000000000000000000000000000000000000000000000000000000000000000000000000000000000000000000000000340000000000000000000000000000000000000000000000000000000000000000000000000000000000000000000000000000000000000000000000000000000000000000000000000000000000000000000000000000000000000000000000000000000000000000000000000000000000000000000000000000000000000000000000000000000000000000000000000000000000000000000000000000000000000000000000000000000000000000000000000000000000000000000000000000000000000000000000000000000000000000000000000000000000000000000000000000000000000000000000000000000000000000000000000000000000000000000000000000000000000000000000000000000000000000000000000000000000000000000000000000000000000000000000000000000000005400000000000000000000000000000000000000000000000000000000000000000000000000000000000000000000000000000000000000000000000000000000000000000000000000000000000000000000000000000000000000000000000000000000000000000000000000000000000000000000000000000000000000000000000000000000000000000000000000000000000000000000000000000000000000000000000000000000000000000000000000000000000000000000000000000000000000000000000000000000000000000000000000000000000000000000000000000000000000000000000000000000000000000000000000000000000000000000000000000000000000000000000000000000000000000000000000000000000000000000000000000000000000000000000000000000000000000000000000000000000000000000000000000000000000000000000000000000000000000000000000000000000000000000000000000000000000000000000000000000000000000000000000000000000000000000000000000000000000000000000000000000000000000000000000000000000000000000000000000000000000000000000000000000000000000000000000000000000000000000000000000000000000000000000000000000000000000000000000000000000000000000000000000000000000000000000000000000000000000000000000000000000000000000000000000000000000000000000000000000000000000000000000000000000000000000000000000000000000000000000000000000000000000000000000000000000000000000000000000000000000000000000000000000
#0833a1:000000000000000034240000
#084321:000000000000000000000016
#085321:0034
#086321:5334
#087321:26
#087380:16
#0873a0:0034
#0883b0:53
#0883a0:0034
#089380:26
#089321:1634
#090321:5334
#091321:26
#091380:16
#0913b0:000000000000000000000023
#092320:000000000000000000000013
#093350:000033330033230000000000
#093380:00000013
#0933b0:000000000000000000000033
#0943b0:000033330033230000000000
#094380:000000000000000000000013
#0953b0:000033230000000000000000
#0953a0:000000000000000000000014
#096370:000000000054000000000000000000000000000000000000
#0963a0:0024
#096380:000000000000000000000013
#0973b0:00230000
#097350:000013
#097320:000000000000000000000033
#098350:0023
#0993a0:0014
#099380:000000000000000000000024
#099321:0014
#099341:000000000000000000000024
#100321:0013
#100351:00000023
#1013b1:0013
#101381:00000023
#101321:000000000000000000000013
#102351:000000000053330000000000000000003300000000002300
#102321:0033
#103321:000000000000000000000013
#104351:000000003353330000000000000000000000000000000000
#104321:000000000033230000000000
#104351:000000000000000000000013
#105321:000000003353330000000000000000000000000000000000
#105351:0023
#105381:00000013
#1053b1:000000000000000000000033
#1063b1:003300000000
#106381:000000000000000000000023
#1083b1:0013
#108381:00000023
#109321:0013
#109351:00000023
#1093b1:000000000000000000000013
#110381:000033230000000000000000
#1103a1:000000000000000000000014
#111371:000000000054000000000000000000000000000000000000
#1113a1:0024
#111321:00000014
#111351:000000000000000000000034
#112351:54
#112321:00240000
#1123a1:00000014
#112371:000000000000000000000034
#113371:54
#1133a1:00240000
#113351:0013
#113321:000000000000000033000023
#114381:000000130000000000000033
#1143b1:000000000000005300000000
#1153b1:0023
#114350:000000000000000000000013
#115320:0023
#115350:000000000000000000000013
#116320:000000003300335300000000330000000000000000000000
#116350:000023
#117350:000000000000000000000013
#118320:00230000
#1183b0:000000000000000000000013
#119380:005300000000000000000000
#1193b0:00230000
#118321:000000000000000000000013
#119351:005300000000000000000000
#119321:00230000
#119381:000000000000000000000013
#1203b1:00230000
