This file was generated by Ched 2.7.0.0.
#TITLE ""
#ARTIST ""
#DESIGNER ""
#DIFFICULTY 0
#PLAYLEVEL
#SONGID ""
#WAVE ""
#WAVEOFFSET 0
#JACKET ""
#REQUEST "ticks_per_beat 480"
#00002: 4
#BPM01: 218
#00008: 01
#TIL00: ""
#VOLUME: ""
#HISPEED 00
#MEASUREHS 00
#00118:001200000000
#0011a:000000000012000000000000
#0011c:000012
#0011b:000000000000000000000023
#00116:000000000000000000000023
#00416:000000000022000014000024
#00412:000026000023000000140024
#00419:002200000000
#00712:000000130000000013000014
#0071a:000000000000000000000014
#00718:000013130000000000000000
#00715:000000000013130000000000
#0071b:000000131300
#0131b:2313
#01318:000016230000000000130000
#01312:000000130000000016230000
#01315:000000000016230000000016
#01418:000016230016000013000000
#01412:00000013000000001600002c
#0141b:13
#01415:230000000013000000000000
#01512:000013130000000000000013
#01516:0013
#0151b:000000000013130013000013
#01518:00000013
#01515:000000000013
#01517:00130000
#02016:000028280024000000130013
#02012:280013
#0201a:000000000024000000000000
#02117:000000130013000000000000
#02116:180000000000000000130013
#0211b:001300000000
#02112:000000181300
#0231b:130013000000130000130000
#02312:13130013
#02318:001313
#02315:000000000013001300000000
#02412:00000000000000000013001c
#02413:1212
#02417:12121200
#0241b:00120013
#02618:000000000000000013000013
#02615:00000013
#02612:240000000024000000000000
#0261a:000000240024000000000000
#02616:002800000000
#02912:2c000013000000001c2c0000
#02916:00130000
#03012:13001c2c0000000000130013
#03016:130000000000000000130013
#03017:000000000013000000000000
#0301b:000000000013000000000000
#03112:0000000000001300000000002c0000000000001300000000
#03117:000000000013000000000000
#0311b:000013000000000000000000000000000000001300000000
#03115:000013
#03118:000013
#03116:00130000
#04112:13161316
#04118:000013
#0411b:13130013
#04110:41
#04318:00130000
#04312:000000130000000000000013
#04315:132300000000
#0431b:230000000023000023000000
#04317:000000000023000000000000
#04417:0000000013130000
#04412:1313
#0441b:00000013
#04416:2300000000000013
#04712:00001c00001c000016000000
#04718:000016
#04715:00260000
#04714:0028
#04716:24
#04815:000000000000001300001300000000000000000000000000
#0481b:000000131300
#04816:000013
#04818:000000131300000000000026
#04812:000000000000130000000013
#0551b:000013000000000000000013
#05518:000000000000000000000013
#05515:000000000000000000000013000000000000000000000000
#05512:000000000000000000000013000000000000000000000000
#05619:000000000013000000000000
#05612:000013
#05617:001300000000
#05614:001300000000
#05616:000000000013000000000013
#05615:000013
#0561b:000000000000000000000013
#05610:000000000000000000000041
#0641b:00000013
#06418:001200000000260000000000130013000000000000000000
#06415:000000000000000000000000001300001300000000000000
#06412:000000260000000000130013
#06417:000000000000000000000013
#06416:001200000000000000000000000000000000000000000000
#0651b:000000130000130000000013
#06512:000000000000130000000013
#06516:000000130000000014000000
#06519:00000013
#06514:00000013
#09612:00131313
#0961b:230000000000000000130013
#09615:000000000013000000000000
#09618:000013
#09616:000000130000000000000013
#09712:000000000000000000000000130000000000000000000000000000000000000013000000000000000000000014141414
#09714:000000000000000000000000000000000000000000000000000000000000000000000000000000000000000000000000000000000000000000000000000000000000000000000000000000000000000000000000000000000014001400140014
#0971b:00001313
#09716:00001313
#0971a:000000000000000000000000000000000000000000000000000000000000000000000000000000000000000014141414
#09718:000000000000000000000000000000000000000000000000000000000000000000000000000000000000000000000000000000000000000000000000000000000000000000000000000000000000000000000000000000000014001400140014
#0981a:141414141414141414141414141414141414141414141414000000000000000000000000140000000000000014000000
#09812:141414141414141414141414141414141414141414141414000000000000000000000000140000000000000014000000
#09814:001400140014001400140014001400140014001400140014001400140014001400140014001400140014001400140014000000000000000000000000000000000000000000000000000000000000000000000000000000000000000000000000
#09818:001400140014001400140014001400140014001400140014001400140014001400140014001400140014001400140014000000000000000000000000000000000000000000000000000000000000000000000000000000000000000000000000
#00518:001200000000
#0051a:000000000012000000000024
#0051c:000012
#00516:000000000000000000000024
#02715:13131300
#02712:0013001300130013
#02716:000000000000000000000000000000000000000000000000000000000000000000000000000000000000000000000000000000000000000000000000000000000000000000000000000000000000000000000000000000000000000000000000000000000000000000000000000000000000000000000000000000000000000000000000000000000000000000000000000000000000000000000000000000000000000000000000000000000000000000000000000000000000000000000000000000000000000000000000000000000000000000000000000000000000000000000000000000000000000000000000000000000000000000000000000000000000000000000000000000000000000000000000000000000000000000000000000000000000000000000000000000000000000000000000000000000000000000000000000000000000000000000000000000000000000000000000000000000000000000000000000000000000000000000000000000000000000000000000000000000000000000000000000000000000000000000000000000000000000000000000000000000000000000000000000000000000000000000000000000000000000000000000000000000000000000000000000000000000000000000000000000000000000000000000000000000000000000000000000000000000000000000000000000000000000000000000000000000000000000000000000000000000000000000000000000000000000000000000000000000000000000000000000000000000000000000000000000000000000000000000000000000000000000000000000000000000000000000000000000000000000000000000000000000000000000000000000000000000000000000000000000000000000000000000000000000000000000000000000000000000000000000000000000000000000000000000000000000000000000000000000000000000000000000000000000000000000000000000000000000000000000000000000000000000000000000000000000000000000000000000000000000000000000000000000000000000000000000000000000000000000000000000000000000000000000000000000000000000000000000000000000000000000000000000000000000000000000000000000000000000000000000000000000000000000000000000000000000000000000000000000000000000000000000000000000000000000000000000000000000000000000000000000000000000000000000000000000000000000000000000000000000000000000000000000000000000000000000000000000000000000000000000000000000000000000000000000000000000000000000000000000000000000000000000000000000000000000000000000000000000000000000000000000000000000000000000000000000000000000000000000000000000000000000000000000000000000000000000000000000000000000000000000000000000000000000000000000000000000000000000000000000000000000000000000000000000000000000000000000000000000000000000000000000000000000000000000000000000000000000000000000000000000000000000000000000000000000000000000000000000000000000000000000000000000000000000000000000000000000000000000000000000000000000000000000000000000000000000000000000000000000000000000000000000000000000000000000000000000000000000000000000000000000000000000000000000000000000000000000000000000000000000000000000000000000000000000000000000000000000000000000000000000000000000000000000000000000000000000000000000000000000000000000000000000000000000000000000000000000000014140000000000000000000000000000000000000000000000000000000000000000000000000000000000000000000000000000000000000000000000000000000000000000000000000000000000000000000000000000000000000000000000000000000000000000000000000000000000000000000000000000000000000000000000000000000000000000000000000000000000000000000000000000000000000000000000000000000000000000000000000000000000000000000000000000000000000000000000000000000000000000000000000000000000000000000000000000000000000000000000000000000000000000000000000000000000000000000000000000000000000000000000000000000000000000000000000000000000000000000000000000000000000000000000000000000000000000000000000000000000000000000000000000000000000000000000000000000000000000000000000000000000000000000000000000000000000000000000000000000000000000000000000000000000000000000000000000000000000000000000000000000000000000000000000000000000000000000000000000000000000000000000000000000000000000000000000000000000000000000000
#0271b:0013001300130013
#02718:23131300
#02512:00000013001c130000000028
#0251b:13000013
#02510:41
#03917:13
#0391b:13
#03915:00000024
#06212:000000000000130000000013
#06217:0013
#0621b:000000000000000013000013
#06218:00000013
#06215:000000000013
#06317:001300000000000000000000
#0631b:00130000
#06312:000000130000000000000012
#0631c:000000000000000000000012
#02812:00001400000000000013001c
#0281a:001400000000
#02816:340000000000000000000000000000000000000000000000000000000014140000000000000000000000000000000000000000000000000000000000000000000000000000000000000000000000000000000000000000000000000000000000000000000000000000000000000000000000000000000000000000000000000000000000000000000000000000000000000000000000000000000000000000000000000000000000000000000000000000000000000000000000000000000000000000000000000000000000000000000000000000000000000000000000000000000000000000000000000000000000000000000000000000000000000000000000000000000000000000000000000000000000000000000000000000000000000000000000000000000000000000000000000000000000000000000000000000000000000000000000000000000000000000000000000000000000000000000000000000000000000000000000000000000000000000000000000000000000000000000000000000000000000000000000000000000000000000000000000000000000000000000000000000000000000000000000000000000000000000000000000000000000000000000000000000000000000000000000000000000000000000000000000000000000000000000000000000000000000000000000000000000000000000000000000000000000000000000000000000000000000000000000000000000000000000000000000000000000000000000000000000000000000000000000000000000000000000000000000000000000000000000000000000000000000000000000000000000000000000000000000000000000000000000000000000000000000000000000000000000000000000000000000000000000000000000000000000000000000000000000000000000000000000000000000000000000000000000000000000000000130000000000000000000000000000000000000000000000000000000000000000000000000000000000000000000000000000000000000000000000000000000000000000000000000000000000000000000000000000000000000000000000000000000000000000000000000000000000000000000000000000000000000000000000000000000000000000000000000000000000000000000000000000000000000000000000000000000000000000000000000000000000000000000000000000000000000000000000000000000000000000000000000000000000000000000000000000000000000000000000
#0061b:000000000000000000000013
#00617:000000000000000000000013
#00616:001200000000
#00614:000000000012000000000000
#00612:000012
#00818:000000000000131300000000
#00815:000000000000000000000000001300001300000000000000
#00812:00000023
#0081b:00000023
#00216:001200000000
#00214:000000000012000000000000
#00212:000000000000000012000023
#00217:000000000000000000000023
#00318:001200000000
#0031a:000000000012000000000000
#0031c:000000000000000012000022
#00312:000000000000000000000029
#01618:000000000016000000000000
#01612:001400001300
#01616:000000000000000000000013
#01617:000000000000001500000000000000000000130000000000
#01615:001400000000000000000000000000000000000000000000
#02216:181200001300
#02218:001200000000
#0221c:000000000000001200000000000000000000000000000000
#02212:000000000000001200000000000000001300000000000000
#03318:00000014
#03314:00000014
#03712:1c000000000000001c1c0000
#0371b:000000000000000000000013
#03816:1313
#03812:00140014
#0381b:1313
#03817:00130013
#04215:000013
#04217:1313
#04212:000000000013000000130000
#04218:000000160000000000160013
#0421b:13
#05812:000000000000130000000013
#05817:000000000013000000000000
#0581b:000000130000000013000000
#05816:000000130000000000180013
#05917:001300000000
#0591b:00130013
#05912:000000000028130000000028
#05916:000028
#06017:000000000013000000001300000000000000000000000000
#0601b:000000130000000000230023
#06012:2313
#05716:000000000013000000000000
#0571b:0013
#05712:000000130000000013180013
#05717:000000130000000000000013
#06612:000000000000000000000012
#06618:000000000000000000000012
#0671c:00120000
#06719:0012
#06716:00000012
#06717:001200
#06818:00120012
#06812:12
#0681c:0012
#06816:000000000000000000000012
#07318:001300000000
#07312:0000001c00131c00001c0000
#0731b:000000000000000013000013
#07315:13
#07316:000000000000000000000013
#07416:000000000013000014141412
#07418:000000000000000000000012
#07417:001300000000
#07412:001300000000
#0741b:000000000013000000000000
#0691c:0012
#06918:000012120000000000000012
#06916:12000012
#06912:0012
#07112:1c130000
#07117:0013
#07116:00000013
#07012:000000000000000000120012
#07016:120000120012000000000000
#07018:000000121200
#07715:0013
#07716:000000000016
#07714:000016
#07719:13
#07717:00130000
#0821b:000013
#08212:000000000012000000000013
#08218:000012000000000000130000
#08215:000012000012000000001300
#08315:000000160016000000000000
#08313:00001a
#08314:0018
#08316:141400000000
#08312:0000002c
#0791b:000013000000000000130000
#07916:000000000000001300001300000000000000000000000000
#07912:130000000000000000260013
#07918:26
#07910:41
#0781b:1313
#07818:231300231300
#07815:002313002313
#07812:000023000023
#08112:000015000014000013000012
#08017:001300001300000000000000000000000000000000000000
#08015:000000000016000000000000
#08012:0013
#0801b:0023
#08016:000000000000000000000000003333333333000000000000
#08412:00120000
#08416:000000000000120000000012
#08418:000000120000000012000000
#0841c:000000000000000000000012
#0841f:000000000000000000000011
#08514:000012120000000000000000
#08512:00001212
#08517:001200
#08518:000000000000000000000012
#0861a:000012120000000000000000
#08617:00120012
#0861c:0012
#08612:000000000000000000000012
#0871c:000000000012000000000000000000000000000000001200
#08716:000000120000000012000000
#08712:0012
#08812:000012000000000000000012
#08818:00120000
#0881c:000000121200
#08917:000000000012000000000000000000000000120000000000
#08914:000012120000000000000000
#08912:0012
#0891c:000000000000000000000012
#09018:000012120000000012000012
#09012:000000000012000000000000000000000000000000000000
#0901c:0012
#09117:000013
#0911b:000000000000000000130013
#09118:000000000000000000000013
#0941b:000000000000000000000013
#09412:000000130018000013180000
#09417:000000130000130000000013
#09516:000013000028000000000028
#09512:000000130000000028130000
#0951b:0013
#09316:000000130018130000180013
#0931b:000000130000000013000013
#09212:000000000000000013000013
#09217:000013000000000000000013
#09219:000000000013000000000000
#09214:001300000000
#09216:000000000013000000000000
#09215:000013
#0991b:000000130000000023000000
#09912:000023
#09916:0024
#0991f:000000000000000000000021
#09915:000000000000003333333333000000000000000000000000
#05418:000000000000000000130013
#0541b:000000000000000000000013
#0531b:000013000000000000130000
#05312:00130013
#05317:000000130013000000000000
#05316:001300000000000000000000130000000000000000000000
#05215:000000131300130026000000
#05212:000000000000000013000013
#05218:000000000000001300001300260000000000000000001600
#0511b:001300000000130000000013
#05116:000000000013000000000013
#05117:001300000000000013000000
#05112:00000013
#04917:00131300
#04912:000000000000000000130016
#0491b:000013000013000000000013
#04916:000013
#10318:000013162600
#1031b:000000130000000000000013
#10315:000000000000001300001300000000000000000000000000
#10312:000000000000260016000024
#1011b:000013000013130013000000
#10117:001300000000000000000000130000000000000000000000
#10116:000000240000000000240013
#10112:000000000000000000000013
#10012:000000000013130013000013
#1001b:001300000000
#10016:00241324
#1001a:000000000000000000000024
#10010:000000000000000000000041
#11617:001300001300
#11612:00000000131c
#11618:000000000000000000000015
#11616:00130000
#11512:00001313
#1151b:000000000000000000130013
#11515:000000000000001300000000
#11518:001200000000000000000000001300001300000000000000
#11516:001200000000000000000000000000000000000000001300
#11815:0013
#11812:130000000000000015000025
#11814:001300000000000000000000
#11819:001300000000000025000025
#11817:13
#11818:0023
#11919:001500000000000000000000
#11912:001500000000130000130012
#11918:000000000013000013000000
#1191b:00001313
#11915:000000000000001300000000
#1191c:000000000000000000000012
#11715:001400000000
#11717:000000000013000000000000
#11716:000000000013
#11714:000000000000000012000013
#11712:001c00001c00001c00000000
#1171b:000000000013
#11719:000000000000000000000013
#12018:000000000000000013130023
#12015:000000000000000000000000000000000013000013002300
#1201b:0013
#12012:0013
#10618:000000000000000000000013000000000000000000001300
#1061b:000000000000000000000013000000000000000000002300
#10612:002300000000
#10717:001300000000
#10716:000000000013000000000000
#10715:000013
#10712:000000000000000023000014
#10714:002300000000
#10719:000000000023000000000000
#1071a:000000000000000000000024
#1081a:000014000000000000000014
#10816:00241424
#10812:000000140018130000000024
#1111b:0013000000000000
#11112:000000130000000000000000000000000000230000002300
#10912:001400000000
#10916:000000240018140000240000
#1091a:00140000
#1091b:0013
#11012:00000023002c1c002c1c0026
#11015:001300000000000000000000000000000000000000000000
#11018:001300000000000000000000000000000000000000002600
#1101b:00230000
#00917:001300001300
#00912:130000130000000000130013
#00916:000000000013130000000000
#0091b:1313
#00910:41
#01016:001300000000130000000018
#01012:000018
#0101b:1313
#01017:00130013
#01116:001300001300
#0111b:000000130000000000130013
#01117:000000000013130000000000
#01112:1313
#01217:001300000000130000000000
#01216:000000130000000018130000
#01212:130000000000130000000018
#0181b:000013
#01817:000000000000000000000013
#01816:280000000024000000130000
#01812:000028280024000000000000
#01717:000012000012000012000000
#0171c:0012
#0171b:13
#01712:00120012
#01716:000000000000000000000028
#05012:000013000013000000000013
#05016:000000130000130000000013
#05017:000013
#0501b:00000013
#0611b:0013
#06116:0013
#06112:000000000000000000230023
#01912:130000000012000000000028
#01917:00121212
#0191c:001200001200
#03612:0000000000000000001c001c
#04012:000000000013000000000000
#04015:000024000024000000000000
#0401a:24
#04512:1313
#0451b:00130000
#04516:0013
#07218:00130000
#07219:0013
#07214:00000013
#0751b:0013
#07515:00000013
#0751a:00240000
#07512:00240000
#07612:00130000
#07618:00001313
#1021b:000000000013000000000023
#10212:000000000000130013000023
#10216:00241424
#10416:001300000000240000001300000000000000240000002300
#10412:001300000000
#10417:0013
#1041b:000000000000000000000023
#11212:0013
#11217:00231300
#1121b:000000000000000000230023
#11416:001300000000000000000000
#1141b:00130000
#11412:000000230000000000000022
#1141c:000000000000000000000022
#11312:000000000000130000000013
#1131b:000000000000130000000023
#11315:000000001313
#11318:00000013
#11316:00230000
#03417:00000017
#03419:0000000000000000000000000000000000000000000000000000001500000000
#0341b:000000000000000000000000000000000000000000000000000000000000000000000000000000000000000033130000
#03412:000000000000000000000000000000000000000000000000000000000000000000000000000000000000000000000000000000000000000000000000000000000000000000000000130000000000000000150000000000003500170000000000
#03519:15000000000000001500000000000000001500000000000000000000000000000000000000000000000000000000000000000000000000000000000000000000
#03517:0000170000000000000000170000000000000000000000000000000000000000
#0351b:000000000000000033130000000000000000000000000000000000000000000000000000000000000000000000000000
#03518:000000000016000000000000
#03512:150000000000000000000000130000000000000000000000150000000000000036000000170000000000000000000000000000150000000000000000000000000000130000000000000000000000000014000000000000000000000000000000000000000000000000000000000000000000000000000000000000000000000000000000000000000000000000000000000000000000000000000000000000000000000000000000000000000000000000000000000000000000000000000000
#04612:13000013000000000000001c
#0461b:1313
#04617:0013
#00012:000000000000000000000023
#00017:000000000000000000000023
#1051b:00230000
#10515:000000000000000000230023
#10512:000000000000000000000023
#12114:002400000000
#12118:000024000025000000000000
#12113:000000000025000022000000
#1211b:000022
#03215:00230000
#03218:000000000033000000000033
#00752:000000330000000000000054
#0075a:000000000000000000000054
#0075b:0043
#01556:0053
#0155b:000000000000000000000053
#02755:53535300
#02752:0023002300230023
#0275b:0023002300230023
#02756:000000000000000000000000000000000000000000000000000000000000000000000000000000000000000000000000000000000000000000000000000000000000000000000000000000000000000000000000000000000000000000000000000000000000000000000000000000000000000000000000000000000000000000000000000000000000000000000000000000000000000000000000000000000000000000000000000000000000000000000000000000000000000000000000000000000000000000000000000000000000000000000000000000000000000000000000000000000000000000000000000000000000000000000000000000000000000000000000000000000000000000000000000000000000000000000000000000000000000000000000000000000000000000000000000000000000000000000000000000000000000000000000000000000000000000000000000000000000000000000000000000000000000000000000000000000000000000000000000000000000000000000000000000000000000000000000000000000000000000000000000000000000000000000000000000000000000000000000000000000000000000000000000000000000000000000000000000000000000000000000000000000000000000000000000000000000000000000000000000000000000000000000000000000000000000000000000000000000000000000000000000000000000000000000000000000000000000000000000000000000000000000000000000000000000000000000000000000000000000000000000000000000000000000000000000000000000000000000000000000000000000000000000000000000000000000000000000000000000000000000000000000000000000000000000000000000000000000000000000000000000000000000000000000000000000000000000000000000000000000000000000000000000000000000000000000000000000000000000000000000000000000000000000000000000000000000000000000000000000000000000000000000000000000000000000000000000000000000000000000000000000000000000000000000000000000000000000000000000000000000000000000000000000000000000000000000000000000000000000000000000000000000000000000000000000000000000000000000000000000000000000000000000000000000000000000000000000000000000000000000000000000000000000000000000000000000000000000000000000000000000000000000000000000000000000000000000000000000000000000000000000000000000000000000000000000000000000000000000000000000000000000000000000000000000000000000000000000000000000000000000000000000000000000000000000000000000000000000000000000000000000000000000000000000000000000000000000000000000000000000000000000000000000000000000000000000000000000000000000000000000000000000000000000000000000000000000000000000000000000000000000000000000000000000000000000000000000000000000000000000000000000000000000000000000000000000000000000000000000000000000000000000000000000000000000000000000000000000000000000000000000000000000000000000000000000000000000000000000000000000000000000000000000000000000000000000000000000000000000000000000000000000000000000000000000000000000000000000000000000000000000000000000000000000000000000000000000000000000000000000000000000000000000000000000000000000000000000000000000000000000000000000000000000000000000000000000000000000000000000054540000000000000000000000000000000000000000000000000000000000000000000000000000000000000000000000000000000000000000000000000000000000000000000000000000000000000000000000000000000000000000000000000000000000000000000000000000000000000000000000000000000000000000000000000000000000000000000000000000000000000000000000000000000000000000000000000000000000000000000000000000000000000000000000000000000000000000000000000000000000000000000000000000000000000000000000000000000000000000000000000000000000000000000000000000000000000000000000000000000000000000000000000000000000000000000000000000000000000000000000000000000000000000000000000000000000000000000000000000000000000000000000000000000000000000000000000000000000000000000000000000000000000000000000000000000000000000000000000000000000000000000000000000000000000000000000000000000000000000000000000000000000000000000000000000000000000000000000000000000000000000000000000000000000000000000000000000000000000000000000
#02758:53535300
#03056:000000000000000000000063
#03057:000000000053000000000000
#0305b:000000000053000000000000
#0315b:000023000000000000000000000000000000002300000000
#03155:000000000000000053000013
#03158:000000000000000063000013
#03152:000000000000000000000000000000000000002300000000
#03156:00530000
#03957:63
#0395b:63
#06252:000000000000000000000063
#06257:00130000
#0625b:00130000
#06357:002300000000000000000000
#0635b:00530000
#06352:000000630000000000000052
#0635c:000000000000000000000052
#0965b:530000000000000000000063
#09656:000000230000000000000033
#09752:000000000000000000000000000000000000000000000000000000000000000000000000000000000000000054545454
#09754:000000000000000000000000000000000000000000000000000000000000000000000000000000000000000000000000000000000000000000000000000000000000000000000000000000000000000000000000000000000054005400540054
#0975a:000000000000000000000000000000000000000000000000000000000000000000000000000000000000000064646464
#09758:000000000000000000000000000000000000000000000000000000000000000000000000000000000000000000000000000000000000000000000000000000000000000000000000000000000000000000000000000000000064006400640064
#00052:000000000000000000000043
#00057:000000000000000000000043
#00252:000000000000000000000043
#00257:000000000000000000000043
#00456:000000000000000000000044
#00452:000000000000000000000044
#00657:000000000000000000000053
#0065b:000000000000000000000043
#01458:000000000046000000000000
#01452:00000000000000003600004c
#02856:000000000000000000000000000000000000000000000000000000000054540000000000000000000000000000000000000000000000000000000000000000000000000000000000000000000000000000000000000000000000000000000000000000000000000000000000000000000000000000000000000000000000000000000000000000000000000000000000000000000000000000000000000000000000000000000000000000000000000000000000000000000000000000000000000000000000000000000000000000000000000000000000000000000000000000000000000000000000000000000000000000000000000000000000000000000000000000000000000000000000000000000000000000000000000000000000000000000000000000000000000000000000000000000000000000000000000000000000000000000000000000000000000000000000000000000000000000000000000000000000000000000000000000000000000000000000000000000000000000000000000000000000000000000000000000000000000000000000000000000000000000000000000000000000000000000000000000000000000000000000000000000000000000000000000000000000000000000000000000000000000000000000000000000000000000000000000000000000000000000000000000000000000000000000000000000000000000000000000000000000000000000000000000000000000000000000000000000000000000000000000000000000000000000000000000000000000000000000000000000000000000000000000000000000000000000000000000000000000000000000000000000000000000000000000000000000000000000000000000000000000000000000000000000000000000000000000000000000000000000000000000000000000000000000000000000000000000000000000000000000000000000000000000000000000000000000000000000000000000000000000000000000000000000000000000000000000000000000000000000000000000000000000000000000000000000000000000000000000000000000000000000000000000000000000000000000000000000000000000000000000000000000000000000000000000000000000000000000000000000000000000000000000000000000000000000000000000000000000000000000000000000000000000000000000000000000000000000000000000000000000000000000000000000000000000000000000000000000000000000000
#0285a:002400000000
#02852:000024000035000000000000
#02859:000000000045000000000000
#01658:000000000046000000000000
#0165a:004400000000
#01652:000064000036000000000000
#01655:002400000000000000000000000000000000000000000000
#01657:000000000000002500000000000000000000000000000000
#02156:48
#02152:0038
#02256:486200005300
#02258:005200000000
#0225c:000000000000002200000000000000000000000000000000
#02252:000000000000002200000000000000005300000000000000
#0235b:00000043
#02352:00000033
#0255b:23
#02552:0023
#03454:00140000
#03458:00140000
#03459:0000000000000000000000000000000000000000000000000000006500000000
#03457:00000027
#0345b:00000000000000000000000000000023
#03452:0000000000000000000000000000000000000000000000002300005500002700
#04055:000000000054000000000000
#0405a:00000014
#04052:000000000053000000000000
#04057:00000013
#0415b:00530000
#04152:00360036
#04257:53
#04258:00460046
#04357:000000000063000000000000
#0435b:000053
#0445b:00000053
#04452:6353
#04456:6300000000000023
#04457:0000000000230000
#04752:000000000000000066000012
#04755:00160000
#04754:0018
#04756:14
#04758:000056
#0475c:000000000000000000000012
#06057:000000000023000000000000000000000000000000000000
#06052:63
#0605b:000000000000000000000053
#0565b:000000000000000000000053
#05656:000000000000000000000053
#05654:001300000000
#05659:000000000013000000000000
#05652:000013
#05752:000000000000000000000053
#05757:000000000000000000000053
#0575b:0043
#05852:0033
#05856:000000000000000000000053
#06652:000000000000000000000062
#06858:00520052
#0755a:00440000
#07552:00340000
#0755b:0063
#07555:00000063
#06756:00000052
#06757:002200
#0695c:0022
#06958:000000520000000000000052
#06956:62000052
#07056:000000000062000000000000
#08258:001200000000
#08252:000000000012000000000000
#08352:0000001c
#07952:530000000000000000160063
#0795b:000053000043000000630000
#07956:000000000000002300003300000000000000000000000000
#07958:16
#08057:002300004300000000000000000000000000000000000000
#08052:000033000000530000130000
#0805b:00005313
#08152:000000000000000000000012
#08557:002200
#08552:00003262
#0845c:000000000000000000000052
#08657:00220062
#0865c:0042
#0875c:000000000022000000000000000000000000000000000000
#08752:0032
#08756:000052
#08852:002200000000
#0885c:000000425200
#08957:000000000022000000000000000000000000520000000000
#08952:0032
#09058:000000000000000062000052
#09052:000000000022000000000000000000000000000000000000
#0905c:0042
#09252:000000000000000033000063
#09257:000000000000000000000063
#09259:000000000043000000000000
#09254:003300000000
#09356:000000000000330000000063
#0935b:000000000000000000000063
#09457:000000000000430000000053
#09958:000000000000000000000016
#09952:000000000000000053000016
#0995b:000053
#05456:0013
#0545b:0013
#05458:000000000000000000000053
#04858:000000000000000000000046
#04852:000000000000000000000053
#0555b:000063000000000000000013
#05555:000000000000000000000023000000000000000000000000
#05552:000000000000000000000023000000000000000000000000
#0515b:002300000000000000000043
#05156:000000000000000000000033
#05157:002300000000000000000000
#04952:000000000000000000000036
#04957:0053
#0495b:000000000000000000000063
#10557:0013
#10552:0013
#10555:000000000000000000000053
#1025b:000000000000000000000043
#10252:000000000000000000000033
#11959:002500450000000000000000
#11952:002500350000000000000052
#1195c:000000000000000000000062
#11852:230000000000000000000055
#11859:005300000000000000000065
#11854:005300000000000000000000
#11856:00130000
#11857:23
#1185b:00130000
#1065b:000000000000000000000023000000000000000000004300
#10658:000000000000000000000023000000000000000000000000
#10652:005300000000
#10754:003300000000
#10759:000000000043000000000000
#10752:000000000000000033000024
#1075a:000000000000000000000044
#1115b:0023000000000000
#11152:000000230000000000000000000000000000000000006300
#11058:002300000000000000000000000000000000000000005600
#11052:000000000000000000000066
#11055:002300000000000000000000000000000000000000000000
#10856:0054
#10852:000000000000130000000034
#1085a:000000000000000000000024
#10956:0064
#1095b:0013
#11754:000000000000000032000053
#11756:000000000023
#1175b:000000000023
#11759:000000000000000000000053
#11757:000000000043000000000000
#11755:003400000000
#12154:003400000000
#12158:000000000045000000000012
#12156:000000000000000000000012
#12058:000000420000000000000043
#12056:00320000
#02956:00630000
#02952:00630000
#03352:00130000
#03355:00130000
#00852:00000033
#0085b:00000043
#0055a:000000000000000000000034
#00556:000000000000000000000034
#0015b:000000000000000000000033
#00156:000000000000000000000033
#01052:000038
#01056:002300000000000000000048
#00952:000000000000000000000063
#01256:000048
#01257:002300000000000000000000
#01252:000000000000000000000038
#0115b:000000000000000000000053
#0175b:13
#02453:5252
#02457:52525200
#0245b:00520000
#03652:000000000016000000000000
#03658:000000000016000000000000
#05056:000000000000630000000053
#05052:000000000000000000000053
#06156:00130000
#06152:000000130000000000000063
#06452:000000160000000000000053
#06458:002200000000160000000000000000000000000000000000
#06457:000000000000000000000053
#06456:002200000000000000000000000000000000000000000000
#0655b:000000000000000000000043
#06552:000000000000000000000033
#01852:000000000014000000000000
#01856:000000000014000000000000
#01952:13
#05357:000000000053000000000000
#05356:002300000000000000000000630000000000000000000000
#07152:4c530000
#07157:0053
#07156:00000053
#07352:33
#0735b:000000000000000000000043
#07356:000000000000000000000033
#07258:00230000
#07259:0023
#07254:00000023
#07452:003300000000
#0745b:000000000043000000000000
#07456:000000000033000000000022
#07458:000000000000000000000022
#07457:004300000000
#07652:00230000
#07658:00002353
#0765b:00000043
#10157:002300000000000000000000530000000000000000000000
#10156:000000000000000000000063
#10052:000000000000000000000053
#1005a:000000000000000000000044
#10056:0063
#10456:002300000000000000006300000000000000000000000000
#10457:0053
#1035b:000000000000000000000063
#10352:000000000000000000000034
#1125b:000000130000000000000053
#11257:00130000
#11352:00130000
#11356:00130000
#1135b:000000000000000000000053
#11456:002300000000000000000000
#1145b:00530000
#1145c:000000000000000000000052
#11452:000000630000000000000052
#11558:002200000000160000000000000000000000000000000000
#11556:002200000000000000000000000000000000000000000000
#1155b:000000000000000000000063
#11552:00160000
#11658:000000000000000000000045
#11657:005300000000
#11656:00530000
#02056:000000000014000000000000
#0205a:000000000014000000000000
#02652:000000000014000000000000
#0265a:000000000014000000000000
#03559:65000000000000006500000000000000006500000000000000000000000000000000000000000000000000000000000000000000000000000000000000000000
#03558:000000000066000000000000
#03557:0000270000000000000000270000000000000000000000000000000000000000
#0355b:00000023000000000000000000000000
#03552:550000000000000000000000230000000000000000000000550000000000000000000000270000000000000000000000000000550000000000000000000000000000230000000000000000000000000054000000000000000000000000000000000000000000000000000000000000000000000000000000000000000000000000000000000000000000000000000000000000000000000000000000000000000000000000000000000000000000000000000000000000000000000000000000
#0915b:000000000000000000000043
#03852:00440044
#03856:3333
#0385b:5353
#03857:00530053
#09852:545454545454545454545454545454545454545454545454000000000000000000000000000000000000000034000000
#0985a:646464646464646464646464646464646464646464646464000000000000000000000000000000000000000044000000
#09854:005400540054005400540054005400540054005400540054005400540054005400540054005400540054005400540054000000000000000000000000000000000000000000000000000000000000000000000000000000000000000000000000
#09858:006400640064006400640064006400640064006400640064006400640064006400640064006400640064006400640064000000000000000000000000000000000000000000000000000000000000000000000000000000000000000000000000
#05252:000000000000000000000063
#05258:000000000000000000000046
#0455b:43530000
#04552:5353
#04556:0053
#04652:33630000
#0465b:6363
#04657:0063
#001350:000000120022000000000000
#001370:000000122200
#002390:000000120022000000000000
#002370:000000122200
#003350:000000120022000000000000
#003370:000000122200
#005360:000000120022000000000000
#005380:000000122200
#006380:000000120022000000000000
#006360:000000122200
#006370:000000000000000000000013
#007320:002300000000
#007320:000000000000000000000014
#0083b0:00230000
#0073a1:000000000000000000000014
#008321:00230000
#009321:000000000000000000000013
#010361:005300000000000000000000
#010321:00230000
#0113b1:000000000000000000000013
#012371:005300000000000000000000
#0123b1:00230000
#015361:0013
#015321:000023
#0153b1:000000000000000000000013
#016351:005400000000000000000000000000000000000000000000
#0163a1:002400000000
#016320:000014000026000000000000
#016370:000000000000005500000000000000000000000000000000
#022380:000012000022000000000000
#0223c0:000000000000005200000000000000000000000000000000
#022361:000012000022000000000000
#022321:000000000000005200000000000000000000000000000000
#022361:000013
#0223b1:000000000000000000000023
#022320:000013
#022370:000000000000000000000023
#024330:120000000052320000000000
#024370:000052320000000022000000
#024371:120000000052320000000000
#0243b1:000052320000000022000000
#0253b1:13
#025361:00230000
#025321:0013
#025371:00000023
#027351:13333300
#027321:0053005300530000
#027361:000000000000000000000000000000000000000000000000000000000000000000000000000000000000000000000000000000000000000000000000000000000000000000000000000000000000000000000000000000000000000000000000000000000000000000000000000000000000000000000000000000000000000000000000000000000000000000000000000000000000000000000000000000000000000000000000000000000000000000000000000000000000000000000000000000000000000000000000000000000000000000000000000000000000000000000000000000000000000000000000000000000000000000000000000000000000000000000000000000000000000000000000000000000000000000000000000000000000000000000000000000000000000000000000000000000000000000000000000000000000000000000000000000000000000000000000000000000000000000000000000000000000000000000000000000000000000000000000000000000000000000000000000000000000000000000000000000000000000000000000000000000000000000000000000000000000000000000000000000000000000000000000000000000000000000000000000000000000000000000000000000000000000000000000000000000000000000000000000000000000000000000000000000000000000000000000000000000000000000000000000000000000000000000000000000000000000000000000000000000000000000000000000000000000000000000000000000000000000000000000000000000000000000000000000000000000000000000000000000000000000000000000000000000000000000000000000000000000000000000000000000000000000000000000000000000000000000000000000000000000000000000000000000000000000000000000000000000000000000000000000000000000000000000000000000000000000000000000000000000000000000000000000000000000000000000000000000000000000000000000000000000000000000000000000000000000000000000000000000000000000000000000000000000000000000000000000000000000000000000000000000000000000000000000000000000000000000000000000000000000000000000000000000000000000000000000000000000000000000000000000000000000000000000000000000000000000000000000000000000000000000000000000000000000000000000000000000000000000000000000000000000000000000000000000000000000000000000000000000000000000000000000000000000000000000000000000000000000000000000000000000000000000000000000000000000000000000000000000000000000000000000000000000000000000000000000000000000000000000000000000000000000000000000000000000000000000000000000000000000000000000000000000000000000000000000000000000000000000000000000000000000000000000000000000000000000000000000000000000000000000000000000000000000000000000000000000000000000000000000000000000000000000000000000000000000000000000000000000000000000000000000000000000000000000000000000000000000000000000000000000000000000000000000000000000000000000000000000000000000000000000000000000000000000000000000000000000000000000000000000000000000000000000000000000000000000000000000000000000000000000000000000000000000000000000000000000000000000000000000000000000000000000000000000000000000000000000000000000000000000000000000000000000000000000000000000000000000000000000000054000000000000000000000000000000000000000000000000000000000000000000000000000000000000000000000000000000000000000000000000000000000000000000000000000000000000000000000000000000000000000000000000000000000000000000000000000000000000000000000000000000000000000000000000000000000000000000000000000000000000000000000000000000000000000000000000000000000000000000000000000000000000000000000000000000000000000000000000000000000000000000000000000000000000000000000000000000000000000000000000000000000000000000000000000000000000000000000000000000000000000000000000000000000000000000000000000000000000000000000000000000000000000000000000000000000000000000000000000000000000000000000000000000000000000000000000000000000000000000000000000000000000000000000000000000000000000000000000000000000000000000000000000000000000000000000000000000000000000000000000000000000000000000000000000000000000000000000000000000000000000000000000000000000000000000000000000000000000000000000000
#0273b1:0000000000000053
#028361:0054000000000000000000000000000000000000000000000000000000000000
#028321:005400000000
#028391:000000000025000000000000
#027380:13333300
#0273b0:0053005300530000
#027360:00000034
#027320:0000000000000053
#028360:340000000000000000000000000000000000000000000000000000000054000000000000000000000000000000000000000000000000000000000000000000000000000000000000000000000000000000000000000000000000000000000000000000000000000000000000000000000000000000000000000000000000000000000000000000000000000000000000000000000000000000000000000000000000000000000000000000000000000000000000000000000000000000000000000000000000000000000000000000000000000000000000000000000000000000000000000000000000000000000000000000000000000000000000000000000000000000000000000000000000000000000000000000000000000000000000000000000000000000000000000000000000000000000000000000000000000000000000000000000000000000000000000000000000000000000000000000000000000000000000000000000000000000000000000000000000000000000000000000000000000000000000000000000000000000000000000000000000000000000000000000000000000000000000000000000000000000000000000000000000000000000000000000000000000000000000000000000000000000000000000000000000000000000000000000000000000000000000000000000000000000000000000000000000000000000000000000000000000000000000000000000000000000000000000000000000000000000000000000000000000000000000000000000000000000000000000000000000000000000000000000000000000000000000000000000000000000000000000000000000000000000000000000000000000000000000000000000000000000000000000000000000000000000000000000000000000000000000000000000000000000000000000000000000000000000000000000000000000000000000000000000000000000000000000000000000000000000000000000000000000000000000000000000000000000000000000000000000000000000000000000000000000000000000000000000000000000000000000000000000000000000000000000000000000000000000000000000000000000000000000000000000000000000000000000000000000000000000000000000000000000000000000000000000000000000000000000000000000000000000000000000000000000000000000000000000000000000000000000000000000000000000000000000000000000000000000000000000000000000000
#0283a0:003400000000
#028320:000000000025000000000000
#029360:00130000
#0293b0:0023
#029321:00130000
#029371:0023
#030371:000000000013000000000000
#030321:000023
#0303b0:000000000013000000000000
#030360:000023
#030360:000000000000000000000013
#0313b0:005300000023000000000000
#031360:00330000
#031350:000000000000000013000023
#031320:000000000000000000000000000000000000005300000000
#031381:000000000000000013000023
#0313b1:000000000000000000000000000000000000005300000000
#032351:00130033
#032381:000000000033330000000033
#033381:33
#033321:00230000
#032320:00130033
#0323b0:0033
#0333b0:33
#033350:00230000
#034340:14240000
#034381:14240000
#034321:000000000000000000000000000000000000000000000000000000000000000000000000000000000000000000000000000000000000000000000000000000000000000000000000130000000000000000550000000000003500570000000000
#035321:350000000000000000000000000000000000000000000000000000000000000000000000000000000000000000000000000000000000000000000000000000000000000000000000000000000000000000000000000000000000000000000000000000000000000000000000000000000000000000000000530000000000000000000000000000000000000000000000000000000000000000000000000000000000000000000000000000000000000000000000000000000000000000000000000000000000000000000000000000000000000000000000000000000000000000000000000000000000000000000000550000000000000000000000000000000000000000000000000000000000000000000000000000000000000000000000000000000000000000000000000000000000000000000000000000000000000036000000000000000000000000000000000000000000000000000000000000000000000000000000570000000000000000000000000000000000000000000000000000000000000000000000000000000000000000000000000000000000000000000000000000000000000000000000000000000000000000000000000000000000000000000000000000000000000000000000000000000000000000000000000000000000000000000000000000000000000000000000000000000000550000000000000000000000000000000000000000000000000000000000000000000000000000000000000000000000000000000000000000000000000000000000000000000000000000000000000000000000000000000000000000000000000000000000000000000000000000000000000000000000000000000000000000000000000000000000000000000000000000000000530000000000000000000000000000000000000000000000000000000000000000000000000000000000000000000000000000000000000000000000000000000000000000000000000000000000000000000000000000000000000000000000000000000000000000000000000000000000000000000000000000000000000000000000000000000000000034000000000000000000000000000000000000000000000000000000000000000000000000000000000000000000000000000000000000000000000000000000000000000000000000000000000000000000000000000000000000000000000000000000000000000000000000000000000000000000000000000000000000000000000000000000000000000000000000000000000000000000000000000000550000000000000000000000000000000000000000000000000000000000000000000000000000000000000000000000000000000000000000000000000000000000000000000000000000000000000000000000000000000000000000000000000000000000000000000000000000000000000000000000555400000000000000000000000000000000000000000000000000000000000000000000000000000000000000000000000000000000000000000000000000000000000000000000000000000000000000000000000000000000000000000000000000000000000000000000000000000000000000000054560000000000000000000000000000000000000000000000000000000000000000000000000000000000000000000000000000000000000000000000000000000000000000000000000000000000000000000000000000000000000000000000000000000000000000000000000000000000000000000000000000000000000000000000000000000000000000000000000000000000000000000000000000000000000000000000000000000000000000000000000000000000000000000000000000000000000000000000000000000000000000000000000000000000000000000000000000000000000000000000260000000000000000000000000000000000000000000000000000000000000000000000000000000000000000000000000000000000000000000000000000000000000000000000000000000000000000000000000000000000000000000000000000000000000000000000000000000000000000000000000000000000000000000000000000000000000000000000000000000000000000000000000000000000000000000000000000000000000000000000000000000000000000000000000000000000000000000000000000000000000000000000000000000000000000000000000000000000000000000000000000000000000000000000000000000000000000000000000000000000000000000000000000000000000000000000000000000000000000000000000000000000000000000000000000000000000000000000000000000000000000000000000000000000000000000000000000000000000000000000000000000000000000000000000000000000000000000000000000000000000000000000000000000000000000000000000000000000000000000000000000000000000000000000000000000000000000000000000000000000000000000000000000000000000000000000000000000000000000000000
#034370:00000017
#034390:0000000000000000000000000000000000000000000000000000005500000000
#0343b0:000000000000000000000000000000000000000000000000000000000000000000000000000000000000000033530000
#035390:35000000000000005500000000000000005500000000000000000000000000005500000055000000000000000000000000000000000000000000000000000000
#035370:0000570000000000000000570000000000000000000000000000000000000000
#0353b0:000000000000000033530000000000000000000000000000000000000000000000000000000000000000000000000000
#035380:000000000000000000003600000000560000260000000000
#0353a0:000000000000000000000000000000000000000000000000000000000000000000000000000000000000000000000000000000000000000000000000000000000000000000000000000000000000000000000000000000000000000000000000000000000000000000000000000000000000000000000000000000000000000000000000000000000000000000000000000000000000000000000000000000000000000000000000000000000000000000000000000000000000000000000000000000000000000000000000000000000000000000000000000000000000000000000000000000000000000000000000000000000000000000000000000000000000000000000000000000000000000000000000000000000000000000000000000000000000000000000000000000000000000000000000000000000000000000000000000000000000000000000000000000000000000000000000000000000000000000000000000000000000000000000000000000000000000000000000000000000000000000000000000000000000000000000000000000000000000000000000000000000000000000000000000000000000000000000000000000000000000000000000000000000000000000000000000000000000000000000000000000000000000000000000000000000000000000000000000000000000000000000000000000000000000000000000000000000000000000000000000000000000000000000000000000000000000000000000000000000000000000000000000000000000000000000000000000000000000000000000000000000000000000000000000000000000000000000000000000000000000000000000000000000000000000000000000000000000000000000000000000000000000000000000000000000000000000000000000000000000000000000000000000000000000000000000000000000000000000000000000000000000000000000000000000000000000000000000000000000000000000000000000000000000000000000000000000000000000000000000000000000000000000000000000000000000000000000000000000000000000000000000000000000000000000000000000000000000000000000000000000000000000000000000000000000000000000000000000000000000000000000000000000000000000000000000000000000000000000000000000000000000000000000000000000000000000000000000000000000000000000000000000000000000000000000000000000000000000000000000000000000000000000000000000000000000000000000000000000000000000000000000000000000000000000000000000000000000000000000000000000000000000000000000000000000000000000000000000000000000000000000000000000000000000000000000000000000000000000000000005400000000000000000000000000000000000000000000000000000000000000000000000000000000000000000000000000000000000000000000000000000000000000000000000000000000000000000000000000000000000000000000000000000000000000000000000000000000000000000054000000000000000000000000000000000000000000000000000000000000000000000000000000000000000000000000000000000000000000000000000000000000000000000000000000000000000000000000000000000000000000000000000000000000000000000000000000000000000000000000000000000000000000000000000000000000000000000000000000000000000000000000000000000000000000000000000000000000000000000000000000000000000000000000000000000000000000000000000000000000000000000000000000000000000000000000000000000000000000000000000000000000000000000000000000000000000000000000000000000000000000000000000000000000000000000000000000000000000000000000000000000000000000000000000000000000000000000000000000000000000000000000000000000000000000000000000000000000000000000000000000000000000000000000000000000000000000000000000000000000000000000000000000000000000000000000000000000000000000000000000000000000000000000000000000000000000000000000000000000000000000000000000000000000000000000000000000000000000000000000000000000000000000000000000000000000000000000000000000000000000000000000000000000000000000000000000000000000000000000000000000000000000000000000000000000000000000000000000000000000000000000000000000000000000000000000000000000000000000000000000000000000000000000000000000000000000000000000000000000000000000000000000000000000000000000000000000000000000000000000000000000000000000000000000000000000000000000000000000000000000000000000000000000000000000000000000000000000000000000000
#036320:120000000000000000000000000000000000000000000000000000000000000000000000000000000000000000000000000000000000000000000000000000000000000000000000000000000000000000000000000000000000000000000000000000000000000000000000000000000000000000000000000000000000000000000000000000000000000000000000000000000000000000000000000000000000000000000000000000000000000000000000000000000000000000000000000000000000000000000000000000000000000000000000000000000000000000000000000000000000000052000000590000000000000000000000000000000000000000000000000000000000000000000000000000000000000000000000000000000000000000000000000000000000000000000000000000000000005932000000000000000000000000000000000000000000000000000000000000000000000000000000000000000000000000000000000000000000000000000000000000000000000000000000000000000000000000000000000000000000000000000000000000000000000000000000000000000000000000000000000000000000000000000000000000000000000000000000000000000000000000000000000000000000000000000000000000000000000000000000000000000000000000000000000000000000000000000000000000000000000000000000000000000000000000000000000000000000000052000000000000005600000000000000000000000000000000000000000000000000000000000000000000000000000000000000000000000000000000000000000000000000000000000000560000005200000000000000000000000000000000000000000000000000000000000000000000000000000000000000000000000000000000000000000000000000000000000000000000000000000000000000520000005600000000000000000000000000000000000000000000000000000000000000000000000000000000000000000000000000000000000000000000000000000000000000000000000000000026000000000000000000000000000000000000000000000000000000000000000000000000000000000000000000000000000000000000000000000000000000000000000000000000000000000000000000000000000000000000000000000000000000000000000000000000000000000000000000000000000000000000000000000000000000000000000000000000000000000000000000000000000000000000000000000000000000000000000000000000000000000000000000000000000000000000000000000000000000000000000000000000000000000000000000000000000000000000000000000000000000000000000000000000000000000000000000000000000000000000000000000000000000000000000000000000000000000000000000000000000000000000000000000000000000000000000000000000000000000000000000000000000000000000000000000000000000000000000000000000000000000000000000000000000000000000000000000000000000000000000000000000000000000000000000000000000000000000000000000000000000000000000000000000000000000000000000000000000000000000000000000000000000000000000000000000000000000000000000000000000000000000000000000000000000000000000000000000000000000000000000000000000000000000000000000000000000000000000000000000000000000000000000000000000000000000000000000000000000000000000000000000000000000000000000000000000000000000000000000000000000000000000000000000000000000000000000000000000000000000000000000000000000000000000000000000000000000000000000000000000000000000000000000000000000000000000000000000000000000000000000000000000000000000000000000000000000000000000000000000000000000000000000000000000000000000000000000000000000000000000000000000000000000000000000000000000000000000000000000000000000000000000000000000000000000000000000000000000000000000000000000000000000000000000000000000000000000000000000000000000000000000000000000000000000000000000000000000000000000000000000000000000000000000000000000000000000000000000000000000000000000000000000000000000000000000000000000000000000000000000000000000000000000000000000000000000000000000000000000000000000000000000000000000000000000000000000000000000000000000000000000000000000000000000000000000000000000000000000000000000000000000000000000000000000000000000000000000000000000000000000000000000000000000000000000000000000000000000000000000000000000000000000000000000000000000000000000000000000000000000000000000000000
#0363c1:120000000000000000000000000000000000005200000000000000000000000000000000000000005200000000000000000000000000000000000000000000000000000000000000000000000000000032000000000000000000000000000000000000005200000000000000000000000000000000000000005200000000000000000000000000000000000000520000000000000000000000000000000000005200000000000000000000000000000000000000520000000000000000000000000000000000000000000000000000000000000000000000000000000000000000000000000000000000000000000000000000000000000000000000000000000000000000000000000000000000000000000000000000000000000000000000000000000000000000000000000000000000000000000000000000000000000000000000000000000000000000000000000000000000000000000000000000000000000000000000000000000000000000000000000000000000000000000000000000000000000000000000000000000000000000000000000000000000000000000000000000000000000000000000000000000000000000000000000000000000000000000000000000000000000000000000000000000000000000000000
#036351:000000000000000000000000000000000000000000000000000000000000000000000000000000000000000000000000000000000000000000000000000000000000000000000000000000000000000059000000000000000000000000000000000000000000000000000000000000000000000000000000000000000000000000000000000000000000000000000000000000000000000000000000000000590000000000000000000000000000000000000000000000000000000000000000000000000000000000000000000000000000000000000000000000000000000000000000000000000000000000000000000000000000000000000000000000000000000000000000000000000000000000000000000000000000000000000000000000000000000000000000000000000000000000000000000000000000000000000000000000000000000000000000000000000000000000000000000000000000000000000000000000000000000000000000000000000000000000000000000000000000000000000000000000000000000000000000000000000000000000000000000000000000000000000000000000000000000000000000000000000000000000000000000000000000000000000000000000000000000000000000000000000000000000000000000000000000000000000000000000000000000000000000000000000000000000000000000000000000000000000000000000000000000000000000000000000000000000000000000000000000000000000000000000000000000000000000000000000000000000000000000000000000000000000000000000000000000000000000000000000000000000000000000000000000000000000000000000000000000000000000000000000000000000000000000000000000000000000000000000000000000000000000000000000000000000000000000000000000000000000000000000000000000000000000000000000000000000000000000000000000000000000000000000000000000000000000000000000000000000000000000000000000000000000000000000000000000000000000000000000000000000000000000000000000000000000000000000000000000000000000000000000000000000000000000000000000000000000000000000000000000000000000000000000000000000000000000000000000000000000000000000000000000000000000000000000000000000000000000000000000000000000000000000000000000000000000000000000000000000000000000000000000000000000000000000000000000000000000000000000000000000000000000000000000000000000000000000000000000000000000000000000000000000000000000000000000000000000000000000000000000000000000000000000000000000000000000000000000000000000000000000000000000000000000000000000000000000000000000000000000000000000000000000000000000000000000000000000000000000000000000000000000000000000000000000000000000000000000000000000000000000000000000000000000000000000000000000000000000000000000000000000000000000000000000000000000000000000000000000000000000000000000000000000000000000000000000000000000000000000000000000000000000000000000000000000000000000000000000000000000000000000000000000000000000000000000000000000000000000000000000000000000000000000000000000000000000000000000000000000000000000000000000000000000000000000000000000000000000000000000000000000000000000000000000000000000000000000000000000000000000000000000000000000000000000000000000000000000000000000000000000000000000000000000000000000000000000000000000000000000000000000000000000000000000000000000000000000000000000000000000000000000000000000000000000000000000000000000000000000000000000000000000000000000000000000000000000000000000000000000000000000000000000000000000000000000000000000000000000000000000000000000000000000000000000000000000000000000000000000000000000000000000000000000000000000000000000000000000000000000000000000000000000000000000000000000000000000000000000000000000000000000000000000000000000000000000000000000000000000000000000000000000000000000000000000000000000000000000000000000000000000000000000000000000000000000000000000000000000000000000000000000000000000000000000000000000000000000000000000000000000000000000000000000000000000000000000000000000000000000000000000000000000000000000000000000000000000000000000000000000000000000000000000000000000000000000000000000000000000000000000000000000000000000000000000000000000000000000000000000
#036361:000000000000000000000000000000000000000000000000000000000000000000000000000000000000000000000000000000000000000000000000000000000000000000000000000000000000000000000000000000000000000000000000000000000058000000000000000000000000000000000000580000000000000000000000000000000000000000000000000000000000000000000000000000000000000000000000000000000000000000000000000000000000000000000000000000000000000000000000000000000000000000000000000000000000000000000000000000000000000000000000000000000000000000000000000000000000000000000000000000000000000000000000000000000000000000000000000000000000000000000000000000000000000000000000000000000000000000000000000000000000000000000000000000000000000000000000000000000000000000000000000000000000000000000000000000000000000000000000000000000000000000000000000000000000000000000000000000000000000000000000000000000000000000000000000000000000000000000000000000000000000000000000000000000000000000000000000000000000000000000000
#036391:000000000000000000000000000000000000000000000000000000000000000000000000000000000000000000000000000000000000000000000000000000000000000000000000000000000000000000000000000000000000000000000000000000000000000000000000000000000000000000000000000000000000000000000000000000000000000000005500000000000000000000000000000000550000000000000000000000000000000000000000000000000000000000000000000000000000000000000000000000000000000000000000000000000000000000000000000000000000000000000000000000000000000000000000000000000000000000000000000000000000000000000000000000000000000000000000000000000000000000000000000000000000000000000000000000000000000000000000000000000000000000000000000000000000000000000000000000000000000000000000000000000000000000000000000000000000000000000000000000000000000000000000000000000000000000000000000000000000000000000000000000000000000000000000000000000000000000000000000000000000000000000000000000000000000000000000000000000000000000000000
#036381:000000000000000000000000000000000000000000000000000000000000000000000000000000000000000000000000000000000000000000000000000000000000000000000000000000000000000000000000000000000000000000000000000000000000000000000000000000000000000000000000000000000000000000000000000000000000000000000000000000000000000000000000000000000000000000000000000000000000000000000000005600000000000000000000000000000000000026000000000000000000000000000000000000000000000000000000000000000000000000000000000000000000000000000000000000000000000000000000000000000000000000000000000000000000000000000000000000000000000000000000000000000000000000000000000000000000000000000000000000000000000000000000000000000000000000000000000000000000000000000000000000000000000000000000000000000000000000000000000000000000000000000000000000000000000000000000000000000000000000000000000000000000000000000000000000000000000000000000000000000000000000000000000000000000000000000000000000000000000000000000
#037321:00140000
#0373a1:0024
#0373a0:00140000
#037320:0024
#0383b0:1333
#038370:00330033
#0393b0:33
#039360:000053230000
#039371:13
#039321:000053230000
#039321:00000013
#040321:330033000033000000000000
#040361:005400000000000000000000
#040371:000000000000005300230000
#040350:000000000014000000000000
#0403a0:000000000000005400240000
#0413b0:00130000
#041360:0023
#042370:13
#042320:00230000
#043370:000000000013000000000000
#043320:000023
#0433b1:000013
#043361:000000000000000000000023
#044361:13
#0443b1:00230000
#044320:13
#044370:00230000
#044320:00001323
#044370:0000000000530000
#0443b1:00000013
#044361:0000000000000053
#0453b1:23
#045320:13
#045370:00230000
#0453b1:00130023
#045361:0033
#045320:0013
#045370:00000023
#0463b0:13
#046360:00230000
#046321:00130023
#046371:0033
#0463b0:0013
#046360:00000023
#047320:000000000000000016520022
#047381:000016
#0473c1:000000000000000000520022
#048321:000000000000000000000013
#049371:002300000000
#049371:0013
#049321:000023
#0493b1:000000000000000000000013
#050361:002300000000
#050361:0013
#0503b1:000023
#050361:000000000000000000000013
#0513b1:005300000000000000000000
#051361:00230000
#050320:000000000000000000000013
#051370:005300000000000000000000
#051320:00230000
#052320:000000000000000000000013
#053360:005300000000000000000000000000000000000000000000
#053320:002300000000
#053370:000000000013000000000000
#0533b0:000000000000005323000000
#053361:0013
#053321:000000000000005323000000
#053321:000000000000000000000013
#054361:002300000000
#053370:000000000000000000000013
#0543b0:003300230000
#054370:00330000
#054321:00130000
#054361:0023
#054381:000000000000000000000013
#055321:000000000000000000000053000000000000000000000000
#055351:00000023
#0553b0:000013000000000000230000
#055350:000000000000000000000053000000000000000000000000
#0563b0:000000000000000000000013
#057370:002300000000
#056361:000000000000000000000013
#057321:002300000000
#057321:000000000000000000000013
#058361:002300000000
#057370:000000000000000000000013
#0583b0:002300000000
#058360:000000000000000000000013
#0593b0:002300000000
#060320:130000000023000000000000
#060370:000000000053000000000000000000000000000000000000
#060360:00000013
#061360:00230000
#0603b1:000000000000000000000013
#061321:00230000
#061371:00000013
#062371:00230000
#061320:000000000000000000000013
#0623b0:00230000
#062320:000000000000000000000013
#063370:005300000000000000000000
#063320:00330000
#0633c0:00000022
#0633b1:00130000
#063321:00000022
#0633c1:000000000000000000000012
#064381:005200000000260000000000000000000000000000000000
#063320:000000000000000000000012
#064360:005200000000000000000000000000000000000000000000
#064320:00260000
#064370:000000000000000000000013
#0653b0:002300000000
#064321:000000000000000000000013
#065361:002300000000
#066321:000000000000000000000012
#067371:005200
#067321:00000022
#067360:00000012
#0683c0:00220000
#068381:00120000
#068321:00000022
#068380:00000012
#0683c0:000000000000000000000022
#069360:12
#069320:002200000000
#069380:00120022
#0693c0:0052
#069361:00000012
#069321:000000000000000000000022
#069380:000000000000000000000012
#0703c0:00220000
#070360:000000000012000000000000
#070320:000022
#071320:00130000
#071340:0023
#071371:0013
#071391:00000023
#071360:00000013
#072380:23
#0723b1:13230000
#072380:00130000
#072360:0023
#072391:0013
#072371:00000023
#072340:00000013
#073320:23
#074380:000000000000000000000012
#0753a0:00240000
#074361:000000000000000000000012
#075321:00240000
#0753b1:0013
#075381:00000023
#075350:00000013
#076320:23
#076351:13230000
#076320:00130000
#076350:0023
#076381:0013
#0763b1:00000023
#076380:00000013
#077320:0023
#079320:13
#079360:002300000000
#0793b1:000013000023000000000000
#079361:000000000000005300000000000000000000000000000000
#0793b1:00000013
#079371:000000000000000000000023
#079320:000000000000000000000013
#080370:005300000000000000000000000000000000000000000000
#080320:002300000000
#080320:0013
#080360:000000000000000000000000003333333333000000000000
#0803b0:00000023
#0803b1:0013
#080321:00000023
#081391:15
#081381:002500000000
#081381:00140000
#081371:000000000024000000000000
#081371:0013
#081361:000023
#081361:00000012
#081351:000000000000000000000022
#0843c1:000000000000000000000012
#085371:005200
#0853c1:00000022
#085320:00000012
#086370:00520000
#086320:00000022
#086371:00000012
#0873c1:000000000052000000000000000000000000000000000000
#087381:000022
#087360:000012
#088320:005200000000
#088370:000022
#0883c1:000012
#089371:000000000052000000000000000000000000000000000000
#0893c1:00000022
#089370:00000012
#090320:000000000052000000000000000000000000000000000000
#090360:000022
#090381:000012
#0903c1:000000000000000000000022
#090380:000000000000000000000012
#091320:00000022
#092320:000000000000000000000013
#093360:002300000000
#092371:000000000000000000000013
#0933b1:002300000000
#0933b1:000000000000000000000013
#094371:002300000000
#093360:000000000000000000000013
#094320:002300000000
#094370:000000000000000000000013
#095320:002300000000
#0963b0:1323
#096360:00530000
#0963b0:000000000000000000000013
#097360:00230000
#097320:000000000000000000000000000000000000000000000000000000000000000000000000000000000000000014545454
#097340:000000000000000000000000000000000000000000000000000000000000000000000000000000000000000000000000000000000000000000000000000000000000000000000000000000000000000000000000000000000054005400540054
#098320:545454545454545454545454545454545454545454545454240000000000000000000000000000000000000000000000
#098340:005400540054005400540054005400540054005400540054005400540054005400540054005400540054005400540054000000000000000000000000000000000000000000000000000000000000000000000000000000000000000000000000
#0973a1:000000000000000000000000000000000000000000000000000000000000000000000000000000000000000014545454
#097381:000000000000000000000000000000000000000000000000000000000000000000000000000000000000000000000000000000000000000000000000000000000000000000000000000000000000000000000000000000000054005400540054
#0983a1:545454545454545454545454545454545454545454545454240000000000000000000000000000000000000000000000
#098381:005400540054005400540054005400540054005400540054005400540054005400540054005400540054005400540054000000000000000000000000000000000000000000000000000000000000000000000000000000000000000000000000
#099381:00130000
#099351:000000000000003333333333000000000000000000000000
#099321:0023
#0993b1:000013
#099321:000000000000000000000026
#099320:000013
#099380:000000000000000000000026
#100360:0013
#1003b0:000023
#100320:000000000000000000000013
#101370:005300000000000000000000000000000000000000000000
#101320:002300000000
#101370:0013
#101320:000023
#101360:000000000000000000000013
#1023b0:00230000
#1033b0:000000000000000000000013
#104360:005300000000000000000000000000000000000000000000
#1043b0:002300000000
#104360:000000000013000000000000
#104320:000000000000005323000000
#104371:0013
#1043b1:000000000000005323000000
#1043b1:000000000000000000000013
#105371:002300000000
#104360:000000000000000000000013
#105320:003300230000
#105360:00330000
#1053b1:00130000
#105371:0023
#105351:000000000000000000000013
#1063b1:000000000000000000000053000000000000000000000000
#106381:00000023
#106320:000013000000000000230000
#106380:000000000000000000000053000000000000000000000000
#107320:000000000000000000000014
#108360:002400000000
#108360:0014
#1083a0:00000024
#1083a0:000000000000000000000014
#109360:002400000000
#109360:0014
#109320:00000024
#109380:000000000000000000000013
#110380:005300000000000000000000000000000000000000000000
#1103b0:002300000000
#109351:000000000000000000000013
#110351:005300000000000000000000000000000000000000000000
#110321:002300000000
#110381:000000000000000000000016
#1113b1:0053000000000000
#111381:0022
#110320:000000000000000000000016
#111320:0053000000000000
#111360:0022
#111370:00000013
#112370:00230000
#111321:000000000000000000000013
#1123b1:00230000
#112361:00000013
#113361:00230000
#1123b0:000000000000000000000013
#113320:00230000
#1133b0:000000000000000000000013
#114360:005300000000000000000000
#1143b0:00330000
#114320:00000022
#114321:00130000
#1143c1:00000022
#114321:000000000000000000000012
#115361:005200000000000000000000000000000000000000000000
#115321:00260000
#1143c0:000000000000000000000012
#115380:005200000000260000000000000000000000000000000000
#1153b0:000000000000000000000013
#116370:003300000000
#1163b0:00332300
#116361:00130000
#116321:000000000000005300000000230000000000000000000000
#117361:000000000013
#117341:000000000000000000000053
#118321:53
#118341:005300000000000000000000
#118361:000033230000000000000000
#1173b0:000000000013
#117390:000000000000000000000053
#118370:53
#118390:005300000000000000000000
#1183b0:000033230000000000000000
#118320:000000000000000000000015
#119390:005500000000000000000000
#119320:00250000
#118391:000000000000000000000015
#119321:005500000000000000000000
#119391:00250000
#119321:000000000000000000000012
#120361:52220000
#1193c0:000000000000000000000012
#120380:52220000
#1213b0:000012
#121380:000000000000000000000000000000000000000000000000000000000000000000000000000000000000000000000000000000000000000000000000000000000000000000000000000000000000000000000000000000000000000000000000000000000000000000000000000000000000000000000000000000000000000000000000000000000000000000000000000000000000000000000000000000000000000000000000000000000000000000000000000000000000000000000000000000000000000000000000000000000000000000000000000000000000000000000000000000000000000000000000000000000000000000000000000000000000000000000000000000000000000000000000000000000000000000000000000000000000000000000000000000000000000000000000000000000000000000000000000000000000000000000000000000000000000000000000000000000000000000000000000000000000000000000000000000000000000000000000000000000000000000000000000000000000000000000000000000000000000000000000000000000000000000000000000000000000000000000000000000000000000000000000000000000000000000000000000000000000000000000000000000000000000000000000000000000000000000000000000000000000000000000000000000000000000000000000000000000000000000000000000000000000000000000000000000000000000000000000000000000000000000000000000000000000000000000000000000000000000000000000000000000000000000000000000000000000000000000000000000000000000000000000000000000000000000000000000000000000000000000000000000000000000000000000000000000000000000000000000000000000000000000000000000000000000000000000000000000000000000000000000000000000000000000000000000000000000000000000000000000000000000000000000000000000000000000000000000000000000000000000000000000000000000000000000000000000000000000000000000000000000000000000000000000000000000000000000000000000000000000000000000000000000000000000000000000000000000000000000000000000000000000000000000000000000000000000000000000000000000000000000000000000000000000000000000000000000000000000000000000000000000000000000000000000000000000000000000000000000000000000000000000000000000000000000000000000000000000000000000000000000000000000000000000000000000000000000000000000000000000000000000000000000000000000000000000000000000000000000000000000000000000000000000000000000000000000000000000000000000000000000000000000000000000000000000000000000000000000000000000000000000000000000000000000000000000000000000000000000000000000000000000000000000000000000000000000000000000000000000000000000000000000000000000000000000000000000000000000000000000000000000000000000000000000000000000000000000000000000000000000000000000000000000000000000000000000000000000000000000000000000000000000000000000000000000000000000000000000000000000000000000000000000000000000000000000000000000000000000000000000000000000000000000000000000000000000000000000000000000000000000000000000000000000000000000000000000000000000000000000000540000000000000000000000000000000000000000000000000000000000000000000000000000000000000000000000000000000000000000000000000000000000000000000000000000000000000000000000000000000000000000000000000000005300000000000000000000000000000000000000000000000000000000000000000000000000000000000000000000000000000000000000000000000000000000000000000000000000000000000000000000000000000000000000000000000000000000000000000000000000000000000000000000005653000000000000000000000000000000000000000000000000000000000000000000000000000000000000000000000000000000000000000000000000000000000000000000000000000000000000000000000000000000000000000000000000000000000000000000000000000000000000000000000000000000000000000000000000000000000000000000000000000000000000000000000000000022000000000000000000000000000000000000000000000000000000000000000000000000000000000000000000000000000000000000000000000000000000000000000000000000000000000000000000000000000000000000000000000000000000000000000000000000000000000000000000000000000000000000000000000000000000000000000000000000000000000000000000000000000000
#121331:000012
#121341:0000000000000000000000000000000000000000000000540000000000000000
#121351:000000000000000000000000000000000000000000000000000000000000000000000000000000000000000000000000000000000000000000000000000000000000000000000000000000000000000000000000000000000000000000000000000000000000000000000000000000000000000000000000000000000000000000000000000000000000000000000000000000000000000000000000000000000000000000000000000000000000000000000000000000000000000000000000000000000000000000000000000000000000000000000000000000000000000000000000000000000000000000000000000000000000000000000000000000000000000000000000000000000000000000000000000000000000000000000000000000000000000000000000000000000000000000000000000000000000000000000000000000000000000000000000000000000000000000000000000000000000000000000000000000000000000000000000000000000000000000000000000000000000000000000000000000000000000000000000000000000000000000000000000000000000000000000000000000000000000000000000000000000000000000000000000000000000000000000000000000000000000000000000000000000000000000000000000000000000000000000000000000000000000000000000000000000000000000000000000000000000000000000000000000000000000000000000000000000000000000000000000000000000000000000000000000000000000000000000000000000000000000000000000000000000000000000000000000000000000000000000000000000000000000000000000000000000000000000000000000000000000000000000000000000000000000000000000000000000000000000000000000000000000000000000000000000000000000000000000000000000000000000000000000000000000000000000000000000000000000000000000000000000000000000000000000000000000000000000000000000000000000000000000000000000000000000000000000000000000000000000000000000000000000000000000000000000000000000000000000000000000000000000000000000000000000000000000000000000000000000000000000000000000000000000000000000000000000000000000000000000000000000000000000000000000000000000000000000000000000000000000000000000000000000000000000000000000000000000000000000000000000000000000000000000000000000000000000000000000000000000000000000000000000000000000000000000000000000000000000000000000000000000000000000000000000000000000000000000000000000000000000000000000000000000000000000000000000000000000000000000000000000000000000000000000000000000000000000000000000000000000000000000000000000000000000000000000000000000000000000000000000000000000000000000000000000000000000000000000000000000000000000000000000000000000000000000000000000000000000000000000000000000000000000000000000000000000000000000000000000000000000000000000000000000000000000000000000000000000000000000000000000000000000000000000000000000000000000000000000000000000000000000000000000000000000000000000000000000000000000000000000000000000000000000000000000000000000000000000000000000000000000000000000000000000000000000000000000000000000000000000000000000000000000000000000000000000000000000000000000000000000000000000000000000000000000000000000000000000000000000000000000000000000000000000000000000000000000000000000000000000000000000000000000000000000005300000000000000000000000000000000000000000000000000000000000000000000000000000000000000000000000000000000000000000000000000000000000000000000000000000000000000000000000000000000000000000000000000000000000000000000000000000000000000000000000053000000000000000000000000000000000000000000000000000000000000000000000000000000000000000000000000000000000000000000000000000000000000000000000000000000000000000000000000000000000000000000000000000000000000000000000000000000000000000000000000000000000000000000000000000000000000000000000000000000000000000000000000000000000000000000000000000000000000000000000000000000000000000000000000000000000000000000000000000000000000000000000000000000000000000000000000000000000000000000000000000000000000000000000000000000000000000000000000000000000000000000000000000000000000000000000000000000000000000000000000000000000000000000000000000000000000
#121321:000000000056
#121361:000000000000000000000022
