This file was generated by Ched 2.7.0.0.
#TITLE ""
#ARTIST ""
#DESIGNER ""
#DIFFICULTY 0
#PLAYLEVEL
#SONGID ""
#WAVE ""
#WAVEOFFSET 0
#JACKET ""
#REQUEST "ticks_per_beat 480"
#00002: 4
#BPM01: 218
#00008: 01
#TIL00: ""
#VOLUME: ""
#HISPEED 00
#MEASUREHS 00
#0091a:1414
#00910:41
#01014:1414
#01118:1414
#01212:1414
#0131a:14
#01314:0014
#01514:0014
#0151a:14
#0211a:14
#02118:0014
#02114:00140000
#0231a:14
#02318:0014
#02912:14
#02918:0014
#03014:140000000000000000000014
#0301a:0014
#03318:14
#03612:14
#03718:14
#0411a:1414
#04114:00140000
#04110:41
#04212:1414
#04218:00140000
#04412:0014
#04418:00000014
#01618:14
#01612:0014
#02214:0014
#02212:14
#02218:00140000
#01418:14
#01412:0014
#02718:0014
#0271a:14
#0281a:14
#02819:003400000000
#0351a:14
#03814:14
#03812:0014
#04018:14
#04014:0014
#00714:000000000000000000000014
#03914:14
#0431a:14
#04318:0014
#04319:00340034
#05418:14
#05414:000000140000000000000034
#05412:00000014
#0541a:0014
#05514:003414000000
#05014:000000000000000000000014
#04918:000000000000000000000014
#04812:000000000000000000000014
#0521a:000000000000000000000014
#05214:0024
#05218:00240000
#05714:000000000000000000000014
#0561a:000000000000000000000014
#05610:000000000000000000000041
#0591a:000000000034000014000034
#05919:003400000000
#05818:000000000000000000000014
#06212:000000000000140000000034
#06314:000000000014340000000000000000000000000000000000
#06312:000000000000000000000014
#0641a:00000014
#06416:000000000000000000000034
#06917:0000000000000014
#0691a:14
#06918:00340034
#07514:00000014
#0751a:00240000
#07618:14
#07614:00000014
#07612:00140000
#0761a:0014
#0811a:14
#08118:0014
#08112:00140000
#08114:00000014
#0821a:14
#08218:0014
#08212:00140000
#08214:00000014
#07112:00140000
#07118:0014
#07114:00000014
#0721a:14
#07214:00140000
#07218:0014
#07212:00000014
#07317:000000000000000000000000000000000000000000143400
#0731a:14
#07318:0034
#08514:14
#08612:14
#08714:14
#08918:14
#0901a:14
#09118:14
#09618:000000000000000000140034
#0971a:000000000000000000000014
#09718:000000340000340034000000
#07718:0014
#0781a:14
#07914:14
#07912:00000014
#07910:41
#09512:000034000034001434000034
#09414:000000000000000000000014
#09214:000000000000000000000014
#09318:000000000000000000000014
#01718:000000000000000000000014
#0171a:0034
#01914:000000000000000000000014
#01912:0034
#05312:00000014
#06715:0000000000000014
#06714:00340034
#06612:000000000000000000000014
#02512:000000000000000000000014
#02514:0034
#02510:41
#06012:00000014
#06014:000000000000000000000034
#06118:00000014
#0611a:000000000000000000000034
#1171a:000000000000000000000014
#11818:000000340014340000000000
#1181a:000000000000000000000014
#11912:000000000000000000000014
#10518:14
#10514:000000140000000000000034
#1051a:0014
#10512:00000024
#10614:003414000000
#1031a:000000000000000000000014
#10314:0024
#10318:00240000
#10814:000000000000000000000014
#1071a:000000000000000000000014
#1101a:000000000034000014000034
#11019:003400000000
#10918:000000000000000000000014
#11414:000000000014340000000000000000000000000000000000
#11412:000000000000000000000014
#10412:00000014
#11112:00000014
#11114:000000000000000000000034
#11218:00000014
#1121a:000000000000000000000034
#1151a:00000014
#11518:000000000000000000000034
#0841f:000000000000000000000011
#00012:000000000000000000000024
#0001a:000000000000000000000024
#00112:000000000000000000000024
#0011a:000000000000000000000024
#00212:000000000000000000000024
#0021a:000000000000000000000024
#00412:000000000000000000000024
#0041a:000000000000000000000024
#00418:000000000034000000000000
#00419:003400000000
#00512:000000000000000000000024
#0051a:000000000000000000000024
#04712:24
#04716:00240000
#0471a:0024
#12018:000000000000000000000024
#11612:000000000000000000000025
#09912:000000000000000000000024
#0991f:000000000000000000000021
#10018:000000000000000000000024
#10010:000000000000000000000041
#10114:000000000000000000000024
#11312:000000000000240000000034
#04514:00343400
#04618:00343400
#06516:000000340000340034000000
#07018:00340000
#07417:003400000000
#07418:000000000034000000000000
#08318:0034
#08319:00340000
#0181a:003400000000
#02012:003400000000
#06814:00340000
#02614:003400000000
#03112:00340000
#05112:00340000
#12118:000034000034000034000000
#10212:00340000
#02358:0024
#0235a:54
#03358:54
#03652:54
#03758:54
#0445a:14
#0475a:000000000000000000000014
#0275a:64
#02758:0064
#0355a:64
#03854:64
#03852:0064
#04054:0014
#00754:000000000000000000000054
#0245a:14
#03954:64
#04358:0024
#0435a:54
#05554:002400
#05552:000000000000000000000014
#05452:00000054
#05054:000000000000000000000054
#04958:000000000000000000000064
#04852:000000000000000000000064
#0525a:000000000000000000000054
#05754:000000000000000000000054
#0565a:000000000000000000000054
#05858:000000000000000000000064
#05152:000000000000000000000014
#06252:0054
#06354:000000000024000000000000000000000000000000000000
#06352:000000000000000000000054
#0645a:00000064
#06557:000000000000000000000014
#06957:0000000000000024
#0695a:54
#07357:0000000000000024
#0735a:64
#08554:64
#08652:64
#08754:64
#08958:54
#0905a:54
#09158:54
#09658:00000064
#0975a:000000000000000000000054
#07758:0064
#0785a:64
#07954:64
#07952:00000064
#09454:000000000000000000000054
#09254:000000000000000000000054
#09358:000000000000000000000064
#0755a:00140000
#08054:0014
#08358:00000014
#09856:000000000000000000000014
#0595a:000024
#09552:000000000000002400000000
#0285a:64
#02858:000000000014000000000000
#03152:000000000000000000000014
#03054:000000000000000000000054
#0185a:000000000014000000000000
#01758:000000000000000000000054
#01954:000000000000000000000064
#02052:000000000014000000000000
#06755:0000000000000024
#06652:000000000000000000000064
#02552:000000000000000000000054
#02654:000000000014000000000000
#06052:00000054
#06158:00000054
#1175a:000000000000000000000054
#11858:000000000024000000000000
#1185a:000000000000000000000054
#11952:000000000000000000000064
#11958:00140000
#10654:002400
#10652:000000000000000000000014
#1035a:000000000000000000000054
#10854:000000000000000000000054
#1075a:000000000000000000000054
#1105a:000024
#10958:000000000000000000000064
#11454:000000000024000000000000000000000000000000000000
#11452:000000000000000000000054
#11152:00000054
#11258:00000054
#1155a:00000054
#09952:000000000000000000000064
#10058:000000000000000000000064
#10154:000000000000000000000064
#10552:00000064
#11352:0064
#12158:000000000000000000000016
#10252:000000000000000000000014
#0033a0:000000000000000000000014
#004390:003400000000
#004380:000000000034000024000000
#006340:000000000000000000000014
#007340:000000340000340000000034
#008320:0024
#0173a0:1434
#017380:000000000000000000000034
#0183a0:000034000024000000000000
#019320:1434
#019340:000000000000000000000034
#020320:000034000024000000000000
#0233a0:14
#023380:0054
#0243a0:24
#025340:1434
#025320:000000000000000000000034
#026340:000034000024000000000000
#0273a0:14
#027380:0034
#0283a0:34
#028390:003400000000
#028380:000000000024000000000000
#030340:000000000000000000000014
#031320:000000340000340034000024
#033380:14
#0333a0:0024
#034340:1424
#0353a0:14
#035380:0024
#036320:14
#036340:0024
#037380:14
#0373a0:0024
#038340:14
#038320:0034
#039340:34
#039320:0024
#0433a0:14
#043390:00340034
#043380:0034
#0443a0:24
#045340:14343400
#045320:00000024
#046380:14343400
#0463a0:00000024
#0473a0:000000000000140000000024
#048320:000000000000000000000014
#049340:00342400
#049380:000000000000000000000014
#0503a0:00342400
#050340:000000000000000000000014
#051320:000000340000340000000024
#0523a0:000000000000000000000014
#053380:00342400
#054320:00000014
#054340:000000000000000000000034
#055340:003454000000
#055320:000000000000000000000024
#0563a0:000000000000000000000014
#057380:00342400
#057340:000000000000000000000014
#058320:00342400
#058380:000000000000000000000014
#059390:003400000000
#0593a0:000000000034000034000034
#060380:0024
#060320:00000014
#060340:000000000000000000000034
#061340:00240000
#061380:00000014
#0613a0:000000000000000000000034
#0623a0:00240000
#062320:000000000000140000000034
#063340:000000000054340000000000000000000000000000000000
#063320:000000000000000000000034
#064340:0024
#0643a0:00000014
#064360:000000000000000000000034
#065360:000000340000340034000000
#065370:000000000000000000000024
#066320:000000000000000000000014
#067340:00340034
#067350:0000000000000054
#068340:00340000
#068320:00000024
#0693a0:14
#069380:00340034
#069370:0000000000000054
#070380:00340000
#0703a0:00000024
#0733a0:14
#073380:0034
#073370:000000000000000000000000000000000000000000543400
#074370:003400000000
#074380:000000000034000000000000
#0743a0:00000034
#0753a0:00240000
#077380:0014
#0783a0:34
#078380:0024
#079340:14
#079320:000000000054000000340000
#080340:005400240000
#0833a0:14
#083390:00340000
#083380:00003424
#085340:14
#086320:34
#087340:34
#088320:24
#089380:14
#0903a0:34
#091380:34
#0923a0:24
#092340:000000000000000000000014
#093320:00342400
#093380:000000000000000000000014
#0943a0:00342400
#094340:000000000000000000000014
#095320:000034000034005434000034
#096340:0024
#096380:000000000000000000140034
#097380:000000340000340034000000
#0973a0:000000000000000000000034
#098360:000000000000000000340024
#099320:000000000000000000000014
#100340:00342400
#100380:000000000000000000000014
#1013a0:00342400
#101340:000000000000000000000014
#102320:000000340000340000000024
#1033a0:000000000000000000000014
#104380:00342400
#105320:00000014
#105340:000000000000000000000034
#106340:003454000000
#106320:000000000000000000000024
#1073a0:000000000000000000000014
#108380:00342400
#108340:000000000000000000000014
#109320:00342400
#109380:000000000000000000000014
#110390:003400000000
#1103a0:000000000034000034000034
#111380:0024
#111320:00000014
#111340:000000000000000000000034
#112340:00240000
#112380:00000014
#1123a0:000000000000000000000034
#1133a0:00240000
#113320:000000000000140000000034
#114340:000000000054340000000000000000000000000000000000
#114320:000000000000000000000034
#115340:0024
#1153a0:00000014
#115380:000000000000000000000034
#116380:00342400
#116320:000000000000000000000015
#117330:003500000000
#117340:000000000035000000000000
#117350:000025
#1173a0:000000000000000000000014
#118380:000000340054340000000000
#1183a0:000000000000000000000034
#119380:00240000
#119320:000000000000000000000014
#120340:00342400
#120380:000000000000000000000014
#121380:000034000034000034000026
