This file was generated by Ched 2.7.0.0.
#TITLE ""
#ARTIST ""
#DESIGNER ""
#DIFFICULTY 0
#PLAYLEVEL
#SONGID ""
#WAVE ""
#WAVEOFFSET 0
#JACKET ""
#REQUEST "ticks_per_beat 480"
#00002: 4
#BPM01: 134
#00008: 01
#TIL00: ""
#VOLUME: ""
#HISPEED 00
#MEASUREHS 00
#0041a:14
#00414:0014
#00518:14
#00512:0014
#00618:14
#00612:0014
#00814:0014
#0091a:14
#00910:41
#01012:14
#01018:0014
#00314:0014
#0031a:24
#0131a:14
#01314:0014
#01418:14
#01412:0014
#02312:0016
#02318:26
#02418:16000016
#02412:0016
#02512:16
#02518:0016
#02612:16000016
#02612:16
#02618:0016
#02718:16
#02712:0016
#02710:41
#02818:16000016
#02812:0016
#03214:14
#03318:14
#0311a:14
#03412:14
#03712:14
#0381a:14
#05618:16
#05612:0016
#05610:41
#05718:1616
#05712:00160000
#05812:16
#05818:0016
#05912:1626
#05918:00160000
#06418:16
#06412:0016
#06312:0016
#06112:00160000
#06118:26
#0471f:0011
#0351a:24
#05512:0026
#0551f:0021
#06518:26
#06512:00260000
#06018:26
#06012:0026
#0541a:0034
#05419:34
#05212:0034
#05213:34
#02212:34
#02113:0034
#0201a:34
#01919:0034
#01814:34
#01810:41
#01713:0034
#01618:34
#01519:0034
#0461a:34
#04519:0034
#04510:41
#04412:34
#04313:0034
#04218:34
#04119:0034
#04014:34
#03913:0034
#03610:41
#001340:14
#002340:00000024
#0073a0:14
#0083a0:24
#011320:14
#012320:24
#0153a0:14
#015390:0034
#016380:3424
#017320:14
#017330:0034
#018340:3424
#019380:14
#019390:0034
#0203a0:3424
#021340:14
#021330:0034
#022320:3424
#029320:1636
#029330:00360036
#030320:3626
#0353a0:14
#0363a0:24
#039320:14
#039330:0034
#040340:3424
#0413a0:14
#041390:0034
#042380:3424
#043340:14
#043330:0034
#044320:3424
#045380:14
#045390:0034
#0463a0:3424
#047340:0014
#049320:24
#049380:0014
#0513a0:24
#051340:0014
#052330:34
#052320:0034
#053320:24
#053380:0014
#054390:34
#0543a0:0034
#0553a0:24
#061380:0016
#061370:00000036
#062380:3636
#062370:00360000
#063380:26
