This file was generated by Ched 2.7.0.0.
#TITLE ""
#ARTIST ""
#DESIGNER ""
#DIFFICULTY 0
#PLAYLEVEL
#SONGID ""
#WAVE ""
#WAVEOFFSET 0
#JACKET ""
#REQUEST "ticks_per_beat 480"
#00002: 4
#BPM01: 134.0
#00008: 01
#TIL00: ""
#VOLUME: ""
#HISPEED 00
#MEASUREHS 00
#00212:0000000000001313
#00218:0000000000000013
#00315:000000000013000000000013000000000000130000000000
#00318:000000003313330000000000000000001300000000000000000000001300000000000000000000000000000000000000
#0031b:130000000000000000000013000000000013000000130000
#00312:130000000000000013000000000013000000000000130000
#0041b:130000000000000013000000000013000000000000130000
#00418:000000000013000000000013000000000000130000000000
#00415:000000003313330000000000000000001300000000000000000000001300000000000000000000001300000000000000
#00412:130000000000000000000013000000000013000000000000
#0051b:0013000000001300
#00512:130000000000130013000000000000000000000000130000
#00516:0013000000001300
#00515:000000000000000000000000003300000000000000000000
#00514:000000000000003300000000
#00617:0013000000000000
#00612:000000130000000013000000000000000000000000130000
#00616:130000000000000000000013000013000000000000000000
#0061b:230000000000230013000000230000000000230000130000
#0081b:13130000
#00815:000013000013000013000013000000000013000000000013
#00812:000000000000001300001300
#00818:0013001313131313
#00712:000000000000000000130000000000000000000013000000
#00715:230000000000000000000000000000000000000000000013
#00718:2300000000000013
#0071b:0000001300000000
#00915:000000000013000000000000130000000013000000000000
#00912:0000001300000013
#00918:13130013
#0091b:0000001313000013
#00910:41
#01018:130000000000130000000000000000000013000000130000
#0101b:0000001300000000
#01015:130000000013000000000000240000000000000000000000
#01012:0000001300000024
#01014:0000000000240000
#01013:00000024
#01218:000000000000130000000000000000001200000000000013
#01216:13
#01212:000000130000000000001300
#0121c:0012
#0121b:000000000000000000000000000000320032000000000000
#0151b:000000000013000000000000000000000000130000000000
#01515:1300000000000013
#01518:2300001313000000
#01512:000000000000130000000000000000000013000000000000
#01418:240000000000250000150000260000000000000013000000
#01415:00000013
#01412:0000000026160013
#01414:2414000000000000
#01413:00250000
#01618:0000001300000013
#01615:130000000000000000000000000000000000000000000013
#01617:0000000000130000
#0161b:000000000013000000000000130000000000000000000000
#01612:00130013
#01818:0000000000000013
#01815:000000000000000000000000000000000000000000000013
#01816:000000000013000000000000000000130000000000000000
#01817:000000000000000000130013000000000000000000000000
#01812:000013130000
#0181b:000000000013000000000000000000000000130000000000
#01810:41
#02117:0000000000000013
#02112:0000000000000013
#0211b:2333000000000000
#0221b:130000000013000000000000000000000000000000230000
#02216:0013000000000013
#02212:000000000000000000130013000000130000000000000000
#02217:000000000000000013000000230000230000000000000000
#02214:00000013
#02219:00000023
#02916:1414240014142400
#02912:0000001424001400
#0291a:2400140000000014
#03018:000000130000000013000000000000130000000000000000
#03015:000000000013000000130000000000130000000000000000
#03012:1413
#03016:0000000000000014
#0301b:000000000000000000000013000000000000000000000000
#0301a:24
#0311b:130000000000000000000000000000000013000000000000
#03115:0013
#03118:000000140000001400000000000013000000000000000000
#03112:130000000014000000000000000000000013000000000000
#03119:000014141400000000000000
#0311a:000000000014000000000000000000000000000000000000
#03113:000014141400000000000000
#03114:000000140000001400000000000000000000000000000000
#03312:0013000000001300
#03317:0013000000001300
#03316:0000130000130000
#0331b:0000130000130000
#03314:000000000033000000000000000000000033000000000000
#03315:003300
#03319:000000000033000000000000000000000033000000000000
#0331a:003300
#03318:000000000033
#03313:000000000033
#03517:13
#03513:0013000000000013
#03514:00130013
#03515:0000001300130000
#03516:0013
#0351b:0013
#03512:23
#03616:000000000000000000000000330000130000000033000000000000000000000000000000130000000000000000000000000000000000000000000000140000000000000000000000000000000000000000000000000000000000000000000000
#03612:130000000000000000000013000000000000000000000000
#0361b:001300
#03617:0013
#03614:003300000000000000000000
#03610:41
#05919:000000000000000000000000000000000012000000000000
#05918:000000000012
#05917:000000130000000000000000000000000000000000000012
#05916:00130000
#0591b:23232300
#05915:0000000000240000
#05913:0000000000000024
#05912:0023000000000000
#05914:00000024
#06318:00000012
#06312:0013140000000000
#0631a:0000001424000000
#0631b:13
#06316:0000001400000000
#06317:0013000000000000
#06416:000000000000120000000000000000000012000000000012
#06418:000000000000000000000000000000120000000012000000
#06412:2424
#0641a:2424
#04716:00000012
#04718:0012
#0471c:00000012
#0471f:0011
#04816:00120012
#0481a:00000012
#04812:0012
#04818:12
#0481c:00120000
#03218:000000000000000013000000130013000000001300000000
#03215:000000130013000000130000000000000000001300000000
#0321b:000000000013000000000000000000000013000000000000
#03212:000000000000000000000000000013000013000000000000
#0341b:0000000000000013
#03419:130013000000000000230023000000000000000000000000
#03414:230023000000000000130013000000000000000000000000
#03412:000000000016000000000000000000160000230000000000
#03418:000000160000001600000000
#03417:00000023
#01117:000000000000000000000000000000000000000000000000001300000000000000000000000000000000000000000000
#0111b:000000000013000000000000000000000000000000130013
#01116:000000000013
#01115:0032000000000000
#01114:003200000000000000000000
#01318:000000000013000000000000130000000013000000000000
#0131b:0000001300000013
#01312:0000001313000013
#01315:13130013
#0171b:1300001300000013
#01715:000000000013000000000000000000000000130000000000
#01718:000000000000130000000000000000000013000000000000
#01712:0000001313000013
#01717:000000000013000000000000000000000000000000000000000000000000000000000000000000000000000000000000
#01716:000000000000000000000000000000000000000000000000000000000013000000000000000000000000000000000000
#02318:13
#02316:000000000000000000000013000000130000000000000000
#0231b:0013000013000000
#02314:001300
#02319:0000001300000000
#02312:230000000013000000000000000000000000000013000000
#02317:00130000
#01917:0000130013000013
#01916:0000001300001300
#01912:000000000013000000000000230000000000000000000000
#0191b:230000000000000000000000000000000013000000000000
#03912:240000000013000000000000000000000000130000000000
#03918:1300000000000013
#03915:0000001313000000
#0391b:000000000000130000000000000000000013000000000000
#04516:0000000000000013
#0451b:2333000000000013
#04518:000000000013000000000000000000000000000000000000
#04512:1333000000000000
#04515:000000000013000000000000000000000000000000000000
#04510:41
#04612:130000001300240000240000
#0461b:000000000013000000000000000000000000000000000000
#04617:130000000000000000130013000000000000000000000000
#04616:000000130000000000000000000024000000000024000000
#0461a:000000000000000024000024
#04217:000000000013000000000000000000130000000000000000
#04216:000000000000000000130013000000000000000000000000
#0421b:000013130000
#04212:000000000013000000000000000000000000130000000000
#04215:0000000000000013
#04016:0000000000130000
#04012:000000000013000000000000130000000000000000130000
#0401b:00130013
#04015:0000001300000000
#04018:13
#04116:13
#04117:0013
#04112:0013
#0491a:00120000
#04912:12
#0491c:0012
#04918:00000012
#04914:00000012
#0541a:00000012
#05414:00120000
#05516:00120013
#0551c:00120000
#05517:000000000000000000000000000000000000000000000013
#05512:0000000022130000
#05519:000000000000000000000000000000320000000000000000000000000000000000000000000000001300000000000000
#05514:0000000000000013
#0551b:000000000000000000000000003200000000000000000000000000000000000000001300000000000000000000000000
#05518:000000000000000000000000000000003232323232323232220000000000000000000000000000000000000000000000
#0551f:0021
#0551a:000000000000003200000000000000000000000000000000
#0371b:13130000
#03718:0013001300002300
#03712:24001313
#03715:0000230000130013
#0381a:14140000
#03816:0014231400140014
#03812:0023002314001400
#0381b:0000000000230023
#03817:00000023
#03819:003434003434003434003434000000000000000000000000
#03813:000000000000000000000000003434003434003434003434
#02512:1300000013000013
#02515:000000130000000013000000000000000000000000000013
#02518:000000000000000000000013000000130000000013000000
#0251b:1300001300000000
#02417:0000001300130013
#02416:000000000013000000000013000000000000130000000000
#02412:130000000000000013000000000000230000000000230000
#0241b:000000130013000000000000230000000000230000000000
#02618:000000000000000000000013000000000000000000000000
#0261b:1300001300230000
#02615:000000130000000013000000000000000000000000000000
#02616:0000000000130013
#02617:00000013
#02612:00002323
#02012:130000000000000000130000230000000013000000000000
#0201b:230000000013000000000000130000000000000000130000
#02017:0000001300001300
#02016:0000130000000013
#02818:260000000000000000160016000000260000000000000000
#02812:000000260000000016000000260000000000000000000000
#02815:00000026
#02713:000000000000000000000000250000000000000000150015
#02718:240000000000000000140014000000250000000015000000
#02714:000000240000000014000000000000000000000000000000
#02710:41
#0441b:230000000013000000000000000000000000000000000000
#04416:13
#04415:00130000
#04412:000000000000000000000000230000000013000000000000
#04418:00000013
#04417:0013
#04312:1323
#0431b:2313
#04316:00130000
#04314:0000001300000000
#04319:0000000000000013
#04317:00000013
#0571b:0023002313000000
#05716:0013001300000000
#05717:00130000
#05718:000000000000000000000000000000130000000013000000
#05715:000000000000000000000000000000000000000000000013
#05712:2300230023000013
#05617:000000130000000000000000000000000013000000000013
#0561b:000013130013
#0561b:0023
#05612:230000000000000000000000000000130013000000000000
#05616:0000000000000013
#05610:41
#05815:000000130000000013000000000000000000000000000013
#05818:000000000000000000000013000000130000000013000000
#0581b:2300001300000000
#05812:0000000023000013
#06112:2600260000142400
#0611a:0000000024000014
#06115:0013000000000000
#06118:0023160000000000
#06116:00002424
#06216:2400240000130000
#06219:000000000000000000000000000000000013000000000000
#06212:0014240014000013
#0621a:2400001414000000
#06217:000000000013
#06214:00000013
#06215:000000000000000000000000000000000000000000000013
#06016:000000250000000000000013000000000000000000000000
#06015:000000000000000013000000000000260000000000000000
#06014:000000000013000000000000000000000000260000000000
#06018:000000000000000000250000000000000000000000000014
#06019:000000250014
#0601a:000000000000000000000000000000000014000000000000
#06012:24
#06017:00250000
#06013:0000000000000026
#05114:0000000000000012
#05116:12
#05118:00120012
#05216:0000001200000000
#05214:0000000000000012
#0521a:00120000
#0521c:00000012
#0531a:00120012
#05312:0000001200000000
#0501c:12
#05018:00120012
#05014:00120000
#05012:00000012
#05016:0012
#06512:2425260000000000
#06518:00260000
#0651a:24
#06519:0025000000000000
#02352:13
#0235b:0013
#02956:2424
#0295a:00240000
#02952:00000024
#03052:0053
#03055:000000000053000000000000000000230000000000000000
#0305b:000000000000000000000063000000000000000000000000
#03058:0000000000230000
#0315b:130000000000000000000000000000000053000000000000
#03152:130000000024000000000000000000000063000000000000
#03158:000000240000002400000000000000000000000000130000
#03159:000064646400000000000000
#0315a:000000000024000000000000000000000000000000000000
#03153:000054545400000000000000
#03154:000000240000002400000000000000000000000000000000
#03155:0000000000000013
#03352:0053003300002300
#03357:0053003300002300
#03356:0000230000630043
#0335b:0000230000630043
#03457:00000053
#0345b:0000000000000023
#03557:53
#0355b:0023
#03552:13
#00352:13
#00358:000000000023000000000000000000000000000000000000000000000000000000000000000000000000000000000000
#0035b:53
#0045b:0000000000000053
#00455:000000000023000000000000000000000000000000000000000000000000000000000000000000000000000000000000
#00452:63
#00752:0000002300000000
#00755:63
#0075b:0000002300000000
#00758:53
#0115b:000000000063000000000000000000000000000000000000
#01157:000000000000000000000000000000000000000000000000002300000000000000000000000000000000000000000000
#01256:63
#01252:00230000
#0125c:0062
#01258:000022
#0165b:00006343
#01657:0000000000230000
#01652:00230033
#01655:53
#01558:1363
#01555:53
#01552:00230000
#0155b:00000023
#01852:00005333
#01856:0000000000230000
#0185b:00000043
#04758:0052
#0475c:00000022
#0595b:0013
#05956:00630000
#06052:14
#06059:0015
#06152:0000160000000014
#0615a:0000000000140000
#06158:00160000
#00958:23
#0095b:0023
#01058:23
#01355:23
#01352:0023
#01957:00530000
#01956:00000063
#03652:53
#03656:0000000000230000000000000000000000000000640000000000000000000000
#03657:0063
#03752:14005353
#0375b:63630000
#03758:0023002300000000
#03755:0000000000230023
#04056:0000000000230000
#04052:00005333
#0405b:00230043
#04058:63
#0425b:00006343
#04252:00000033
#04257:0000000000230000
#03958:63
#0395b:00230000
#03952:34000023
#03955:0053
#04156:53
#04157:0063
#05556:00620000
#0555c:00520000
#05552:0012
#05558:0012
#06552:00360000
#06558:00460000
#06352:00540000
#0635b:53
#06356:0000002400000000
#06357:0023000000000000
#0385a:64640000
#03856:0024002400240024
#03852:00005454
#04558:000000000063000000000000000000000000000000000000
#04552:53
#04555:000000000053000000000000000000000000000000000000
#0455b:53
#0465b:000000000053000000000000000000000000000000000000
#02552:0013
#0255b:13
#02052:53
#0205b:0063
#00656:000000000000005300000000
#01757:000000000023000000000000000000000000000000000000000000000000000000000000000000000000000000000000
#0175b:63
#01752:0053
#01756:000000000000000000000000000000000000000000000000000000000023000000000000000000000000000000000000
#0265b:13
#02657:00000053
#02858:1600000000460000
#02852:0036
#02855:00000016
#02753:0015
#02758:14
#03255:000000000053000000000000000000000000002300000000
#0325b:000000000000000000000000000000000063000000430000
#03258:000000000000000000000000000063000000002300000000
#03252:000000000000000000000000000000000053000000330000
#0445b:000000000063000000000000000000000000000000000000
#04455:00630000
#04452:000000000000000000000000000000000053000000000000
#04458:00000053
#04352:53
#0435b:0063
#05852:0013
#0585b:13
#05752:0013
#06256:0014001400000000
#0625a:54
#06252:00540000
#04856:00000022
#04852:0052
#04858:52
#0485c:00220000
#04952:52
#0495c:0062
#04958:00000022
#0505c:62
#05058:00220000
#05052:00000022
#05056:0062
#05156:62
#0215b:53
#0565b:0013
#0565b:0013
#05652:130000000000000000000000000000000063000000000000
#02452:13
#0245b:000000000053000000000000000000000000000000000000
#001380:120000320000320032000032000032000032320000320000
#002380:320000320000320032000032000032000032220000000000
#0033b0:130000000023000000000000000000000000000000000000
#003380:000000003353330000000000000000000000000000000000000000000000000000000000000000000000000000000000
#004320:130000000023000000000000000000000000000000000000
#004350:000000003353330000000000000000000000000000000000000000000000000000000000000000000000000000000000
#0043b0:0000000000000013
#005370:23
#005370:001300
#0053b0:0023
#005361:0013
#005351:000000000000000000000000003300000000000000000000
#005341:000000000000003300000000
#005321:0000000000230000
#006361:000000000000001300000000
#006321:00000023
#007351:13000023
#007321:0000005300000000
#007380:13000023
#0073b0:0000005300000000
#009380:13
#0093b0:000000000023000000000000000000000000000000000000
#0093b0:0013
#009380:000000000000000000000000000000000023000000000000
#010380:13
#0103b0:000000000023000000000000000000000000000000000000
#011320:12
#011340:003200000000000000000000
#011350:0032000000000000
#011360:000000000022000000000000000000000000000000000000
#0113b1:000000000013000000000000000000000000000023000000
#011371:000000000000000000000000000000000000000000000000005300000000000000000000000000000000000000000000
#012361:1323
#012321:00530000
#0123c0:000000120022
#0123b0:000000000000000000000000000000320032000000000000
#012380:000052
#013350:13
#013320:000000000023000000000000000000000000000000000000
#013320:0013
#013350:000000000000000000000000000000000023000000000000
#014380:1424000000000000
#014330:0000152500000000
#014380:0000000016260000
#015350:1323
#015320:00330000
#015381:0013
#0153b1:00000033
#016381:23
#016350:1323
#016320:00330000
#0163b1:00001323
#016371:0000000000530000
#0173b1:130000000023000000000000000000000000000000000000
#017371:000000000053000000000000000000000000000000000000000000000000000000000000000000000000000000000000
#017321:000000000000000000000000130000000023000000000000
#017361:000000000000000000000000000000000000000000000000000000000053000000000000000000000000000000000000
#0183b1:13
#018371:0023000000000000
#018360:13
#018320:0023000000000000
#018320:00001323
#018360:0000000000530000
#019370:00130000
#0193b0:0000002300000000
#019360:00000013
#019320:0000000000000023
#020320:13
#020360:000000000023000000000000000000000000000000000000
#0203b0:0013
#020370:000000000000000000000000000000000023000000000000
#0213b0:1333000000002300
#021370:000000000033000000000000000000000000000000000000
#021321:130000000033000000000000000000000000000000000000
#021361:00000023
#022361:000000000013000000000000000000000000000000000000
#022321:002300
#0233b1:000000000000000000000000000000000013000000000000
#023371:000000000023
#023371:0000000000000013
#0243b1:23
#0243b1:000000000013000000000000000000000000000000000000
#024371:002300
#025381:000000000013000023000000000000000000000000000000
#025351:000000000000000000000000000000000013000023000000
#026381:000000000013000023000000000000000000000000000000
#026371:00000013
#0263b1:0000000000000023
#027381:000000000014000024000000000000000000000000000000
#027331:000000000000000000000000000000000015000025000000
#028381:000000000016000026000000000000000000000000000000
#029361:14
#029321:0024000000000000
#0293a1:00140000
#029361:0000002400000000
#029361:0014
#0293a1:0000000000240000
#029321:00000014
#029361:0000000000000024
#030351:000000000013000000000000000000000000000000000000
#030321:002300
#0303b1:000000000000000000000013000000000000230000000000
#030381:0000000000530000
#030320:00001323
#030350:0000000000530000
#031380:000000140000005400000000000000000000000000000000
#031390:000054543400000000000000
#0313a0:000000000034000000240000000000000000000000000000
#031341:000000140000005400000000000000000000000000000000
#031331:000054543400000000000000
#031321:000000000034000000240000000000000000000000000000
#031321:000000000000000000000000000000000013000000000000
#031351:0000000000000023
#0313b0:000000000000000000000000000000000013000000000000
#031380:0000000000000023
#032350:000000000013000000000000000000000000000000000000
#032320:002300
#032380:000000000000000000000000000013000000005300000000
#0323b0:000000000000000000000000000000000033000000230000
#032321:000000000000000000000000000000000013000000230000
#032351:000000000000000000000000000000000000005300000000
#033321:0013002300000000
#033341:000000000033000000000000000000000000000000000000
#033361:00530000
#033351:003300
#033370:0013002300000000
#033390:000000000033000000000000000000000000000000000000
#0333b0:00530000
#0333a0:003300
#0333b0:0000000000130023
#033390:000000000000000000000000000000000033000000000000
#033370:00000053
#033380:000000000033
#033361:0000000000130023
#033341:000000000000000000000000000000000033000000000000
#033321:00000053
#033331:000000000033
#034371:00000013
#0343b1:0000000000000053
#035371:33
#0353b1:0053
#036371:23
#036320:132300
#036340:003300000000000000000000
#036360:000000000000000000000000330000530000000033000000000000000000000000000000000000000000000000000000000000000000000000000000000000000000000000000000000000000000000000000000000000000000000000000000
#036370:0013
#0363b0:0000000000230000
#036361:0000000000140000
#037321:24
#0373b0:13332300
#037380:0053005300000000
#037321:00001333
#037351:0000000000530053
#038321:23
#0383a0:14342400
#038390:003434003434003434003434000000000000000000000000
#038360:0034003400000000
#038321:00001434
#038331:000000000000000000000000003434003434003434003434
#038361:0000000000340034
#039321:24
#039380:1323
#0393b0:00330000
#039351:0013
#039321:00000033
#040351:23
#040380:1323
#0403b0:00330000
#040321:00001323
#040361:0000000000530000
#0403b1:0000000000000013
#0413b1:23
#041360:13
#041320:0000002300000000
#041371:000000000013000000230000000000000000000000000000
#041371:0013
#0413b1:0000000000000023
#041360:000000000000000000000000000000000013000000230000
#042370:13
#0423b0:0023000000000000
#042321:13
#042361:0023000000000000
#0423b1:00001323
#042371:0000000000530000
#043321:13
#043361:000000000023000000000000000000000000000000000000
#0433b0:000000000013000000230000000000000000000000000000
#0433b0:0013
#043370:000000000000000000000000000000000023000000000000
#043321:000000000000000000000000000000000013000000230000
#0443b1:000000000013000000000000000000000000000000000000
#044371:0000002300000000
#044350:00130000
#044320:0000002300000000
#044320:000000000000000000000000000000000013000000000000
#044360:0000000000000023
#044381:00000013
#0443b1:0000000000000023
#0453b1:1333000000002300
#045381:000000000033000000000000000000000000000000000000
#045320:1333000000002300
#045350:000000000033000000000000000000000000000000000000
#0463b0:000000000013000000000000000000000000000000000000
#046370:002300
#047380:0012
#0473c0:00000052
#048380:3222
#0483c0:00520000
#048321:0012
#048361:00000052
#049321:32
#049361:00220000
#0493c1:0012
#049381:00000052
#0503c1:3222
#050381:00520000
#050360:0012
#050320:00000052
#051360:32
#051320:00220000
#051320:00001222
#052340:12220000
#052360:00001222
#053340:12220000
#053320:0012
#053360:00000032
#054320:22
#0543c1:1222
#054381:00320000
#054320:0012
#054360:00000032
#055320:22
#055381:120000000000000000000000000000003232323232323232220000000000000000000000000000000000000000000000
#0553c1:00320000
#0553b1:000000000000000000000000003200000000000000000000000000000000000000000000000000000000000000000000
#0553a1:000000000000003200000000000000000000000000000000
#055391:00000000003200000000000000000000
#055360:00120000
#055320:0022
#056320:000000000013000000000000000000000000000000000000
#056360:002300
#056360:0000001300000000
#056320:0023
#056320:000000000000000000000000000000000013000000000000
#056360:000000000023
#057350:000000000000000000000000000000000013000023000000
#058380:000000000013000023000000000000000000000000000000
#058350:000000000000000000000000000000000013000023000000
#059360:00130000
#059320:0000002300000000
#0613a0:0000000014240000
#061320:0000000000001424
#0623a0:14
#062360:0024000000000000
#062320:00140000
#062360:0000002400000000
#0633b0:13230000
#063370:0033000000000000
#063321:00142400
#063361:0000003400000000
