This file was generated by Ched 2.7.0.0.
#TITLE ""
#ARTIST ""
#DESIGNER ""
#DIFFICULTY 0
#PLAYLEVEL
#SONGID ""
#WAVE ""
#WAVEOFFSET 0
#JACKET ""
#REQUEST "ticks_per_beat 480"
#00002: 4
#BPM01: 134.0
#00008: 01
#TIL00: ""
#VOLUME: ""
#HISPEED 00
#MEASUREHS 00
#0471f:0011
#04718:0012
#02612:000000330033000033330033000000000000130000000000
#02615:1300000000130000
#02618:0013
#0261b:00000013
#02518:0013
#02515:13
#0251b:130000000000000000000000000000330033000033330033
#02512:000000330033000033330033000000000000000000000000
#05818:0013
#05815:13
#05812:000000330033000033330033230000000000000000000000
#0581b:230000000000000000000000000000330033000033330033
#02916:0014001400140014
#02912:00240024
#0291a:2424
#02812:0026000014141400
#02815:00160000
#02818:2600001624242400
#03012:140000340034000034000034000000000000000000000000
#03016:0014
#0301a:24
#02715:00000015
#02712:0000000025000015
#0271a:2400001400000000
#02717:00140000
#02714:0024000000000000
#02718:0000000000250000
#02710:41
#06114:1414140000000000
#06116:0000000000140014
#0611a:2424240000002400
#06112:0024
#06415:000000000000000000000000000000130000000013000000
#06418:000000000000000000000000000000000013000000000013
#06416:00140000
#0641a:0024
#06412:24
#03615:0000130000130013
#03612:00001313
#0361b:00131300
#03618:0013001300001300
#03610:41
#01815:130000000000000000000033130000000000000000000000
#01812:000000330033130033000000000000000000000000000000
#01818:0000000000000013
#01813:0000003300000000
#01810:41
#06213:00000014
#06216:0014001400000000
#0621a:000000000000240000000000140000340034000000340034
#06212:2424
#01015:130000000000001300000000
#01012:000000000000130000000000000000000000331300000000
#01014:0000000000000033
#0531c:0012
#05118:13
#05115:00130000
#05016:0012
#05013:12
#04916:0012
#04915:13
#04918:00130000
#04818:0012
#0481b:12
#0431b:000000000013000000000000000000000000000000000000
#04318:13
#04315:000000000000000000000000000000000013000000000000
#04312:0013
#04412:000000000000000000000000000000000013000000000000
#04415:0013
#04418:000000000013000000000000000000000000000000000000
#0441b:13
#0421b:000000330033130033000000000000000000000000000000
#04218:130000000000000000000033130000000000000000000000
#04215:0000000000000013
#0421a:0000003300000000
#04112:000000000000000000000000000000000000000000000000000000000000000000133300000000000000000000000000
#0411b:330000130033000000000000000000000000000000000000
#04115:0013
#04018:1300000000000013
#04015:0000001313000000
#0401b:0000001313000000
#0401a:000000000000000000000000000000000000000000000033
#04612:000000000000000000130000000000000000000000000000000000000000000000000000000000000000000024000000
#04615:130000330033000033000000000000000000000000000000
#04618:0024
#0461a:000000000024
#04619:000024
#04614:000000000000002400000000
#04613:00000024
#03918:1300000000000013
#03915:0000001313000000
#04515:0000000000000013
#0451a:2434000000000000
#04510:41
#01912:000000000013000000000000000000000000000000000000
#01915:13
#01918:000000000000000000000000000000000013000000000000
#0191b:0013
#0201b:000000000000000000000000000000000013000000000000
#02018:0013
#02015:000000000013000000000000000000000000000000000000
#02012:13
#0171b:000000000000000000000000000000000000000000000000000000000000000000133300000000000000000000000000
#01712:330000130033000000000000000000000000000000000000
#01718:0013
#01615:1300000000000013
#01618:0000001313000000
#01612:0000001313000000
#01613:000000000000000000000000000000000000000000000033
#01115:000000000000000000000000000000000000000013000013
#01118:130000000000000000000000000000000000000000000013000000000000000000000000000000000000130000000000
#0111b:000000000013000000000000000000000000000000000000
#01315:1300000000000013
#01318:0000001313000000
#01215:000000000000000000000000130000000000000000000033
#01218:13
#0121b:00130000
#01212:000000000000000000000000000000330033130000000000
#01213:000000000033
#00918:000000000000000000000000000000000000000013000013
#00912:000000000013000000000000000000000000000000000000
#00915:130000000000000000000000000000000000000000000013000000000000000000000000000000000000130000000000
#00910:41
#0061b:000000000000000000000000000000000000331300330000
#00618:000000130000000000000000000013000000000000000000
#00615:133300
#00712:0000001300000013
#00718:000000000000000000000000000000000000000013000013
#00715:23
#0311a:000000140000001400000000000000000000000000000000
#03118:000000000014000000000000000013000000000000000000
#03119:000014141400000000000000
#03112:000000140000001400000000000000000013000000000000
#03114:000000000014000000000000000000000000000000000000
#03113:000014141400000000000000
#03115:0013
#03518:13
#03515:23
#0561b:0000000023000013
#05618:0013000000001300
#05615:0000130000130000
#05612:2300001300000000
#05610:41
#0551b:000000000000000000000000123200000000000000000000000000000000000000000000000000000000130000000000
#05518:000000000000000000000000000000003232323232323232220000000000000000000000130000000000000000000000
#05515:0000000000130000
#0551f:0021
#05519:00000000003200000000000000000000
#0551a:000000000000003200000000000000000000000000000000
#05718:13131300
#05715:0013001300000000
#05712:23232300
#0571b:000000230000000000230000000000330033000033330033
#03816:00140014
#03812:00231400
#0381a:14
#0381b:00000023
#03813:000000000000000000000000003434343434003434343434
#03819:003434343434003434343434000000000000000000000000
#03715:00000013
#03712:00231300
#03718:00130000
#0371b:13000023
#03316:00140014
#03312:0000000000140000
#0331a:0014000000000000
#03315:000000000034
#03314:000000000000000000000000000000000034000000000000
#03317:003400
#03318:000000000034000000000000000000000000000000000000
#03215:000000000000000000000000000000000013000000000000
#0321b:000000000000000000003300000000003313330000000000000000000000000000000000000000000000000000000000
#03218:0013000000000000
#0321a:0033
#02412:1300001300230023
#02415:00131313
#02418:0013000000130013
#0241b:00002323
#0231b:0000000013000013
#02315:0000130000130000
#02312:2300001300000000
#02318:0013000000001300
#0221b:00000013000000000000000000002300
#02218:130000330033000033000000000000000000230000000000
#02215:0000000000230000
#02212:0023
#01515:1300000000000013
#01518:0000001313000000
#01415:0000000000000013
#01418:2325
#01414:00240000
#0081b:0000001300000013
#00818:00130013
#00815:0013000000130000
#00812:1313
#00515:0013001300130000
#00518:1300000013000013
#0051b:00000013
#00512:00130000
#00415:000000000000000000000000000000000013000000130000
#00418:000000130033000000000000000000000000130000000000
#00412:13
#00419:003300
#0041a:000000000000000000000033000000000000000000000000
#0631a:1424
#06312:00140000
#06316:0034003400001400
#00318:000000000000000000000000000000000013000000130000
#0031b:13
#00315:000000130033000000000000000000000000130000000000
#00314:003300
#00313:000000000000000000000033000000000000000000000000
#02118:0000000000000013
#02112:2434000000000000
#00212:0000000000001313
#0591b:00230000
#05912:0000230024000024
#05915:23000024
#05918:0023000000240000
#06512:24240000
#0651a:00240000
#06516:0024000000000000
#03418:00000023
#03412:0000002300000000
#0341b:23
#03414:000000000000000000000033000000000000000000000000
#03419:003300000000000000000000
#06012:0000000026000026
#06015:00000026
#06018:0000000000260000
#06019:2500002500000000
#06016:00250000
#06013:0025000000000000
#0265b:13
#02655:53
#02552:0013
#02558:0063
#02555:53
#0255b:13
#0425b:00230013
#04258:6353
#01852:00230013
#01855:5363
#03352:0000000000540034
#0335a:0064004400000000
#03356:00240024
#03252:0000000000000013
#03255:000000000000000000000000000000000053000000000000
#0325b:000000000000000000000000000000000023000000000000000000000000000000000000000000000000000000000000
#03258:0053000000000000
#03155:0000000000000013
#0315a:000000240000002400000000000000000000000000000000
#03158:000000000024000000000000000000000000000000000000
#03159:000054545400000000000000
#03152:000000240000002400000000000000000063000000000000
#03154:000000000024000000000000000000000000000000000000
#03153:000064646400000000000000
#05852:0013
#0585b:13
#05858:0063
#05855:53
#02752:0015
#0275a:14
#02858:16000014
#02852:00000014
#0455a:54
#00755:63
#00752:0000002300000000
#03555:63
#03558:63
#03452:0000005300000000
#0345b:53
#0655a:00440000
#06552:00340000
#05752:0013
#05758:0063
#0565b:0013
#05652:13
#06059:15
#06052:0016
#0615a:00140000
#06154:00140000
#05952:0014
#05558:0012
#0555b:00520000
#02152:64
#02352:13
#0235b:0013
#03052:54
#03056:0054
#06253:00000024
#0625a:0064
#01055:630000000000005300000000
#01052:000000000000530000000000000000000000002300000000
#05056:0062
#05053:22
#04956:0062
#04858:0052
#0485b:22
#0435b:000000000063000000000000000000000000000000000000
#04358:63
#04355:000000000000000000000000000000000063000000000000
#04352:0063
#04452:000000000000000000000000000000000053000000000000
#04455:0053
#04458:000000000053000000000000000000000000000000000000
#0445b:53
#04152:00000000000000000000002300000000
#0415b:0023000000000000
#04155:0053
#04058:6300000000000053
#04055:0063
#0405b:0063
#04652:00000023000000000000000000000000
#04655:63
#03955:0053
#03958:63
#01952:000000000053000000000000000000000000000000000000
#01955:53
#01958:000000000000000000000000000000000053000000000000
#0195b:0053
#0205b:000000000000000000000000000000000063000000000000
#02058:0063
#02055:000000000063000000000000000000000000000000000000
#02052:63
#0175b:00000000000000000000002300000000
#01752:0023000000000000
#01758:0063
#01655:5300000000000063
#01658:0053
#01652:0053
#01355:63
#01358:0053
#01255:0063
#01258:53
#0125b:00230000
#01252:00000023
#01158:530000000000000000000000000000000000000000000023000000000000000000000000000000000000000000000000
#0115b:000000000063000000000000000000000000000000000000
#00952:000000000063000000000000000000000000000000000000
#00955:630000000000000000000000000000000000000000000023000000000000000000000000000000000000000000000000
#0065b:000000000000000000000000000000000000002300000000
#00658:000000000000005300000000
#03856:00640054
#03852:0054
#0385a:64
#03755:00000023
#03752:0053
#03758:00230000
#0375b:63
#0225b:00000023000000000000000000000000
#02258:53
#00458:0063000000000000
#02452:13
#01558:0063
#01555:53
#0635a:54
#06352:00540000
#04758:0052
#0035b:13
#00355:0053000000000000
#001380:120000320000320032000032000032000032320000320000
#002380:320000320000320032000032000032000032220000000000
#003350:000000130033000000000000000000000000000000000000
#003340:003300
#003330:000000000000000000000033000000000000000000000000
#003320:000000000000002300000000
#004380:000000130033000000000000000000000000000000000000
#004390:003300
#0043a0:000000000000000000000033000000000000000000000000
#0043b0:000000000000002300000000
#006320:00130000
#006350:000000000000000033000023000000000000000000000000
#006380:000000000000001300000000
#0063b0:000000000000000000000000000000000000335300330000
#007380:23
#007351:13000023
#007321:0000005300000000
#009351:130000000000000000000000000000000000000000000053000000000000000000000000000000000000000000000000
#009321:000000000033000000000000000000000000230000000000
#010351:130000000000003300000000
#010321:000000000000330000000000000000000000335300000000
#010341:0000000000000033
#011351:23
#011380:130000000000000000000000000000000000000000000053000000000000000000000000000000000000000000000000
#0113b0:000000000033000000000000000000000000230000000000
#012380:1323
#0123b0:00330000
#012351:000000000000000000000000130000000000000000000033
#012321:000000000000000000000000000000330033530000000000
#012331:000000000033
#013351:33
#013321:000000000023000000000000000000000000000000000000
#013381:0013
#0133b1:000000000000000000000000000000000023000000000000
#014381:13230000
#014340:00142400
#014381:00001525
#015351:13
#015321:000000000023000000000000000000000000000000000000
#015381:0013
#0153b1:000000000000000000000000000000000023000000000000
#016351:13
#016321:000000000023000000000000000000000000000000000000
#016381:0013
#0163b1:00000023
#016320:0013
#016350:00000023
#016350:0000000000000013
#016330:000000000000000000000000000000000000000000000033
#017320:330000530033000000000000000000000000000000000000
#017350:0000002300000000
#017380:0000000013000023
#0173b0:000000000000000000000000000000000000000000000000000000000000000000533300000000000000000000000000
#018350:130000000000000000000033330000000000000000000000
#018320:000000330033530033000000000000000000230000000000
#018330:0000003300000000
#019350:1300002300000000
#019320:000000000033000000000000000000000000000000000000
#0193b0:0000000013000023
#019380:000000000000000000000000000000000033000000000000
#020320:1300002300000000
#020350:000000000033000000000000000000000000000000000000
#020380:0000000013000023
#0203b0:000000000000000000000000000000000033000000000000
#021320:1434000000002400
#021350:000000000034000000000000000000000000000000000000
#022380:130000330033000033230000000000000000000000000000
#0223b0:00000053000000000000000000000000
#025350:13
#025320:000000330033000033330033230000000000000000000000
#025381:0013
#0253b1:000000000000000000000000000000330033000033330033
#0263b1:23
#026350:13
#026320:000000330033000033330033230000000000000000000000
#030320:140000340034000034000034000000000000240000000000
#030360:0034
#0313a0:000000140000005400000000000000000000000000000000
#031390:000054543400000000000000
#031380:000000000034000000240000000000000000000000000000
#031321:000000140000005400000000000000000000000000000000
#031331:000054543400000000000000
#031341:000000000034000000240000000000000000000000000000
#031321:000000000000000000000000000000000013000000000000
#031351:0000000000000023
#032381:000000130000000000000000000023000000000000000000
#0323b1:000000000000000000003300000000003353330000000000000000000000000000000000000000000000000000000000
#0323a1:0033
#032351:000000000000000000000000000000000013000000000000
#032321:0000000000000023
#0333a1:0014002400000000
#033381:000000000034000000000000000000000000000000000000
#033361:00540000
#033371:003400
#033321:0000000000140024
#033341:000000000000000000000000000000000034000000000000
#033361:00000054
#033351:000000000034
#0343b1:13
#034391:003300000000000000000000
#034381:000000000033230000000000000000000000000000000000
#034321:0000001300000000
#034341:000000000000000000000033000000000000000000000000
#034351:000000000000000000000000000033230000000000000000
#034381:00000013
#035381:33
#0363b1:23
#035350:13
#036320:23
#0373b0:1323
#037380:00530000
#037321:0013
#037351:00000053
#038321:23
#0383a0:1424
#038390:003434343434003434343434000000000000000000000000
#038360:00340000
#038321:0014
#038331:000000000000000000000000003434343434003434343434
#038361:00000034
#039321:24
#039380:13
#0393b0:000000000023000000000000000000000000000000000000
#039350:0013
#039320:000000000000000000000000000000000023000000000000
#040380:13
#0403b0:000000000023000000000000000000000000000000000000
#040350:0013
#040320:00000023
#0403b1:0013
#040381:00000023
#040381:0000000000000013
#0403a1:000000000000000000000000000000000000000000000033
#0413b1:330000530033000000000000000000000000000000000000
#041381:0000002300000000
#041351:0000000013000023
#041321:000000000000000000000000000000000000000000000000000000000000000000533300000000000000000000000000
#042381:130000000000000000000033330000000000000000000000
#0423b1:000000330033530033000000000000000000230000000000
#0423a1:0000003300000000
#043381:1300002300000000
#0433b1:000000000033000000000000000000000000000000000000
#043321:0000000013000023
#043351:000000000000000000000000000000000033000000000000
#0443b1:1300002300000000
#044381:000000000033000000000000000000000000000000000000
#044351:0000000013000023
#044321:000000000000000000000000000000000033000000000000
#0453a1:1434000000002400
#045371:000000000034000000000000000000000000000000000000
#046351:130000330033000033230000000000000000000000000000
#046321:00000053000000000000000000000000
#047381:0012
#0483b1:52
#048381:0032
#0493b1:22
#049361:0012
#050331:52
#050361:0032
#051331:22
#051321:00001222
#051380:00001222
#0523a0:12220000
#052341:12220000
#0523c1:00001222
#052360:00001222
#053340:12220000
#0533a1:12220000
#053361:0012
#053331:00000032
#054361:22
#054380:1222
#0543b0:00320000
#054361:0012
#054331:00000032
#055361:22
#055380:120000000000000000000000000000003232323232323232220000000000000000000000000000000000000000000000
#0553b0:000000000000000000000000323200000000000000000000000000000000000000000000000000000000000000000000
#0553a0:000000000000003200000000000000000000000000000000
#055390:00000000003200000000000000000000
#057380:0013
#0573b0:000000000000000000000000000000330033000033330033
#0583b0:23
#058351:13
#058321:000000330033000033330033230000000000000000000000
#058380:0013
#0583b0:000000000000000000000000000000330033000033330033
#0593b0:23
#0623a0:000000000000000000000000140000340034000000340034
#062370:00000054
#0633a0:34
#063360:0034240000000000
#063321:00140000
#063361:0000003424000000
