This file was generated by Ched 2.7.0.0.
#TITLE ""
#ARTIST ""
#DESIGNER ""
#DIFFICULTY 0
#PLAYLEVEL
#SONGID ""
#WAVE ""
#WAVEOFFSET 0
#JACKET ""
#REQUEST "ticks_per_beat 480"
#00002: 4
#BPM01: 134.0
#00008: 01
#TIL00: ""
#VOLUME: ""
#HISPEED 00
#MEASUREHS 00
#00214:0000000000000012
#0021a:0000000000000012
#00216:00000012
#0051b:0013000000001300
#00512:1300130000131313
#00517:0000000000000013
#00516:000000130000130013000000000000000000000000000000
#00515:000000000000000000000000000000000013000000000000
#00518:000013
#00519:000000000000003300000000
#0051a:000000000000000000000000003300000000000000000000
#00612:130000000000230013000000000000130000230000130000
#0061b:230000130000000013000000230000000000130000130000
#00617:000000130000130000000000000013000000000000000000
#00616:000000000000000000000013000000000000000000000000
#0081b:1313
#00812:000000120000000000000013000000000000000000000013
#00818:000000000012000000000000000012000000000000120000
#0081a:000000000000000012000000000000000012000000000000
#0081c:000000000012
#00816:000012000000000000120000000000000000120000000000
#00814:0000120000120000
#00716:2200000000000012
#00712:000000000000000000120000000000000000000000000013
#00718:220000000012
#0071c:0000001200000000
#00917:000000000013000000130000130000000000000000000000
#0091b:130000000000000000130000000000000013000000000000
#00916:0000000000131313
#00912:0013130013000013
#00910:41
#01217:000000120000000012001200
#01212:120000000000120000000000000000120012000000000000
#01216:0012001200000000
#0121c:0012
#0121a:000000000000000000000000000000000000000000000012
#0121b:000000000000000000000000000000320032000000000000
#0151a:000000000012120000000000000000000000000000000000
#01516:1200000000000012
#01518:0000001212000000
#01514:000000000000000000000000000000000012120000000000
#01512:00130000
#0151b:23000013
#01418:230000240000260000001200
#0141b:0000001300000000
#0141c:000000000000000000000000000000000012000000000000
#01416:000000000000000000000000000000000000120000000012
#01412:0013000026130012
#01414:00240000
#01415:23
#01618:0000001200000013
#01615:000000000000000000000000000000000000000000000013
#01617:0000000000130000
#0161c:0012
#01612:00130014
#0161a:000000000012120000000000000000000000000000000000
#01616:12
#01614:0000000000120000
#01815:0000000000000013
#01818:000000000000000000000000000000000000000000000013
#01817:000000000000000000000013000000000000000000000000
#01816:000000130000000013000000000000140000000000000000
#01812:000000000013000000000000130000000000000000000000
#0181b:1300001300131300
#01810:41
#02117:000000000013000000000000000000000000000000130000
#02112:230000330000000013000000000000000000000000000000
#02116:001300
#0211b:000000000013000000000000000000000000000000000000
#02114:0013
#02118:0013
#0221b:1300001300001300
#02217:0013000000000000
#02212:000000000013000000000000240000000000000000000000
#02216:000000000000000013000013000000000000240000000000
#0221a:0000000000140000
#0221c:0000000000000012
#02219:0015
#02214:0000000000240000
#02218:0000000000000024
#0311a:1400000000130013001300130000000000000000000000000000000000000000
#03117:0013
#0311b:000000000000001300000000
#03112:1413
#03116:000000000000000000000000000000000000000000000000000000000000000000000000000000000000000000000000000000000000000000000000000000000000000000000000000000000000000000000000000000000000000000000000000000000000000000000000000000000000000000000000000000000000000000000000000000000000000000000000000000000000000000000000000000000000000000000000000000000000000000000000000000000000000000000000000000000000000000000000000000000000000000000000000000000000000000000000000000000000000000000000000000000000000000000000000000000000000000000000000000000000000000000000000000000000000000000000000000000000000000000000000000000000000000000000000000000000000000000000000000000000000000000000000000000000000000000000000000000000000000000014140000000000000000000000000000000000000000000000000000000000000000000000000000000000000000000000000000000000000000000000000000000000000000000000000000000000000000000000000000000000000000000000000000000000000000000000000000000000000000000014140000000000000000000000000000000000000000000000000000000000000000000000000000000000000000000000000000000000000000000000000000000000000000000000000000000000000000000000000000000000000000000000000000000000000000000000000000000000000000000014140000000000000000000000000000000000000000000000000000000000000000000000000000000000000000000000000000000000000000000000000000000000000000000000000000000000000000000000000000000000000000000000000000000000000000000000000000000000000000000000000000000000000000000000000000000000000000000000000000000000000000000000000000000000000000000000000000000000000000000000000000000000000000000000000000000000000000000000000000000000000000000000000000000000000000000000000000000000000000000000000000000000000000000000000000000000000000000000000000000000000000000000000000000000000000000000000000000000000000000000000000000000000000000000000000000000000000000000000000000000000000000000000000000000000000000000000000000000000000000000000000000000000000000000000000000000000000000000000000000000000000000000000000000000000000000000000000000000000000000000000000000000000000000000000000000000000000000000000000000000000000000000000000000000000000000000000000000000000000000000000000000000000000000000000000000000000000000000000000000000000000000000000000001300000000000000000000000000000000000000000000000000000000000000000000000000000000000000000000000000000000000000000000000000000000000000000000000000000000000000000000000000000000000000000000000000000000000000000000000000000000000000000000000000000000000000000000000000000000000000000000000000000000000000000000000000000000000000000000000000000000000000000000000000000000000000000000000000000000000000000000000000000000000000000000000000000000000000000000000000000000000000000000000000000000000000000000000000000000000000000000000000000000000000000000000000000000000000000000000000000000000000000000000000000000000000000000000000000000000000000000000000000000000000000000000000000000000000000000000000000000000000000000000000000000000000000000000000000000000000000000000000000000000000000000000000000000000000000000000000000000000000000000000000000000000000000000000000000000000000000000000000000000000000000000000000000000000000000000000000000000000000000000000000000000000000000000000000000000000000000000000000000000000000000000000000000000000000000000000000000000000000000000000000000000000000000000000000000000000000000000000000000000000000000000000000000000000000000000000000000000000000000000000000000000000000000000000000000000000000000000000000000000000000000000000000000000000000000000000000000000000000000000000000000000000000000000000000000000000000000000000000000000000000000000000000000000000000000000000000000000000000000000000000000000000000000000000000000000000000000000000000000000000000000000000000000000000000000000000000000000000000000000000000000000000000000000000000000000000000
#03113:0000000000130013001300130000000000000000000000000000000000000000
#03115:0013000000000000
#03118:0023000000000000
#03212:000000130000000000130000000000000013000000000000
#03216:000000000013000000000000130013000000001300000000
#0321b:000000000013000000000000000013000013000000000000
#03217:000000000000000000000000000000000000000000000000130000000000000000000000000000000000000000000000000000000000000000000000000000001300000000000000130000000000000000000000000000000000000000000000000000000000000000000000000000000000000000000000000000000000000000000000000000000000000000000000000000000000001300000000000000000000000000000000000000000000000000000000000000000000000000000000
#03317:000000130013000000000000000000000000001300000000
#0331b:000000000000001300000000000000130013000000000000
#03312:000000130013000000000000000000000000001300000000
#03316:000000000000001300000000000000130013000000000000
#03319:000033000033
#03314:000033000033
#03412:260026000013000000160016000000130000260000240000
#0341b:000000130000001300230000
#03418:160016000013000000260026000000130000000000000000
#03415:000000130000001300000000
#0351c:0000000000120000
#0351a:00000012
#03518:0000000000000012
#03517:0012000000000000
#03515:00120000
#03513:0000001200000000
#03512:2223
#0361b:130000000000130000000000000000001300000000000000130000000000000000000000000000130000000000000000
#03616:000000001300000000000000000000000000130000001300000000000000000000000000000000130000000000000000
#03612:000000000013000000000000000000130000000000000000
#03617:000000000013000000000000000000130000000000000000
#03610:41
#06212:240000140000240000000000240018140000000018140000
#06216:240000000000000000000000000000140000000000000000000000000000000000001800000000000000000000001800
#0621a:00140000240014002400000014000000
#06317:00000012
#06312:1414001426000000
#0631a:14140000
#06318:0026
#06417:0000120000120000
#06412:000000000000000000000000000000000013000014000015
#0641a:000000000014
#0641b:000000000000000000000000000000000013000000000000
#06419:000000000000000000000000000000000000000000000015
#06414:24
#06418:2423
#06415:0023
#04812:00120000
#0481c:00000012
#04814:0012
#04818:00000012
#04819:12
#04816:00120000
#05112:00000012
#05115:12
#05118:00120000
#0511c:00120000
#05119:0000000000000012
#05215:12120000
#05218:00001212
#0521c:0000001200000000
#05216:0000000000000012
#05312:12120000
#05317:00000012
#0531c:0012
#05318:0000001200000000
#01112:000000120012
#01117:000000000012000000000000120000000000000000120012
#0111c:000000000012000000000000000000000000000000000000
#01114:003200000000000000000000
#01115:0032000000000000
#01912:130000000000130000000000230000000013000000000000
#0191b:230000000013000000000000130000000000130000000000
#01916:0013000000000000
#01917:0000000000130000
#04516:0000000000000013
#0451b:1333000000000013
#04515:000000000013000000000000000000000000000000000000
#04518:000000000013000000000000000000000000000000000000
#04512:2333000000000000
#04510:41
#04612:13000000130022242628292a
#04615:000000000000000000000013000000000000000000000000
#04617:1300001300000000
#0461a:00000014
#0461b:000000130013000000000000000000000000000013000000
#0461c:000000000000000000000012
#04618:000016
#04616:000000000000001800000000
#04614:001a
#04918:00120000
#04915:12
#04912:00120012
#0491a:0012
#04916:00000012
#05417:00120012
#03716:0000000000130000
#0371b:0013230000132300
#03717:0000000000000013
#03712:2300001323000013
#04218:0000000000000013
#04215:000000000000000000000000000000000000000000000013
#04216:000000000000000000000013000000140000000000000000
#0421b:000000000013000000000000130000000000000000000000
#04212:0000001300131300
#04217:000000130000000013000000000000000000000000000000
#02516:130000180000000000130000000000000000000000000013
#02517:000000000000000000000013000000000000000000130000
#02512:000000000000000000000000130000180013000013000000
#0251b:130000000013000013000000000000000000000000000000
#02713:0000000000000000000000002a00001500000000001a0015
#02718:000000140000000000000014000000250015000015000000
#02714:280000240014000014180000000000000000000000000000
#02710:41
#02812:2c00002600160000161c001c2c00002c0000260000000000
#02818:0016000000002600
#02416:000000130013000000000000140000140000140000140000
#0241b:130000130013000000000000000000000000000000000000
#02412:000000000000000000130013000000240000000000240000
#02417:0000001300000000
#0241a:00002424
#02616:0018001300130013
#0261b:130000000013000013000000000000230000000000000000
#02617:000000000000000000000013130000000000130000000000
#02612:00002323
#00318:0013000000000000
#00312:130000000000000013000000000000000013000000000000
#00314:000000000000001300000000
#00317:000000000000000013000000000000000013000000000000
#00316:000000000013000000000013000000000000000000130000
#0031b:130000000013000000000013000000000000000000000000
#00319:000000000000001300000000
#00315:001300000000000000000000
#00415:0013000000000000
#0041b:130000000000000013000000000000000013000000130000
#00419:000000000000001300000000
#00412:130000000013000000000013000000000000000000000000
#00417:000000000013000000000013000000000000000000000000
#00416:000000001300000000131300
#00414:000000000000001300000000
#00418:001300000000000000000000
#01017:000000000013000000130000000000000013130000000000
#01012:0013130029272523
#0101b:1300001313000000
#01016:13
#01019:0000000000130000
#01015:0000000000000013
#03016:000000000014000014000014000000000000000000140000
#0301a:2414001414000000
#03012:24141400
#03819:001200000012000000000000000000000000000000250000
#03815:001212001313001414001515
#03818:000000000000001300000013000000000000000000000000
#03817:000000000000000000000000001400000014000000000000
#03816:000000000000000000000000000000000000001500000015
#0381c:0022000000000000
#03812:22232425
#0381b:0000002300000000
#0381a:0000000000240000
#04718:0012
#0471c:00000012
#04716:00000012
#0471f:0011
#05016:00121200
#05012:00000012
#05019:12
#0501c:00120000
#05018:00000012
#06116:00001200000014000014000024000000
#06112:26000000260000002400140000140000
#0611a:0000000024002414
#06118:1622160000000000
#05518:000000000000000000000000120000003232323232323232000000000000000000000000000000000000000000000000
#0551c:00120000
#05516:000000000000000000000000220000000013000000000013
#05512:0000000022130013
#05517:000000000000000000000000000000130000000013000000
#0551b:000000000000000000000000003200000000000000000000000000000000000000000000130000000000000000000000
#0551f:0021
#0551a:000000000000003200000000000000000000000000000000
#05519:00000000003200000000000000000000
#02012:000000000013000000000000000000001300000000000000230000000000000000001300180000000000000000000000
#0201b:230000000000000000001300000000000000000000000000000000000013000000000000000000001300000000000000
#02016:1300180000000013
#02017:0000001313000000
#02317:000000000013000000000013000000130013000000000000
#0231b:0013001300000000
#02316:000000000000000013000000000000000000000013130000
#02312:130000000000130000000000130000130013000000000000
#0231a:24
#01316:000000000013000000130000130000000000000000000000
#01312:130000000000000000130000000000000013000000000000
#0131b:0013130013000013
#01317:1300000000131313
#0171b:13131300
#01717:000000000013000000000000000000000000130000000000000000000000000000001300000000000000000000000000
#01716:000000000000000000001300000000000000000000000000000000000013000000000000000000000000130000000000
#01712:13001313
#05916:000000000000130000000000000000240014000000240014
#0591a:000000000000001400241400
#05917:0013001300000000
#05912:1323000024000000
#0591b:23230000
#06016:000000000014000000000014000000000000000000000000
#06012:0000142800002800142800002800002c00162c00002c0016
#06018:260000000000001600001600
#0291a:24001400001400002400140014000000
#02912:14000000240014000014000024001400
#02916:00140000140000001400000000140000
#03914:000000000012120000000000000000000000000000000000
#03918:1200000000000012
#03916:0000001212000000
#0391a:000000000000000000000000000000000012120000000000
#0391b:00130000
#03912:26000013
#04016:0000001200130000
#04014:000000000012120000000000000000000000000000000000
#04018:1200000000000013
#0401b:00130000
#04012:000000000000000000000000120000000000000000000013
#0401a:0000000000121400
#05712:240000000000240000000000230000180013000013000000
#05716:140000140000140000140000000000000000000000000013
#05717:0000000000000013
#0571b:0013
#0571a:0024002400000000
#05817:000000000000000000000013000000000000000000130000
#05812:130000000000000000000000230000180013000013000000
#05816:000000180000000000130000000000000000000000000013
#0581b:230000000013000013000000130000000000000000000000
#05616:000000130013000000000000000000000000000000130000
#05617:000000000000000013130000000000130013000000000000
#0561b:230000130013000000000000000000000000000000130013
#05612:000000000000000000000000230000130013000000000000
#05610:41
#0431b:1300130023130000
#04316:000000000013000000000000000000000000000000000014
#04312:2313000013001300
#04317:000000000000000000000000000000000013000000000000
#04412:2313001313001300
#04416:000000000000000000001400000000000000140000000000000000000013000000001400000000000000140000000000
#0441b:1300130023130013
#04417:000000000013000000000000000000000000000000000000000000000000000000000000000000000000000000000000
#0411b:130000000000000000130000000000000013130000000000
#04116:1300001300001300
#04112:000000000013130000000000130000000000000000130000
#04117:0000130000000013
#06512:2626000000000000
#06518:2626000000000000
#0315a:1400000000230023002300230000000000000000000000000000000000000000
#03152:1400000000000012
#03153:0000000000230023002300230000000000000000000000000000000000000000
#03155:0053000000000000
#03156:000000000000000000000000000000000000000000000000000000000000000000000000000000000000000000000000000000000000000000000000000000000000000000000000000000000000000000000000000000000000000000000000000000000000000000000000000000000000000000000000000000000000000000000000000000000000000000000000000000000000000000000000000000000000000000000000000000000000000000000000000000000000000000000000000000000000000000000000000000000000000000000000000000000000000000000000000000000000000000000000000000000000000000000000000000000000000000000000000000000000000000000000000000000000000000000000000000000000000000000000000000000000000000000000000000000000000000000000000000000000000000000000000000000000000000000000000000000000000000000064540000000000000000000000000000000000000000000000000000000000000000000000000000000000000000000000000000000000000000000000000000000000000000000000000000000000000000000000000000000000000000000000000000000000000000000000000000000000000000000064540000000000000000000000000000000000000000000000000000000000000000000000000000000000000000000000000000000000000000000000000000000000000000000000000000000000000000000000000000000000000000000000000000000000000000000000000000000000000000000064540000000000000000000000000000000000000000000000000000000000000000000000000000000000000000000000000000000000000000000000000000000000000000000000000000000000000000000000000000000000000000000000000000000000000000000000000000000000000000000000000000000000000000000000000000000000000000000000000000000000000000000000000000000000000000000000000000000000000000000000000000000000000000000000000000000000000000000000000000000000000000000000000000000000000000000000000000000000000000000000000000000000000000000000000000000000000000000000000000000000000000000000000000000000000000000000000000000000000000000000000000000000000000000000000000000000000000000000000000000000000000000000000000000000000000000000000000000000000000000000000000000000000000000000000000000000000000000000000000000000000000000000000000000000000000000000000000000000000000000000000000000000000000000000000000000000000000000000000000000000000000000000000000000000000000000000000000000000000000000000000000000000000000000000000000000000000000000000000000000000000000000000000000000000000000000000000000000000000000000000000000000000000000000000000000000000000000000000000000000000000000000000000000000000000000000000000000000000000000000000000000000000000000000000000000000000000000000000000000000000000000000000000000000000000000000000000000000000000000000000000000000000000000000000000000000000000000000000000000000000000000000000000000000000000000000000000000000000000000000000000000000000000000000000000000000000000000000000000000000000000000000000000000000000000000000000000000000000000000000000000000000000000000000000000000000000000000000000000000000000000000000000000000000000000000000000000000000000000000000000000000000000000000000000000000000000000000000000000000000000000000000000000000000000000000000000000000000000000000000000000000000000000000000000000000000000000000000000000000000000000000000000000000000000000000000000000000000000000000000000000000000000000000000000000000000000000000000000000000000000000000000000000000000000000000000000000000000000000000000000000000000000000000000000000000000000000000000000000000000000000000000000000000000000000000000000000000000000000000000000000000000000000000000000000000000000000000000000000000000000000000000000000000000000000000000000000000000000000000000000000000000000000000000000000000000000000000000000000000000000000000000000000000000000000000000000000000000000000000000000000000000000000000000000000000000000000000000000000000000000000000000000000000000000000000000000000000000000000000000000000000000000000000000000000000000000000000000000000000000000000000000000000000000000000000000000000000000000000000000000
#03158:0063000000000000
#0315c:0000000000000012
#03256:000000000053000000000000000053000000002300000000
#03252:000000000000000000000000000000000053000000330000
#0325b:000000000000000000000000000000000063000000430000
#03257:000000000000000000000000000000000000000000000000000000000000000000000000000000000000000000000000000000000000000000000000000000000000000000000000630000000000000000000000000000000000000000000000000000000000000000000000000000000000000000000000000000000000000000000000000000000000000000000000000000000000002300000000000000000000000000000000000000000000000000000000000000000000000000000000
#03357:000000000053000000330000000000000000002300000000
#0335b:000000000000002300000000000000000063000000430000
#03352:000000000053000000330000000000000000002300000000
#03356:000000000000002300000000000000000063000000430000
#0345b:00000053
#00752:0000002200000000
#00756:62
#0075c:0000002200000000
#00758:52
#01157:000000000062000000000000220000000000000000000000
#01152:0022
#0115c:000000000062000000000000000000000000000000000000
#01252:62620000
#01256:0022002200000000
#0125c:0062
#01257:000022
#0165a:00000044
#01657:0000000000230000
#0165c:0062
#01652:00230034
#01656:52
#0155b:13000023
#01556:52
#01552:00230000
#01558:0062
#01852:00005333
#01856:0000000000240000
#0185b:00000043
#06052:0018
#06058:16
#00957:0023
#0095b:23
#01952:53530000
#0195b:00006363
#01956:0023000000000000
#01957:0000000000230000
#03652:000000000053000000000000000000630000000000000000
#03657:0000000000630000
#0365b:00000000000000006300000000230000
#03656:00000000000000000000000000230000
#02152:632300
#02156:002300
#02157:000000000053000000000000000000000000000000000000
#0215b:000000000053000000000000000000000000000000000000
#02154:0053
#02158:0053
#06352:0054000000000000
#0635a:54640000
#03756:0000000000530000
#03752:3313
#03757:0000000000000063
#0375b:00130013
#0035b:13
#0045b:0000000000000053
#0105b:23
#0465b:000000000063000000000000000000000000000000000000
#04854:0052
#04858:00000022
#04859:52
#04856:00220000
#04955:52
#04952:00220000
#0495a:0062
#04956:00000022
#04758:0052
#0475c:00000022
#05056:0062
#05052:00000022
#05059:62
#0505c:00220000
#05155:62
#05158:00220000
#05558:00620000
#0555c:00520000
#05552:0012
#05556:0012
#02056:53
#02052:000000000023000000000000000000000000000000000000000000000000000000000000000000000000000000000000
#02057:0053
#0205b:000000000000000000000000000000000000000000000000000000000023000000000000000000000000000000000000
#02352:5313
#0235a:14
#02357:000000000000000000000000000000000023000000000000
#02356:0000000000000023
#0245b:130000000053000000000000000000000000000000000000
#02456:000000000053000000000000000000000000000000000000
#0065b:00000043
#00652:0000000000000033
#01352:23
#01356:0023
#0175b:63
#01757:000000000023000000000000000000000000000000000000000000000000000000005300000000000000000000000000
#01752:0053
#01756:000000000000000000006300000000000000000000000000000000000023000000000000000000000000000000000000
#05952:0033000014000000
#05956:00630000
#0595b:43430000
#06256:54003400002400000000000000000000
#06252:0000543400000000
#0625a:00240000000000000000000000000000
#0615a:0000000064440000
#06156:00000000000000000024000064004400
#06152:00000000360000000000000000240000
#06158:00460000
#02657:00000053
#0265b:43
#02956:00240000640034005400440000240000
#0295a:00000000002400000000000054004400
#02952:64003400000000000024000000000000
#03052:0064
#0305a:0054
#03958:62
#0395b:00230000
#03956:0052
#03952:36000023
#04058:62
#0405b:00230000
#04052:00005234
#0405a:00000044
#04056:0000000000230000
#04256:0000000000240000
#0425b:00006343
#04252:00000033
#05656:000000000023000000000000000000000000000000000000
#05657:000000000000000000230000000000000063000000000000
#05652:000000000000000000000000130000000063000000000000
#0565b:13
#06556:00320000
#06552:0066000000000000
#06558:0056420000000000
#01458:5356
#01454:00540000
#03552:32
#0435b:63530000
#04356:000000000053000000000000000000000000000000000000
#04352:00005363
#04357:000000000000000000000000000000000063000000000000
#04457:000000000023000000000000000000000000000000000000000000000000000000000000000000000000000000000000
#0445b:53
#04456:000000000000000000000000000000000000000000000000000000000023000000000000000000000000000000000000
#04452:0063
#0415b:6300005300000000
#04152:0000000053000063
#04555:000000000053000000000000000000000000000000000000
#0455b:63
#04558:000000000063000000000000000000000000000000000000
#04552:63
#02852:4c0000003c4c3600
#02858:00000046
#02753:003a
#02754:48
#05852:0033
#0585b:43
#05752:0033
#0255b:43
#02552:0033
#001380:120000320000320032000032000032000032320000320000
#002380:320000320000320032000032000032000032220000000000
#003370:00000013
#0033b0:0000000000000023
#0043b0:0000000000000013
#005360:23
#005320:001300
#005370:0023
#0053b1:0013
#0053a1:000000000000000000000000003300000000000000000000
#005391:000000000000003300000000
#005361:0000000000230000
#007361:12000022
#007321:0000005200000000
#007380:12000022
#0073c0:0000005200000000
#0093b0:13
#009370:0023000000000000
#009370:0013
#0093b0:0000000000230000
#0103b0:13
#010370:0023000000000000
#011320:1252
#011340:003200000000000000000000
#011350:0032000000000000
#011370:000000000032000000000000000000000000220000000000
#0113c1:000000000012000000000000000000000000220000000000
#011371:0052
#012321:12322200
#012361:0052005200000000
#0123c0:000000120022
#0123b0:000000000000000000000000000000320032000000000000
#012370:000052
#013320:13
#013360:0023000000000000
#013360:0013
#013320:0000000000230000
#014380:13
#014350:0023000000000000
#014340:00140000
#014370:0000002400000000
#014380:0016
#014350:0000000000260000
#015360:1222
#015320:00330000
#015381:0012
#0153b1:00000033
#016381:22
#016360:1222
#016320:00330000
#0163c1:0012
#016371:0000000000530000
#0163a1:00000024
#0173b1:130000000023000000000000000000000000000000000000
#017371:000000000053000000000000000000000000000000000000000000000000000000000000000000000000000000000000
#017360:000000000013000000000000000000000000000000000000
#017320:0000002300000000
#017320:000000000000000000000000130000000023000000000000
#017360:000000000000000000000000000000000000000000000000000000000053000000000000000000000000000000000000
#017371:000000000000000000000000000000000013000000000000
#0173b1:0000000000000023
#018321:1323000000000000
#018361:000000000013000000000000000000000000000000000000
#0183b1:002300
#018321:00001323
#018361:0000000000540000
#019321:13330000
#019361:0053002300000000
#0193b0:0000132300000000
#0193b0:00001333
#019370:0000000000530023
#019321:0000000000001323
#020361:130000000023000000000000000000000000000000000000
#020321:000000000053000000000000000000000000000000000000000000000000000000000000000000000000000000000000
#020371:000000000000000000000000130000000023000000000000
#0203b1:000000000000000000000000000000000000000000000000000000000053000000000000000000000000000000000000
#021321:130000330000000053000000000000000000000000000000
#021371:000000000033000000000000000000000000230000000000
#021341:0053
#0213b0:130000000033000000000000000000000000230000000000
#021360:005300
#021380:0053
#021320:0000000000000013
#022360:33
#022320:0023000000000000
#022370:000000000013000000000000000000000000000000000000
#0223b0:002300
#023320:13
#023370:0023000000000000
#023370:000000000000000000000000000000000013000000000000
#0233b0:000000000023
#023360:0000000000000013
#024320:23
#024360:000000000013000000000000000000000000000000000000
#024320:002300
#0243b1:000000000013000000000000000000000000000000000000
#024371:002300
#025361:000000000013000000000000000000000000000000000000
#025321:002300
#025371:000000000000000000000000000000000013000000000000
#0253b1:000000000023
#026361:000000000013000000000000000000000000000000000000
#026321:002300
#026371:00000013
#0263b1:0000000000000023
#027381:000000000014000024000000000000000000000000000000
#027331:000000000000000000000000000000000015000025000000
#028381:000000000016000026000000000000000000000000000000
#029321:1424000000000000
#029361:00540000000000000000000000000000
#029361:0000142400000000
#0293a1:00000000005400000000000000000000
#029361:0000000014240000
#029321:00000000000000000054000000000000
#0293a1:0000000000001424
#029361:00000000000000000000000000540000
#030321:0014
#0303a1:00000024
#0303a0:0014
#030320:00000024
#031350:0013000000000000
#031330:0000000000530000005300000000000000000000000000000000000000000000
#031360:00000054545400000000000000000000
#0313a0:0000000000000053000000530000000000000000000000000000000000000000
#031380:0000002300000000
#031381:0013000000000000
#0313a1:0000000000530000005300000000000000000000000000000000000000000000
#031361:000000000000000000000000000000000000000000000000000000000000000000000000000000000000000000000000000000000000000000000000000000000000000000000000000000000000000000000000000000000000000000000000000000000000000000000000000000000000000000000000000000000000000000000000000000000000000000000000000000000000000000000000000000000000000000000000000000000000000000000000000000000000000000000000000000000000000000000000000000000000000000000000000000000000000000000000000000000000000000000000000000000000000000000000000000000000000000000000000000000000000000000000000000000000000000000000000000000000000000000000000000000000000000000000000000000000000000000000000000000000000000000000000000000000000000000000000000000000000000000054000000000000000000000000000000000000000000000000000000000000000000000000000000000000000000000000000000000000000000000000000000000000000000000000000000000000000000000000000000000000000000000000000000000000000000000000000000000000000000000054000000000000000000000000000000000000000000000000000000000000000000000000000000000000000000000000000000000000000000000000000000000000000000000000000000000000000000000000000000000000000000000000000000000000000000000000000000000000000000000054000000000000000000000000000000000000000000000000000000000000000000000000000000000000000000000000000000000000000000000000000000000000000000000000000000000000000000000000000000000000000000000000000000000000000000000000000000000000000000000000000000000000000000000000000000000000000000000000000000000000000000000000000000000000000000000000000000000000000000000000000000000000000000000000000000000000000000000000000000000000000000000000000000000000000000000000000000000000000000000000000000000000000000000000000000000000000000000000000000000000000000000000000000000000000000000000000000000000000000000000000000000000000000000000000000000000000000000000000000000000000000000000000000000000000000000000000000000000000000000000000000000000000000000000000000000000000000000000000000000000000000000000000000000000000000000000000000000000000000000000000000000000000000000000000000000000000000000000000000000000000000000000000000000000000000000000000000000000000000000000000000000000000000000000000000000000000000000000000000000000000000000000000000000000000000000000000000000000000000000000000000000000000000000000000000000000000000000000000000000000000000000000000000000000000000000000000000000000000000000000000000000000000000000000000000000000000000000000000000000000000000000000000000000000000000000000000000000000000000000000000000000000000000000000000000000000000000000000000000000000000000000000000000000000000000000000000000000000000000000000000000000000000000000000000000000000000000000000000000000000000000000000000000000000000000000000000000000000000000000000000000000000000000000000000000000000000000000000000000000000000000000000000000000000000000000000000000000000000000000000000000000000000000000000000000000000000000000000000000000000000000000000000000000000000000000000000000000000000000000000000000000000000000000000000000000000000000000000000000000000000000000000000000000000000000000000000000000000000000000000000000000000000000000000000000000000000000000000000000000000000000000000000000000000000000000000000000000000000000000000000000000000000000000000000000000000000000000000000000000000000000000000000000000000000000000000000000000000000000000000000000000000000000000000000000000000000000000000000000000000000000000000000000000000000000000000000000000000000000000000000000000000000000000000000000000000000000000000000000000000000000000000000000000000000000000000000000000000000000000000000000000000000000000000000000000000000000000000000000000000000000000000000000000000000000000000000000000000000000000000000000000000000000000000000000000000000000000000000000000000000000000000000000000000000000000000000000000000000000000000
#031331:0000000000000053000000530000000000000000000000000000000000000000
#031351:0000002300000000
#0313c1:000000000000000000000000000000000012000000220000
#031320:000000000000000000000000000000000012000000220000
#032360:000000000013000000000000000000000000000000000000
#032320:002300
#032370:0000001300000000
#0323b0:0023
#032360:000000000000000000000000000013000000005300000000
#032320:000000000000000000000000000000000033000000230000
#0323b1:000000000000000000000000000000000013000000230000
#032371:000000000000000000000000000000000000000000000000000000000000000000000000000000000000000000000000000000000000000000000000000000000000000000000000000000000000000000000000000000000000000000000000000000000000000000000000000000000000000000000000000000000000000000000000000000000000000000000000000000000000005300000000000000000000000000000000000000000000000000000000000000000000000000000000
#033371:000000000013000000230000000000000000000000000000
#0333b1:000000000000005300000000000000000000000000000000
#033391:003300
#033320:000000000013000000230000000000000000000000000000
#033360:000000000000005300000000000000000000000000000000
#033340:003300
#033360:000000000000000000000000000000000013000000230000
#033320:000000000000000000000000000000000000005300000000
#033340:000000000033
#0333b1:000000000000000000000000000000000013000000230000
#033371:000000000000000000000000000000000000005300000000
#033391:000000000033
#0343b1:00000013
#035361:3323
#0353b1:0053000000000000
#035320:0013
#035370:0000000000530000
#036320:23
#036320:000000000013000000000000000000000000000000000000
#036360:002300
#0363b0:00000000000000001300000000530000
#036370:0000000000330000
#037370:23
#036321:0000000000130000
#036361:00000000000000000000000000530000
#037321:23
#037361:0013230000000000
#037371:0000001323000000
#037361:0000000000130000
#037321:00000023
#037371:0000000000000013
#0383b1:23
#039381:1222
#0393b1:00330000
#039360:0012
#039320:00000033
#040360:22
#040381:1222
#0403b1:00330000
#040320:00001224
#040360:0000000000530000
#0413b0:13
#041370:000000000023000000000000000000000000000000000000
#0413b0:0000001300000000
#041370:0023
#041321:0013
#041361:000000000000000000000000000000000023000000000000
#041321:0000000000000013
#042361:23
#0423b0:1323000000000000
#042370:000000000013000000000000000000000000000000000000
#042320:002300
#0423b0:00001323
#042360:0000000000540000
#0433b0:13
#043370:0023000000000000
#043360:000000000013000000000000000000000000000000000000
#043320:0000002300000000
#0433b1:00130000
#043371:0000002300000000
#043321:0013
#043361:0000000000230000
#043371:000000000000000000000000000000000013000000000000
#0433b1:0000000000000023
#043320:00000013
#043360:0000000000000023
#0443b0:130000000023000000000000000000000000000000000000
#044370:000000000053000000000000000000000000000000000000000000000000000000000000000000000000000000000000
#044320:000000000000000000000000130000000023000000000000
#044360:000000000000000000000000000000000000000000000000000000000053000000000000000000000000000000000000
#045320:1333000000002200
#045350:000000000033000000000000000000000000000000000000
#0453b1:1333000000000000
#045381:000000000033000000000000000000000000000000000000
#0453c1:00000022
#046361:000000130023000000000000000000000000000000000000
#0463b0:000000000013000000000000000000000000000000000000
#046370:002300
#047380:0012
#0473c0:00000052
#048390:32
#048360:00520000
#0483a0:0022
#048341:0012
#048381:00000052
#049351:32
#049321:00520000
#049361:0022
#0493a0:0012
#049360:00000052
#050390:32
#0503c0:00520000
#050380:0022
#050361:0012
#050321:00000052
#051351:32
#051381:00520000
#051341:0022
#051360:00001222
#052390:12220000
#0523c0:00001222
#053360:12220000
#053360:0012
#053320:00000032
#054360:22
#054381:1222
#0543c1:00320000
#054360:0012
#054320:00000032
#055360:22
#055381:120000000000000000000000000000003232323232323232000000000000000000000000000000000000000000000000
#0553c1:00320000
#0553b1:000000000000000000000000003200000000000000000000000000000000000000000000000000000000000000000000
#0553a1:000000000000003200000000000000000000000000000000
#055391:00000000003200000000000000000000
#055361:0022
#055380:00120000
#055320:0022
#056360:000000000013000000000000000000000000000000000000
#056320:002300
#056370:0000001300000000
#0563b0:0023
#056370:000000000000000000000000000000000013000000000000
#0563b0:000000000023
#056321:000000000000000000000000000000000013000000000000
#056361:000000000023
#057371:000000000000000000000000000000000013000000000000
#0573b1:000000000023
#058361:000000000013000000000000000000000000000000000000
#058321:002300
#058371:000000000000000000000000000000000013000000000000
#0583b1:000000000023
#059361:00130000
#059321:0000002300000000
#0613a1:0000000014240000
#061361:00000000000000000054000000000000
#061361:0000000000001424
#061321:00000000000000000000000000540000
#062361:1424000000000000
#0623a1:00540000000000000000000000000000
#062321:0000142400000000
#062361:00000000005400000000000000000000
#0633a1:14
#063361:0024000000000000
#063320:0014000000000000
#063360:00240000
#0633a1:00140000
#063361:0000002400000000
#065321:0016000000000000
#065361:00220000
#065380:0016220000000000
