This file was generated by Ched 2.7.0.0.
#TITLE ""
#ARTIST ""
#DESIGNER ""
#DIFFICULTY 0
#PLAYLEVEL
#SONGID ""
#WAVE ""
#WAVEOFFSET 0
#JACKET ""
#REQUEST "ticks_per_beat 480"
#00002: 4
#BPM01: 134
#00008: 01
#TIL00: ""
#VOLUME: ""
#HISPEED 00
#MEASUREHS 00
#0031a:14
#00314:00140000
#00318:0014
#00312:00000014
#0041a:14
#00414:00140000
#00418:0014
#00412:00000014
#00912:14140000
#00918:00001414
#00910:41
#01014:14140000
#0101a:00001414
#0131a:14140000
#01314:00001414
#01418:14140000
#01412:00001414
#01514:00140000
#01518:0014
#01512:00000014
#0151a:24
#01618:14
#01614:00140000
#0161a:0014
#01718:00140000
#01714:0014
#0171a:00000014
#01712:14
#01814:14
#01818:00140000
#01812:0014
#01810:41
#0191a:14
#01914:00140000
#01918:00001414
#02012:14
#02018:00140000
#02014:00001414
#0211a:14
#02118:0000001400000000
#02214:0000000000140014
#0221a:00001414
#02212:14
#02216:00140000
#02312:00140000
#02318:0014
#02314:00000014
#0231a:24
#0241a:14
#02412:00140000
#02414:0000000000140014
#02418:00002424
#0251a:14
#02512:00140000
#02518:0014
#02514:00000014
#0261a:14
#02612:00140000
#02614:0000000000140000
#02618:00002414
#02712:14
#02716:00140014
#0271a:0014
#02710:41
#02812:14000024
#02816:0000140000240000
#0281a:0024
#02914:1414
#02912:00140014
#0291a:2424
#02918:00240024
#03118:14
#03112:00140000
#0311a:0014
#03114:00000014
#03218:14
#03212:00140000
#0321a:0014
#03214:00000014
#0331a:14140000
#03312:00001414
#03518:00341434
#0351a:24
#03612:00140000
#03616:0014
#0361a:00000014
#03610:41
#03918:00140000
#03914:0014
#0391a:00000014
#03912:24
#04014:14
#04018:00140000
#04012:0014
#04114:00140000
#04118:0014
#04112:00000014
#0411a:14
#04218:14
#04214:00140000
#0421a:0014
#04312:14
#04318:00140000
#04314:00001414
#0441a:14
#04414:00140000
#04418:00001414
#04512:14
#04514:0000001400000000
#04510:41
#0461a:14
#04616:000000140000000034343400
#04612:0014
#04614:000000000000003400000000
#03712:1414
#03714:00140000
#0381a:1414
#03818:00140000
#03819:0034003400340000
#0471a:0014
#0471f:0011
#04719:00000034
#04816:0000341400000000
#04817:00000034
#04912:0014
#04913:00000034
#05016:0000341400000000
#05015:00000034
#05514:00140000
#0551a:00000014
#05512:0024
#0551f:0021
#0511a:0014
#05118:0000000000003414
#05212:0014
#05214:0000000000003414
#05218:34
#05614:14
#05618:00140000
#05612:0014
#0561a:00000014
#05610:41
#05718:0014001400000000
#0571a:00000014
#05712:0014
#05714:24240000
#05818:00140000
#0581a:00000014
#05814:14
#05812:0014
#05918:0014000000000000
#05914:24140000
#0591a:0024
#05916:00000024
#06118:0014
#0611a:00240014
#06112:2424
#06114:00000024
#06116:0024000000000000
#06218:14
#0621a:00140000
#06212:24
#06214:00240000
#06312:0016001600000000
#06318:00161600
#06412:16
#06418:000000000000000000000000260000360036000036360036
#03014:0014
#0341a:24
#03416:00240024
#03412:0024
#06012:24
#06016:00240024
#0601a:0024
#05314:34
#06518:36
#0165a:0054
#01852:0064
#0215a:54
#02158:0000002400000000
#0235a:14
#03052:00000014
#03054:0054
#0355a:54
#03558:0024
#04052:0064
#0425a:0054
#04552:64
#04554:0000002400000000
#03752:6464
#03754:00640014
#0385a:5454
#03858:00540014
#04652:0054
#0475a:0054
#04856:0000002400000000
#04952:0064
#05056:0000002400000000
#05554:00540000
#05552:0014
#0515a:0054
#05158:0000000000000024
#05252:0064
#05254:0000000000000024
#05954:00140000
#06452:16
#06458:0056
#06358:0016
#06555:00160000
#02658:00000014
#001380:14000024
#002340:14000024
#0053a0:1434
#005380:00340024
#006320:1434
#006340:00340024
#007380:14
#008380:34343424
#011340:14
#012340:34343424
#0163a0:0014
#016380:00000024
#018320:0014
#018340:00000024
#0213a0:14000024
#021380:0000005400000000
#030340:1434
#030320:00340024
#0353a0:14
#035380:00343434
#0363a0:24
#037320:1434
#037340:00340024
#0383a0:1434
#038390:0034003400340000
#038380:00340024
#040320:0014
#040340:00000024
#0423a0:0014
#042380:00000024
#045320:14000024
#045340:0000005400000000
#046320:0014
#046340:000000000000003400000000
#046360:000000000000000034343424
#0473a0:0014
#047390:00000034
#048360:0000345400000000
#048370:00000034
#0493a0:00240000
#049320:0014
#049330:00000034
#050360:0000345400000000
#050350:00000034
#051320:00240000
#0513a0:0014
#051380:0000000000003454
#052380:34
#0523a0:00240000
#052320:0014
#052340:0000000000003454
#053340:34
#053320:00240000
#0533a0:0014
#053380:00000024
#054320:14
#054340:00240000
#0543a0:0014
#054380:00000024
#055320:1424
#055340:00340000
#062380:0014
#0623a0:00000034
#063380:24
#064380:000000000000000000000000160000360036000036360036
#065380:36
#065350:0036260000000000
