This file was generated by Ched 2.7.0.0.
#TITLE ""
#ARTIST ""
#DESIGNER ""
#DIFFICULTY 0
#PLAYLEVEL
#SONGID ""
#WAVE ""
#WAVEOFFSET 0
#JACKET ""
#REQUEST "ticks_per_beat 480"
#00002: 4
#BPM01: 220
#BPM02: 208
#BPM03: 202
#BPM04: 189
#BPM05: 177
#BPM06: 196
#00008: 01
#08108: 01
#07808: 0203
#07908: 0405
#08008: 06
#TIL00: ""
#VOLUME: ""
#HISPEED 00
#MEASUREHS 00
#0011a:14
#00214:14
#00318:14
#00412:14
#0051a:14
#0061a:14
#00714:14
#00814:14
#00918:14
#00910:41
#01018:14
#01112:14
#01212:14
#0131a:14
#01414:14
#01712:14
#01818:14
#01914:14
#0201a:14
#02112:14
#02218:14
#0251a:14
#02614:14
#02718:14
#02812:14
#03812:0016
#03818:26
#03918:1616
#04012:16
#04018:0016
#04112:1616
#04218:16
#04212:0016
#04210:41
#04612:16
#04618:0016
#04818:16
#04812:0016
#05012:16
#05018:0016
#05112:16
#05118:0016
#0541a:14
#05410:41
#05514:14
#05618:14
#05712:14
#0581a:14
#05914:14
#06018:14
#06112:14
#08212:14
#0821f:11
#08318:14
#0861a:14
#08714:14
#09014:14
#0911a:14
#09418:14
#09512:14
#09818:0016
#09812:26
#0981f:21
#09912:1616
#09910:41
#10018:16
#10012:0016
#10118:1616
#10212:16
#10218:0016
#10618:16
#10612:0016
#10812:16
#10818:0016
#11018:16
#11012:0016
#11118:16
#11112:0016
#11412:14
#11512:14
#11618:14
#11718:14
#11814:14
#11914:14
#1201a:14
#09618:24
#1211a:24
#07819:0035
#07919:3535
#02910:41
#08010:41
#0153a0:14
#0163a0:24
#023320:14
#024320:24
#0293a0:14
#0303a0:24
#031340:14
#032340:24
#033380:14
#034380:24
#035320:14
#036320:34
#037320:24
#043380:1626
#044320:1626
#045380:16362600
#047320:16362600
#049380:16362600
#052320:16363626
#062390:15
#063370:35
#064390:35
#065370:25
#066320:15
#067340:35
#068320:35
#069340:25
#070370:15
#071390:35
#072370:35
#073390:25
#074340:15
#075320:35
#076340:25
#078390:1535
#079390:3535
#080360:35
#081360:25
#084320:14
#085320:24
#0883a0:14
#0893a0:24
#092340:14
#093340:24
#096380:1434
#097380:3424
#103320:1626
#104380:1626
#105320:16362600
#107380:16362600
#109320:16362600
#112380:16363626
#1213a0:1434
#1223a0:24
