This file was generated by Ched 2.7.0.0.
#TITLE ""
#ARTIST ""
#DESIGNER ""
#DIFFICULTY 0
#PLAYLEVEL
#SONGID ""
#WAVE ""
#WAVEOFFSET 0
#JACKET ""
#REQUEST "ticks_per_beat 480"
#00002: 4
#BPM01: 220
#BPM02: 208
#BPM03: 202
#BPM04: 189
#BPM05: 177
#BPM06: 196
#00008: 01
#08108: 01
#07808: 0203
#07908: 0405
#08008: 06
#TIL00: ""
#VOLUME: ""
#HISPEED 00
#MEASUREHS 00
#00416:1313
#00417:00130000
#00412:000000230000000013000000
#00418:00000013
#00415:000000000000000000000013
#0041b:2323
#0051b:130000000000130000000013
#00515:001300000000000000000000
#00518:001300000000
#00512:000000130000000013000013
#00517:000013
#0061b:001300000000
#00612:000000000013000000000000
#00616:000000000000001300000000
#00617:00000013
#0071b:1313
#00716:1313
#00712:00130013
#00717:00130013
#0081b:13000013
#00815:001300000000
#00818:00130000
#00812:000000000013000000000000
#00816:000000000000001300000000
#01218:13
#0121b:00130013
#01215:1313
#01212:00130013
#03815:001300001300
#03818:00130013
#03812:130000000013000000000013
#0381b:2323
#0391b:000013000000130000000013
#03917:0000000000130000
#03912:000000000013000000130000
#03916:24240000
#04012:001300130000
#04016:240000000000240000000000000000130000000000001400
#0401b:000000000013000000130000
#04118:00000013
#04116:00141400
#04112:1313
#0411b:00130000
#04417:13000013
#04412:13
#04416:00131300
#0441b:000000000000130000000013
#04519:00000013
#04514:00000013
#04512:2413
#0451a:0024
#04516:00240000
#05112:140000000000000000000014
#0511a:000000000014140000000000
#05116:2424
#05318:12001313
#05315:000000000000000013000013
#05316:00120000
#0541b:13
#05417:00130000
#05412:0013
#05416:00000013
#05410:41
#0551b:1313
#05512:00130000
#05517:00130000
#05516:0013
#05515:000000000000000013000013
#05518:00000013
#0131b:00130013
#01312:000000130013000000130000
#01317:0013
#01316:000000000000000000000013
#01318:13
#01716:14
#0171a:0014
#01718:00000014
#01714:000013
#01712:000000000000000000000013
#01612:0014
#01614:00000014
#01619:000013
#0161b:130000000000000000000013
#0191b:1313
#01917:0013000000130000
#01912:00130013
#01916:0000001300000013
#0151b:1313
#01516:13
#01512:00130013
#0201b:130000000013000000000000
#02015:000013000000000000130000
#02018:000000130000000013000013
#02012:000000000013000000000000
#02112:13
#02116:0013000000000000
#0211b:000000000000130000000013
#02117:0000000000130000
#02118:00130000
#02115:000000000013000000130000
#02218:00000013
#02215:000000000000000000000013
#02216:1313
#02217:00130000
#02212:001300000000
#0221b:000000000013000000000000
#0231b:1313
#02317:0013000000130000
#02312:00130013
#02316:0000001300000013
#02616:1313
#02617:00130013
#02815:000000130000000013000013
#02812:1313
#02818:00230013
#0281b:0023
#0291b:13000013
#02912:000000000013000000000000
#02917:0013000013000000
#02916:000013
#02910:41
#03017:13
#0301b:00130000
#03019:00000013
#03012:13
#03016:00130000
#03215:000013
#03218:00000013
#03216:13
#03212:00130000
#0321b:13
#03217:00130000
#03316:13
#03312:00131300
#0331b:13000013
#03317:0013
#03512:1313
#03518:13
#0351b:00130013
#03516:001300001300
#03517:000000000013000000000013
#0561b:13000013
#05617:00130000
#05612:0013
#05716:14141414
#0571b:00130013
#05712:1313
#06216:130000000013130000000000
#0621b:13000013
#06217:000013000000000000000013
#06212:000013000000000000130000
#06312:1313
#0631b:00130013
#06316:001300001300
#06317:000000000013000000000013
#06412:130000000000000000000013
#0641b:00130013
#06418:000000000013000000000000
#06415:000000131300
#06518:231300000000
#06515:000000230013000000000000
#06517:0000000000130000
#06512:00000013
#0651b:0023
#06612:130000000000000000130013
#0661b:000013000000000000130000
#06617:130000000013130000000000
#06616:001300000000
#06716:00130013
#06717:1313
#0671b:001300001300
#06712:000000000013000000000013
#06817:13
#06812:00130013
#0681b:000000000000000000000013
#06815:000000000013000000000000
#06818:000000131300
#06915:231300000000
#06918:000000230013000000000000
#06916:0000000000130000
#0691b:00000013
#06912:0023
#07017:1313
#07012:130000000013000000000013
#0701b:001300001300
#07016:000013000000000000130000
#07116:14141414
#0711b:001300001300
#07112:000000000013000000000013
#07217:130000000000130000000013
#07216:00130013
#07312:230000001300000000000000000000130000000000000000
#0731b:000000230013000000130000
#07316:0023
#07417:13
#07412:1313
#0741b:000000130000000013000000
#07416:00000013
#07512:000000000013000000000013
#07516:14141414
#0751b:001300001300
#07718:000000231300
#07715:000000000000000000230013
#07816:001400001400
#07812:000014000014
#0781a:2424
#08019:141414141414
#08018:001400000014000000140000
#0801a:000000140000001400000014
#08013:14
#08010:41
#08113:141414141414
#08114:001400000014000000140000
#08112:000000140000001400000014
#08119:00130000
#0811a:0013
#0811b:00000013
#08218:121200121200
#08216:000000120012000000120012
#0821f:11
#08418:00000012
#08416:000000000000000000000012
#08413:1212
#08419:00120000
#0851b:12
#08517:00120000
#08513:0012
#08816:12
#0881c:00120000
#08818:0012
#08812:00000012
#0891c:1212
#08912:00120012
#08916:120000000000120000000012
#08918:00120000
#09013:000000000012000000000012
#09017:00001212
#0901b:000012
#09016:00120000
#0901c:12
#09118:12
#09115:001200000000
#0911a:00120012
#09117:000000000012000000000000
#0911c:0012
#09114:00000012
#00118:000013
#00115:00000013
#00112:23230000
#0011b:23230000
#0021b:13130000
#00215:000013
#00218:00000013
#00312:13130000
#00318:000013
#00315:00000013
#01112:1313
#01117:1313
#0111b:00130013
#01116:00130013
#0141b:1313
#01417:00130013
#01412:00130013
#01416:0013
#01817:1313
#01816:00130013
#0241b:13
#0241a:0014
#02418:00000014
#02414:000013
#02412:000000000000000000000013
#02516:14
#02512:0014
#02514:00000014
#02519:000013
#0251b:000000000000000000000013
#02718:00130013
#0271b:0000001300000013
#02715:1313
#02712:0013000000130000
#03416:1414
#03412:00141400
#0341a:14000014
#03612:140000000000140000000014
#03616:000014000014000014000000
#0361a:00140014
#04317:000000000000000000000013
#04312:001300130000
#04316:2400240000130000
#0431b:000000000013000000130000
#04612:231300000000
#04618:000000230013000000000000
#04615:000000231300
#0461b:130000000000000000230013
#04716:000014000014000000000000
#04714:00000013
#04719:00000013
#0471a:00240000
#04712:2424
#04912:000000240000000000000013
#04916:000014000014000000140000
#0491a:2424
#05812:13
#05816:00130000
#0581b:1313
#05817:00000013
#05912:1313
#0591b:00130000
#05916:00130000
#05917:0013
#05918:000000000000000013000013
#05915:00000013
#06012:13000013
#06016:00130000
#0601b:0013
#06116:14141414
#06112:00130013
#0611b:1313
#0831b:1212
#08315:00120000
#08616:121200121200
#08618:000000120012000000120012
#08713:1212
#08719:00120000
#08718:000000000000000000120012
#09314:00120012
#0931a:00000012
#09316:12
#09319:001200000000
#09317:000000000012000000000000
#09312:0012
#0931b:000000000000000000000013
#07914:001300000000
#07912:001300
#0791b:1323
#07919:000013
#07917:000000000013
#07916:2313
#05012:130000000000000000000014
#0501b:000000000013130000000000
#05017:23
#05016:0023
#09818:001300261300
#09815:000000130013000000130000
#0981b:230000000000000000000013
#09812:23
#0981f:21
#09912:001300130000
#09916:2400240000130000
#0991b:000000000013000000130000
#09910:41
#1001b:000013000000130000000013
#10017:0000000000130000
#10012:130000000013000000130000
#10016:24240000
#10416:13000013
#1041b:13
#10417:00131300
#10412:000000000000130000000013
#10512:000000000013000000130000
#10516:240000240000240000000013
#1051b:000013000000000000130000
#11315:00001313
#1131b:000013
#11318:000000120000000000000013
#11316:12
#1031b:001300130000
#10317:0000000000130000
#10312:000000000013000000130000
#10316:240000240000000000000013
#10614:001300001300
#10612:000000000013000000000000
#10616:000000000000000000000013
#1061b:23
#10619:00230023
#10617:0023
#10717:000013000000000000000013
#10716:000000000013000000000000
#1071b:23002313
#10712:00230013
#10918:00000013
#1091b:000000230000000000000013
#10916:001300000000
#10917:000000000013000000000000
#10912:2323
#10112:001300130000
#1011b:000000000013000000130000
#10116:2400240000130000
#1141b:000000000000000000000013
#11416:000000000000000000000014000000000000000000000000
#11412:24
#11512:001300000000
#1151b:000000000013000000000000
#11517:000000000000001300000000
#11516:00000013
#11712:13000013
#11718:001300000000
#11715:00130000
#1171b:000000000013000000000000
#11717:000000000000001300000000
#12115:1323
#12112:00130013
#12118:2313
#1211b:00130013
#11617:1313
#11616:00130013
#11612:2323
#1161b:00230023
#1181b:130000000000130000000013
#11815:001300000000000013000000
#11818:000013000000000000130000
#11812:000000130000000000000013
#1191b:001300000000
#11912:000000000013000000000000
#11916:000000000000001300000000
#11917:00000013
#12016:1313
#12017:00130013
#1201b:2323
#12012:00230023
#12215:13
#12218:23
#00912:130000000000130000000013
#00918:001300000000000000000000
#00915:001300000000
#0091b:000000130000000013000013
#00916:000013
#00910:41
#01012:001300000000
#0101b:000000000013000000000000
#01017:000000000000001300000000
#01016:00000013
#03112:13000013
#0311b:000000000013000000000000
#03116:0013000013000000
#03117:000013
#03717:00121212
#04218:001300001300
#04215:00130013
#0421b:130000000013000000000013
#04212:2323
#04210:41
#05212:14000023
#05216:24230000
#05214:0023
#0521b:00230000
#05219:0023
#05217:00000023
#0921b:000000000012000000000012
#09217:00001212
#09213:000012
#09218:00120000
#09212:12
#0951a:140000000000000000000014
#09512:000000000014140000000000
#09516:2424
#0941a:000000000000000000000014
#0941b:13
#09412:000000000013130000000000
#09416:23
#09417:0023
#0961a:14
#09614:00230023
#09612:0023
#09619:00230023
#09617:0023
#09616:24
#1111a:140000000000000000000014
#11112:000000000014140000000000
#11116:2424
#1101a:000000000000000000000014
#1101b:13
#11012:000000000013130000000000
#11016:23
#11017:0023
#1121a:14
#11217:00230000
#11219:0023
#1121b:00000023
#11216:24000023
#11212:00230000
#11214:0023
#10819:001300001300
#1081b:000000000013000000000000
#10817:000000000000000000000013
#10812:23
#10814:00230023
#10816:0023
#0481b:231300000000
#04815:000000230013000000000000
#04818:000000231300
#04812:130000000000000000230013
#10215:001300001300
#10218:000000130013000000130000
#10212:230000000000260000000013
#1021b:23
#0971b:2323
#09712:00230000
#09716:2323
#09717:00230000
#07616:24
#0045b:4343
#00452:00330000
#00552:000000530000000000000053
#00652:000000000053000000000000
#00656:000000000000002300000000
#0065b:005300000000
#0075b:1313
#00752:00130013
#00852:000000000053000000000000
#00856:000000000000002300000000
#01258:6313
#0125b:00230000
#01255:1353
#01252:00000023
#03957:0000000000230000
#0395b:0053
#03956:14140000
#04052:0063
#04056:1400140000230000
#04457:53
#04452:13
#04456:0063
#0445b:0013
#0545b:53
#05457:00230000
#05452:0063
#05456:00000023
#0555b:1313
#05552:00130000
#0195b:6363
#01957:0023000000230000
#01952:00530053
#01956:0000002300000023
#0155b:5353
#01552:00630063
#02152:53
#02156:0023000000000000
#0215b:0063
#02157:0000000000230000
#0235b:6363
#02357:0023000000230000
#02352:00530053
#02356:0000002300000023
#02656:6363
#02657:00530053
#0295b:63
#02957:0023000000000000
#03057:63
#0305b:00230000
#03052:63
#03056:00230000
#03356:13
#0335b:63
#03357:0013
#03352:0053
#0455a:0014
#04556:00140000
#04552:14
#0475a:00140000
#04752:1414
#0565b:53
#05657:00230000
#05652:0063
#05756:14141414
#06257:006300000000
#06352:3333
#0635b:00430043
#06452:23
#06557:0000000000230000
#0655b:0053
#06756:00330033
#06757:4343
#06857:23
#0705b:005300000000
#07257:2323
#07256:00230000
#07352:0000000000230000
#07356:0053
#0745b:00530000
#07452:63
#07456:00000063
#08059:545454545454
#08058:002400000024000000240000
#0805a:000000240000002400000024
#08153:646464646464
#08154:002400000024000000240000
#08152:000000240000002400000024
#0855b:12
#08557:00120000
#08553:0012
#08856:62
#08858:0052
#0895c:1212
#08952:00120000
#09158:12
#0915a:00120000
#0915c:0012
#0975b:4343
#09752:00330000
#01152:1313
#0115b:00130013
#01355:13
#01656:13
#0165b:13
#01652:0034
#01654:00000034
#01857:6363
#01856:00530053
#0205b:430000000043000000000000
#02052:000000000033000000000000
#02257:00430000
#02256:3333
#02758:00530053
#0275b:0000002300000023
#02755:6363
#02752:0023000000230000
#02852:33
#03456:1414
#0345a:64
#03452:0054
#05852:63
#05856:00230000
#0585b:0053
#05857:00000023
#05952:1313
#0595b:00130000
#06052:63
#06056:00230000
#0605b:0053
#06156:14141414
#06956:0000000000230000
#06952:0063
#07156:14141414
#07556:14141414
#0835b:1212
#08355:00120000
#08453:1212
#08459:00120000
#08753:1212
#08759:00120000
#0905c:62
#0795b:53
#07956:0053
#09952:0063
#09956:1400140000230000
#1005b:0053
#10057:0000000000230000
#10056:14140000
#10456:63
#1045b:13
#10457:0053
#10452:0013
#1035b:0053
#10357:0000000000230000
#10356:14140000
#10556:14141400
#10156:1400140000230000
#10152:0063
#09852:13
#0985b:13
#09858:0016
#1145b:000000000000000000000063
#11452:54
#11456:000000000000000000000024000000000000000000000000
#11552:006300000000
#1155b:000000000063000000000000
#11557:000000000000002300000000
#1175b:000000000063000000000000
#11757:000000000000002300000000
#12155:5313
#12152:00230000
#12158:1363
#1215b:00000023
#11852:000000530000000000000053
#1195b:005300000000
#11952:000000000053000000000000
#11956:000000000000002300000000
#0095b:000000630000000000000063
#01052:006300000000
#0105b:000000000063000000000000
#01057:000000000000002300000000
#01756:34
#0175a:0044
#01758:00000044
#0245b:43
#02452:33
#0245a:0044
#02458:00000044
#02556:44
#02552:0034
#02554:00000034
#03152:53
#03156:0023000000000000
#03256:53
#03252:00230000
#0325b:53
#03257:00230000
#0385b:1313
#0365a:00000054
#04152:1313
#0415b:00130000
#04352:0063
#04356:1400140000230000
#04252:1313
#04952:00140000
#0495a:1414
#06656:005300000000
#09356:12
#09354:00120000
#09352:0012
#09252:52
#10752:00330000
#1075b:4343
#1095b:00430000
#10952:3333
#12258:13
#1025b:13
#10252:1316
#07656:14
#11652:1313
#1165b:00130013
#12052:00130013
#1205b:1313
#005320:00130000
#005360:0023
#005320:000000000000000000000013
#006360:002300000000
#0063b1:001300000000
#006371:000000000023000000000000
#006320:000000000013000000230000
#006360:000000000000005300000000
#008320:000000000013000000230000
#008360:000000000000005300000000
#0093b0:00130000
#009370:0023
#0093b0:000000000000000000000013
#010370:002300000000
#010321:001300000000
#010361:000000000023000000000000
#0103b0:000000000013000000230000
#010370:000000000000005300000000
#012380:1323
#0123b0:00530000
#012351:0013
#012321:00000053
#013351:23
#0153b1:13
#015371:00230000
#015320:00130000
#015360:0023
#0153b1:0013
#015371:00000023
#015320:00000013
#016360:23
#018370:13
#0183b0:00230000
#018361:00130000
#018321:0023
#018370:0013
#0183b0:00000023
#018361:00000013
#019321:23
#0193b0:13230000
#019370:0053000000000000
#019321:00132300
#019361:0000005300000000
#0193b0:00001323
#019370:0000000000530000
#019321:00000013
#019361:0000000000000053
#020321:23
#021321:13230000
#021361:0053000000000000
#0213b1:00001323
#021371:0000000000530000
#0233b1:13230000
#023371:0053000000000000
#023320:00132300
#023360:0000005300000000
#0233b1:00001323
#023371:0000000000530000
#023320:00000013
#023360:0000000000000053
#024320:23
#026360:13
#026320:00230000
#026371:00130000
#0263b1:0023
#026360:0013
#026320:00000023
#026371:00000013
#0273b1:23
#027350:13230000
#027320:0053000000000000
#027381:00132300
#0273b1:0000005300000000
#027350:00001323
#027320:0000000000530000
#027381:00000013
#0273b1:0000000000000053
#028381:23
#0293b1:13230000
#029371:0053000000000000
#030371:1323
#0303b1:00530000
#030320:1323
#030360:00530000
#031320:13230000
#031360:0053000000000000
#032360:1323
#032320:00530000
#0323b1:1323
#032371:00530000
#0333b1:13
#033371:00230000
#033321:0013
#033361:00000023
#0343a1:14
#034361:00240000
#034321:0014
#034361:00000024
#0363a1:00000014
#036361:000000000000000000000024
#0393b1:00001323
#039371:0000000000530000
#040321:00001323
#040361:0000000000530000
#043321:00001323
#043361:0000000000530000
#044371:13
#0443b1:00230000
#044361:0013
#044321:00000023
#0543b1:1323
#054371:00530000
#054320:0013
#054360:00000053
#055320:23
#0563b0:1323
#056370:00530000
#056321:0013
#056361:00000023
#058321:1323
#058361:00530000
#0583b0:0013
#058370:00000053
#0593b0:23
#060320:1323
#060360:00530000
#0603b1:0013
#060371:00000023
#062371:001300000000
#0623b1:000000000023000000000000
#064321:13
#064361:00230000
#0653b1:00001323
#065371:0000000000530000
#066361:001300000000
#066321:000000000023000000000000
#068371:13
#0683b1:00230000
#069321:00001323
#069361:0000000000530000
#0703b1:001300000000
#070371:000000000023000000000000
#072371:13
#0723b1:00230000
#072360:00130000
#072320:0023
#072371:0013
#0723b1:00000023
#073361:00001323
#073321:0000000000530000
#074321:13
#074361:00230000
#0743b0:00130000
#074370:0023
#074360:00000013
#075320:23
#0793b0:13
#079370:002300
#079360:0013
#079320:000000000023
#080390:145454545454
#080380:005400000054000000540000
#0803a0:000000540000005400000054
#081390:24
#081331:145454545454
#081341:005400000054000000540000
#081321:000000540000005400000054
#082331:24
#088361:12
#088321:00220000
#088381:0012
#0883c1:00000022
#0903c1:12
#090381:00220000
#092321:12
#092361:00220000
#099321:00001323
#099361:0000000000530000
#1003b1:00001323
#100371:0000000000530000
#101321:00001323
#101361:0000000000530000
#1033b1:00001323
#103371:0000000000530000
#104361:13
#104321:00230000
#104371:0013
#1043b1:00000023
#114321:140000000000000000000024
#114361:000000000000000000000054000000000000000000000000
#1143b0:000000000000000000000013
#115370:002300000000
#115321:001300000000
#115361:000000000023000000000000
#1153b0:000000000013000000230000
#115370:000000000000005300000000
#1173b0:000000000013000000230000
#117370:000000000000005300000000
#118320:00130000
#118360:0023
#118320:000000000000000000000013
#119360:002300000000
#1193b1:001300000000
#119371:000000000023000000000000
#119320:000000000013000000230000
#119360:000000000000005300000000
#121350:1323
#121320:00530000
#121381:0013
#1213b1:00000053
#122381:23
