This file was generated by Ched 2.7.0.0.
#TITLE ""
#ARTIST ""
#DESIGNER ""
#DIFFICULTY 0
#PLAYLEVEL
#SONGID ""
#WAVE ""
#WAVEOFFSET 0
#JACKET ""
#REQUEST "ticks_per_beat 480"
#00002: 4
#BPM01: 220
#BPM02: 208
#BPM03: 202
#BPM04: 189
#BPM05: 177
#BPM06: 196
#00008: 01
#08108: 01
#07808: 0203
#07908: 0405
#08008: 06
#TIL00: ""
#VOLUME: ""
#HISPEED 00
#MEASUREHS 00
#00712:13
#00715:0013
#00718:00130000
#0071b:00000013
#00812:130000000013000000000000
#00818:000013000013000000000000
#00815:00130000
#01218:13
#0121b:00130000
#01215:0013
#01212:00000013
#03815:00130000
#03812:00000013
#0381b:23
#03818:0023
#0441b:13
#04412:0013
#0511a:000000000000000000000014
#05112:000000000014000000000000
#05116:2424
#0531b:0013
#05315:000000130000000013000000
#05318:13000013
#05312:000000000000000000000013
#05515:00130000
#05518:0013
#0131b:000000000013000000000000
#01315:0013
#01312:000000000000000000000013
#01718:14000014
#01712:0014
#0161a:0014
#01614:00000014
#0151b:13
#01512:0013
#01515:00000013
#02018:000000000000000000000013
#02115:000000000013000000000000
#02118:000000000000000000000013
#02112:13
#0211b:0013
#0221b:00000013
#02212:13
#02218:00130000
#02215:0013
#0331b:13
#03315:00130000
#03312:0013
#03318:00000013
#05712:14
#05718:00140000
#05714:0014
#0571a:00000014
#06218:13000013
#06215:001300000000
#06212:000000000033000000000000
#0641b:13000013
#06415:0013
#06412:000000000000000000000013
#06515:001300000000
#06512:000000000013000000000000
#06518:2323
#0651b:00230000
#0741b:00000013
#07412:13
#07415:00130000
#07715:000013
#07712:000000000000000000000013
#0771b:0023
#07718:00000023
#07815:001400
#07814:000000000014
#0781a:24
#07819:0024
#08019:141414141414
#08018:001400000014000000140000
#0801a:000000140000001400000014
#08010:41
#08113:141414141414
#08114:001400000014000000140000
#08112:000000140000001400000014
#08414:00000012
#08418:1212
#08416:00120000
#0851a:12
#08517:00120000
#08514:0012
#0901a:0012
#09017:00000012
#09014:12
#09114:12
#09117:00120000
#0911a:0012
#00118:00000013
#0011a:24
#00112:00240000
#00215:00130000
#00218:00000013
#00315:00130013
#00318:000013
#01418:13
#0141b:0013
#01415:00000013
#01412:00130000
#01815:13
#01818:0013
#0341a:14
#03416:00140014
#03412:0014
#03915:001300000000
#03912:000000000013000000000000
#0391a:24
#03918:00240000
#0401b:000000000013000000000000
#04018:001300000000
#04012:24
#04014:00240000
#04615:001300000000
#04614:000000000013000000000000
#04613:000013
#04612:000000000000000000000013
#0461b:23
#0461a:00230000
#04619:0023
#04618:00000023
#08316:1212
#08318:00120000
#07913:001400
#07912:000000000014
#07918:24
#07917:0024
#0501a:000000000000000000000014
#05015:230000000013000000000000
#05018:0023
#1151b:000000000013000000000000
#11515:001300000000
#11712:13
#11718:001300000000
#11715:00130000
#1171b:000000000013000000000000
#12118:13
#12115:0013
#03716:00120012
#03718:0012
#0411b:13
#04112:00130000
#04118:0013
#04918:000000000000000000000013
#0491a:00240000
#04912:2424
#0951a:000000000000000000000014
#09512:000000000014000000000000
#09516:2424
#09318:000000000000000000000013
#0931a:12
#09317:00120000
#09314:0012
#0941a:000000000000000000000014
#09415:230000000013000000000000
#09418:0023
#00515:0013
#0051b:000000000000000000000013
#00512:003333000000000000000000
#00618:001300000000
#0061b:000000000013000000000000
#0111b:13
#01118:0013
#01115:00130000
#01112:00000013
#00918:0013
#00912:000000000000000000000013
#0091b:003333000000000000000000
#00910:41
#01015:001300000000
#01012:000000000013000000000000
#01918:1313
#0191b:00130013
#01912:1313
#01915:00130013
#02514:14000014
#0251a:0014
#02412:0014
#02418:00000014
#02312:13
#0231b:0013
#02318:00000013
#02618:13
#02615:0013
#02715:1313
#02712:00130013
#0271b:1313
#02718:00130013
#0291b:13
#02917:00130000
#02915:00000013
#02910:41
#03018:13
#03112:13
#03116:00130000
#03118:00000013
#03215:13
#0351b:13
#03512:13
#03618:13
#03615:13
#04218:00130000
#0421b:00000013
#04212:23
#04215:0023
#04210:41
#04318:001300000000
#0431b:000000000013000000000000
#04312:24
#04314:00240000
#04818:001300000000
#04819:000000000013000000000000
#0481a:000013
#0481b:000000000000000000000013
#04812:23
#04813:00230000
#04814:0023
#04815:00000023
#0541b:13
#05417:0013
#05410:41
#05612:13
#05618:00000013
#05918:00130000
#05915:0013
#05812:13
#05816:0013
#0611a:14
#06114:00140000
#06118:0014
#06112:00000014
#0601b:13
#06015:00000013
#0631b:13
#06315:00130000
#06318:0013
#06312:00000013
#06615:13000013
#06618:001300000000
#0661b:000000000033000000000000
#06812:13000013
#06818:0013
#0681b:000000000000000000000013
#06918:001300000000
#0691b:000000000013000000000000
#06915:2323
#06912:00230000
#06712:13
#06718:00130000
#06715:0013
#0671b:00000013
#07018:13000013
#07015:001300000000
#07012:000000000033000000000000
#0721b:13000013
#07212:000000000000130000000013
#07218:0013
#07215:00000013
#07314:001300000000
#07316:000000000013000000000000
#07317:23
#07319:00230000
#0731b:0023
#0711b:13
#07115:00130000
#07118:0013
#07112:00000013
#07515:00130000
#0751b:0013
#07512:00000013
#0821a:00120012
#08214:0012
#0821f:11
#08914:12
#08917:00120000
#0891a:0012
#08718:1212
#08716:00120000
#08614:00120012
#0861a:1212
#08814:12
#0881a:0012
#09214:0012
#09217:00000012
#0921a:12
#09815:00130000
#09812:00000013
#0981b:23
#09818:0023
#0981f:21
#1041b:13
#10412:0013
#1111a:000000000000000000000014
#11112:000000000014000000000000
#11116:2424
#09915:001300000000
#09912:000000000013000000000000
#0991a:24
#09918:00240000
#09910:41
#1001b:000000000013000000000000
#10018:001300000000
#10012:24
#10014:00240000
#10615:001300000000
#10614:000000000013000000000000
#10613:000013
#10612:000000000000000000000013
#1061b:23
#1061a:00230000
#10619:0023
#10618:00000023
#1101a:000000000000000000000014
#11015:230000000013000000000000
#11018:0023
#10918:000000000000000000000013
#1091a:00240000
#10912:2424
#10218:00130000
#1021b:00000013
#10212:23
#10215:0023
#10318:001300000000
#1031b:000000000013000000000000
#10312:24
#10314:00240000
#10818:001300000000
#10819:000000000013000000000000
#1081a:000013
#1081b:000000000000000000000013
#10812:23
#10813:00230000
#10814:0023
#10815:00000023
#1131b:0013
#11315:000000130000000013000000
#11318:13000013
#11312:000000000000000000000013
#11815:00130000
#11812:000000000000000000000013
#11818:000000000000000000000013
#11915:001300000000
#11912:000000000013000000000000
#1191b:001300000000
#0041a:2424
#00412:00240000
#0521a:00240000
#05216:2424
#05212:00000024
#04512:0024
#04516:00240000
#0451a:24
#04712:00240000
#0471a:2424
#09612:00240000
#09616:2424
#0961a:00000024
#09712:2424
#0971a:00240000
#02815:0023
#02818:00230000
#12212:23
#1121a:00240000
#11216:2424
#11212:00000024
#10512:0024
#10516:00240000
#1051a:24
#10712:00240000
#1071a:2424
#1011b:23
#10115:00230000
#10118:0023
#1141b:23
#07618:23
#11612:23
#11618:00230000
#11615:0023
#1161b:00000023
#1201b:23
#12015:00230000
#12018:0023
#12012:00000023
#00752:13
#00755:0013
#00758:00130000
#0075b:00000013
#00858:000000000063000000000000
#00852:000000000063000000000000
#01258:63
#0125b:00230000
#01255:0053
#01252:00000023
#0445b:53
#04452:0063
#05558:0013
#05555:00130000
#0555b:13
#0155b:53
#01552:0063
#01555:00000053
#0335b:13
#03352:0013
#04552:0014
#04556:00140000
#0455a:14
#04752:00140000
#0475a:1414
#05752:14
#05758:00140000
#05754:0014
#0575a:00000014
#06255:006300000000
#0645b:23
#06558:0053
#0745b:00000063
#07452:53
#07455:00530000
#08059:545454545454
#08058:002400000024000000240000
#0805a:000000240000002400000024
#08153:646464646464
#08154:002400000024000000240000
#08152:000000240000002400000024
#0855a:12
#08557:00120000
#08554:0012
#09154:12
#09157:00120000
#0915a:0012
#09752:3434
#0975a:00440000
#01355:13
#01855:63
#01858:0063
#0345a:14
#03452:0014
#08356:1212
#08358:00120000
#08458:1212
#08456:00120000
#09054:62
#1155b:000000000063000000000000
#1175b:000000000063000000000000
#12158:63
#12155:0053
#0385b:13
#03858:0013
#0395a:14
#03958:00140000
#04052:14
#04054:00140000
#0415b:13
#04152:00130000
#04158:0013
#12252:13
#0045a:1414
#00452:00140000
#00555:0053
#0055b:000000000000000000000053
#00658:005300000000
#0065b:000000000053000000000000
#0115b:13
#01158:0013
#01155:00130000
#01152:00000013
#00958:0063
#00952:000000000000000000000063
#01055:006300000000
#01052:000000000063000000000000
#01652:13
#0165a:0014
#01654:00000014
#01758:14000014
#01752:0014
#02058:13
#02052:13
#01958:5353
#0195b:00530053
#01952:5353
#01955:00530053
#02252:13
#02258:00130000
#02255:0013
#02554:14000014
#0255a:0014
#02452:0014
#02458:00000014
#0245b:13
#02352:63
#0235b:0053
#02358:00000063
#02658:53
#02655:0053
#02755:6363
#02752:00630063
#0275b:6363
#02758:00630063
#02855:13
#0285b:13
#0295b:53
#02957:00230000
#03058:53
#03152:63
#03156:00230000
#03255:63
#0355b:53
#03552:63
#03658:53
#03655:63
#04252:13
#04255:0013
#04352:14
#04354:00140000
#0495a:00140000
#04952:1414
#0545b:53
#05457:0053
#05652:53
#05958:00130000
#05955:0013
#05952:13
#05852:63
#05856:0063
#0615a:14
#06154:00140000
#06158:0014
#06152:00000014
#0605b:63
#06055:00000013
#0635b:13
#06355:00130000
#06358:0013
#06352:00000013
#06658:005300000000
#06852:23
#06752:13
#06758:00130000
#06755:0013
#0675b:00000013
#06955:0063
#07055:006300000000
#0725b:23
#0715b:13
#07155:00130000
#07158:0013
#07152:00000013
#0735b:0053
#07558:13
#07555:00130000
#0755b:0013
#07552:00000013
#08954:12
#08957:00120000
#0895a:0012
#08758:1212
#08756:00120000
#08854:52
#0885a:0052
#0935a:12
#09357:00120000
#09354:0012
#0925a:52
#1045b:53
#10452:0063
#10552:0014
#10556:00140000
#1055a:14
#10752:00140000
#1075a:1414
#0985b:13
#09858:0013
#0995a:14
#09958:00140000
#10052:14
#10054:00140000
#10252:13
#10255:0013
#10352:14
#10354:00140000
#1095a:00140000
#10952:1414
#1015b:13
#10155:00130000
#10158:0013
#1145b:53
#11855:00530000
#11952:000000000053000000000000
#07658:13
#11652:13
#11658:00130000
#11655:0013
#1165b:00000013
#1205b:13
#12058:0013
#12055:00130000
#12052:00000013
#005320:133333000000000023000000
#005350:00333300
#0053b0:000000000000000000000013
#006380:000033000000000000230000
#0063b0:000000000033000000000000
#008380:000000000013000000000000
#0083b0:00000023
#008321:000000000013000000000000
#008351:00000023
#0093b1:133333000000000023000000
#009381:00333300
#009321:000000000000000000000013
#010351:000033000000000000230000
#010321:000000000033000000000000
#012381:1323
#0123b1:00530000
#012350:0013
#012320:00000053
#013350:23
#0153b0:13
#015380:00230000
#015320:0013
#015350:00000033
#016320:23
#018350:13
#018320:00230000
#018380:0013
#0183b0:00000023
#019380:1333
#0193b0:00330033
#020380:23
#019321:1333
#019351:00330033
#020321:23
#023321:13
#023351:00230000
#0233b1:0013
#023381:00000033
#0243b1:23
#026381:13
#0263b1:00230000
#026351:0013
#026321:00000023
#027351:1333
#027321:00330033
#028351:23
#0273b0:1333
#027380:00330033
#0283b0:23
#0293b0:1323
#029370:00530000
#030380:13
#0303b0:0023
#031320:1323
#031360:00530000
#032350:13
#032320:0023
#0353b0:13
#035380:00000023
#035321:13
#035351:00000023
#036381:13
#0363b1:00000023
#036350:13
#036320:00000023
#039370:00001323
#040360:00001323
#043360:00001323
#0443b0:13
#044380:00230000
#044320:0013
#044350:00000023
#0543b0:13
#054370:0033
#0553b0:23
#056320:13
#056350:0023
#058320:13
#058360:0033
#059320:23
#0603b0:13
#060380:0023
#062350:001300000000
#062320:000000000033230000000000
#0643b0:13
#064380:00230000
#065380:0013
#0653b0:00000023
#066380:001300000000
#0663b0:000000000033230000000000
#068320:13
#068350:00230000
#069350:0013
#069320:00000023
#070350:001300000000
#070320:000000000033230000000000
#0723b0:13
#072380:00230000
#0733b0:0013
#073380:00000023
#074320:1323
#074350:00330000
#0743b0:00000013
#075380:23
#080390:145454545454
#080380:005400000054000000540000
#0803a0:000000540000005400000054
#081390:24
#081331:145454545454
#081341:005400000054000000540000
#081321:000000540000005400000054
#082331:24
#088341:12
#088361:00220000
#0883a1:0012
#088381:00000022
#090341:12
#090361:00220000
#0923a1:12
#092381:00220000
#099371:00001323
#100361:00001323
#103361:00001323
#1043b1:13
#104381:00230000
#104321:0013
#104351:00000023
#1143b1:13
#114381:000000000000000000000023
#1153b1:000000000013000000000000
#115381:00000023
#1173b1:000000000013000000000000
#117381:00000023
#118321:130000332300
#118331:003300000000000000000000
#118341:003300000000
#118351:00330000
#119321:000000000013000000000000
#119351:00000023
#121381:13
#1213b1:0023
#121350:0013
#122320:23
