This file was generated by Ched 2.7.0.0.
#TITLE ""
#ARTIST ""
#DESIGNER ""
#DIFFICULTY 0
#PLAYLEVEL
#SONGID ""
#WAVE ""
#WAVEOFFSET 0
#JACKET ""
#REQUEST "ticks_per_beat 480"
#00002: 4
#BPM01: 220
#BPM02: 208
#BPM03: 202
#BPM04: 189
#BPM05: 177
#BPM06: 196
#00008: 01
#08108: 01
#07808: 0203
#07908: 0405
#08008: 06
#TIL00: ""
#VOLUME: ""
#HISPEED 00
#MEASUREHS 00
#00416:14141400
#00412:000000230000000013000000
#00418:00000013
#00415:000000000000000000000013
#0041b:2323
#0051b:1313
#00518:001300000000000000000000
#00515:001300000000
#00512:00130013
#00517:000013
#00516:000000000000000000000013
#0071b:13
#00716:1313
#00717:00130013
#00812:130000000013000000000000
#00818:001300000000
#00815:00160000
#0081b:000000000013000000000000
#00817:000000000000001300000000
#00816:00000013
#01218:00130013
#0121b:130000000000000000000013
#01212:0013
#01215:00130013
#03818:160013000000260000160000
#03812:26161600
#03815:000000000013000013000000
#03816:000000000000000000000014
#03912:1313
#03916:240000001400240000001400240000130000000000000000
#0391a:00000014
#0391b:00130000
#04016:140014140014140000000013
#04012:23002313
#0401a:0000000000140000
#0401b:00230000
#04116:1313
#04117:00130000
#04112:000013
#04115:000000000000000000160013
#0411b:13
#04519:000000251200
#04515:25000016
#04516:000000000000000000000012
#04517:00250000
#04612:260012260000000000000000
#04616:000000000000000012260000
#0461c:000000000000000000000012
#04618:000000000012000000000000
#04614:0026
#04912:260000000012260000000018
#0491c:001200000000
#04918:000000260000000012000000
#04916:00000012
#05016:000000130018130000000000
#05012:230000000000000000000018
#05017:13000013
#0501b:0023
#05112:230000000000000000000018
#05117:13000013
#05116:000000130018130000000000
#0511b:0023
#05318:120000161300
#05315:000000000000000000160013
#05316:00120000
#0541a:14
#05415:00140000
#05412:1614
#05417:00000014
#05410:41
#0551a:14
#05518:00160013
#05516:0018
#05512:000016000014000000000000
#05515:000000000000000013000013
#01315:000000160013000000160000
#0131b:1313
#01318:000000000000000000000013
#01312:0013
#01412:1313
#01418:00130013
#0141b:13
#01512:1313
#01516:0013000000130000
#0151b:00130013
#01517:0000001300000013
#01712:1616
#01715:00000016
#01718:000013
#0171b:000000130000000000000013
#01716:00130000
#01618:0016
#01615:000000000000000013160000
#01612:000000000000000000000013
#01616:13
#01617:00130000
#02017:000013130000000000000000
#02012:000000130000000013130000
#0201b:0013
#02018:000000000000000000000013
#02016:130000000013130000000000
#0211b:13
#02117:0013000000000000
#02112:0013
#02116:0000000000130000
#02115:130000130013000000000000
#02118:000000000000130000130013
#0221b:1313
#02212:130000130000000013000000
#02216:000000000000000000140014
#02312:140000000014140000000014
#0231a:140014140000000014140000
#0281b:00131300
#02818:000000000000000013000013
#02815:00000013
#02817:13
#02816:00230000
#02812:0023
#0291b:13
#02912:000000000013160000000000
#02915:000000000000000013160000
#02916:13
#02918:000000000000000000000013
#02910:41
#03018:16
#03012:00161300
#03017:00000013
#03112:13
#0311b:000000000013000000000000
#03118:000000161300
#03115:000000000000000000160013
#03117:13
#03212:16
#03218:000000160000000000000013
#0321b:0013
#03215:000000000000000013160000
#03315:130000130013000013000000
#03318:000013000000130000130000
#0331b:13
#03312:0013
#0331a:000000000000000000000014
#03416:141400141400
#03412:000000140014140000000000
#0341a:14000014
#03512:160000000012180000000000
#0351c:001200000000
#03516:00180016
#0351a:000012
#03514:000000000000000000000012
#03614:16
#03617:000000000000000012120012
#03618:001200000000
#03616:000000140012140000000000
#05612:14000013
#05617:00140000
#0561a:0014
#05615:00000014
#05618:16
#05716:14141414
#05712:001400001400
#0571a:000000000014000000000000
#05718:000000000000000000000013
#06217:130000000013000000000000
#06212:1318
#06216:000013000000000000130000
#0621b:000013000000000000130000
#06317:130000000013000000000000
#06312:1313
#0631b:00130013
#06316:000013000000000013000014
#06416:001300001300
#0641b:130000000013000000130000
#06418:000000000000000000000013
#06412:1313
#06417:00130000
#06515:001300000000
#06518:000000260013000016000000
#0651b:00000013
#06512:2626
#07016:000013000000000000180000
#07012:130000000000180000000013
#0701b:001300001300
#07017:130000000013000000000000
#07112:180000000013180000000013
#07116:00180018
#0711b:001300001300
#07216:14141414
#07212:000000000000000000000013
#0731b:001300000000
#07312:000000000013000000000000
#07315:26262600
#07416:14
#0741a:1414
#07412:000000140000000013130000
#07417:00000013
#07512:1313
#0751b:00130013
#07515:000016000016000016000016
#07715:000013
#07712:000000000000000000000013
#0771b:0023
#07718:00000023
#0781a:001200000014
#07818:001200
#07814:000012
#07816:000000000012
#07812:2c00142c0000
#0791a:001200000014
#07918:001200
#07914:000012
#07916:000000000012
#07912:2c00142c0000
#08019:141414141414
#08018:001400000014000000140000
#0801a:000000140000001400000014
#08013:14
#08010:41
#08113:141414141414
#08114:001400000014000000140000
#08112:000000140000001400000014
#08118:00130013
#0811b:0013
#0821a:1212
#08218:001200001200
#08216:00120012
#08214:000000000012000000000012
#0821f:11
#08312:000012120000000000120012
#0831c:120000000012120000000000
#08417:120012120012120000000000
#08412:00000012
#08416:000000000000000000000012
#0851c:1212
#08512:00120000
#08516:12001212
#08518:000000120000000000000012
#08717:000000000000000000000012
#0871c:000012120000000000120000
#08712:120000000012120000000000
#0881c:12
#08818:00120000
#08812:0012
#08816:00000012
#08817:120000000000000000000012
#0891c:00120000
#08912:0012
#08917:12121200
#08916:000000000000000000120012
#0901a:1414
#09017:000012000012000012000012
#09012:00140014
#0911a:1414
#09118:000012000000000000120012
#09112:00140000
#09116:000000000012000000000000
#09315:00000013
#09312:1414
#09316:000012000000000000000018
#0931a:00140000
#09318:000000000012000000000000
#11312:0016
#11315:000000000000000013160000
#11318:000000120000000000000013
#11316:12
#11412:130000000000130000000013
#11415:001300000000000000000000
#11416:000000000000000000000014
#1141b:000000130000000013000000
#11418:161300000000
#11512:000000000013000000000000
#1151b:000013000000000000130000
#11516:000014000014000000000000
#11612:1313
#1161b:00130013
#11617:2323
#11616:00230023
#11712:130000000000001300000000
#11718:001300000000
#11715:00160000
#1171b:000000000013000000000000
#11717:000000000000001300000000
#11716:000000000013000000000000
#0011c:000000000000000012120000
#00112:26230013
#0011b:23
#00118:00260000
#0021a:120000120000000012120000
#00212:00130013
#00318:120000120000000012120000
#00312:00130013
#03717:00121212
#0241b:000000130000000000000013
#02412:1416
#02416:00130000
#02415:00000016
#02418:000013
#1211b:13002313
#12116:23130000
#12112:00131300
#12117:00000013
#0061b:1313
#00617:001300000000
#00612:00130013
#00616:000000000013000000000000
#00918:161300000000
#00912:1313
#00915:001300000000000000000000
#0091b:00130013
#00916:000013
#00917:000000000000000000000013
#00910:41
#01112:13
#01117:1313
#01116:00130013
#01012:1313
#01016:001300000000
#0101b:00130013
#01017:000000000013000000000000
#01818:16
#01812:0016
#0191b:1300000000130000
#01917:0013000013000000
#01916:1300000000130000
#01912:0013000013000000
#02518:1616
#02515:000000000000000013160000
#02512:000000130000000000000013
#02517:00130000
#02612:16
#02618:0016
#02712:1300000000130000
#02716:0013000013000000
#02717:1300000000130000
#0271b:0013000013000000
#04215:001300000000
#04218:260000160013160013000000
#04212:16002616
#04216:000000000000000000000014
#04210:41
#0431b:1313
#04317:0000000000130000
#04312:00130014
#04316:240014240014240000000014
#04412:14141400
#0441a:14001414
#04712:000012260000000000000000
#0471c:000000000012000000000000
#04715:000000000000000012160000
#04718:260000000000260000000012
#0481c:001200000000
#04818:260000260000000012000000
#04812:000000000000000000000012
#04816:000000000012260000000000
#04814:00000026
#05812:14
#05817:00140000
#0581a:0014
#05815:00000014
#05818:16
#05912:14161800
#05918:000016000000000013000013
#0591a:000000000014000000000000
#05915:00000013
#0601a:14
#06015:00140000
#06012:1614
#06017:00000014
#0601b:00000013
#06116:14141414
#0611a:001400001400
#06112:000000000014000000000000
#06616:130000000013180000000000
#0661b:13
#06617:000013000000000000130000
#06612:000013000000000000130000
#06716:130000000013000000000014
#0671b:1313
#06712:00130013
#06717:001300001300
#06817:001300001300
#06812:130000000013000000130000
#06815:000000000000000000000013
#0681b:1313
#06816:00130000
#06918:261300260000
#06915:000000000013000000000000
#06912:000000260000000016130000
#08614:1212
#08616:001200001200
#08618:00120012
#0861a:000000000012000000000012
#09212:1414
#09217:000012000012000012000012
#0921a:00140014
#09412:000000000018230000000000
#09416:130000000000000000130018
#09417:00131300
#0941b:23
#09516:130000000000000000130018
#09512:000000000018230000000000
#09517:00131300
#0951b:23
#09815:001300000000
#09818:260000160013160013000000
#09812:16002616
#09816:000000000000000000000014
#0981f:21
#0991b:1313
#09917:0000000000130000
#09912:00130014
#09916:240014240014240000000000
#09910:41
#10016:140014140014140000000000
#1001b:23002313
#10017:000000000000000000000013
#10012:0000230000140000
#10117:1313
#10116:00130000
#1011b:000013
#10115:00000016
#10118:000000000000000000000013
#10112:13
#10515:000000000000000012160000
#10518:000000000000000000000012
#10512:0025
#10514:00250000
#10516:25
#1061c:001200000000
#10618:260000260000000012000000
#10612:000000000000000000000012
#10616:000000000012260000000000
#10614:00000026
#10916:000000000000000012000018
#10912:000012260000000000000000
#1091c:000000000012000000000000
#10918:26002612
#11012:000000000018230000000000
#11016:130000000000000000130018
#11017:00131300
#1101b:23
#11116:130000000000000000130018
#11112:000000000018230000000000
#11117:00131300
#1111b:23
#10218:160013000000260000160000
#10212:26161600
#10215:000000000013000013000000
#10216:000000000000000000000014
#10312:1313
#10316:240000001400240000001400240000130000000000001400
#1031a:00000014
#1031b:00130000
#1041a:14141400
#10412:14001414
#1071c:001200000000
#10712:260000000012260000000000
#10715:00000016
#10719:000012
#10716:000000000000000000000012
#10718:00260000
#10812:260012260000000000000000
#10816:000000000000000012260000
#1081c:000000000000000000000012
#10818:000000000012000000000000
#10814:0026
#1181b:130000000000130000000013
#11818:001300000000000000000000
#11816:000000000000000000000014
#11812:160000130000000013000000
#11815:001300000000
#1191b:000000000013000000000000
#11912:000013000000000000130000
#11916:000014000014000000000000
#1201b:1313
#12012:00130013
#12016:2323
#12017:00230023
#05212:2323
#05216:00230023
#0521b:00230023
#05217:2323
#09614:00230023
#09612:0023
#09619:00230023
#09617:0023
#0961b:23
#09616:23
#0971a:2424
#09712:00240000
#09716:24242400
#07612:2c
#1121b:2323
#11217:00230023
#11212:00230023
#11216:2323
#12212:23
#1221b:23
#0045b:4343
#00452:00330000
#00552:00530000
#00756:5353
#00757:00530053
#0075b:1313
#00752:00130013
#0085b:000000000063000000000000
#00857:000000000000002300000000
#0125b:5343
#01258:00230000
#01252:1353
#01255:00000023
#03956:4400340044230000
#03952:0063
#04157:00630000
#04156:63
#0415b:1313
#04152:00130000
#0545a:54
#05455:00240000
#05452:0064
#05457:00000024
#05556:0018
#05558:00160000
#0555a:14
#01552:5353
#01556:0023000000230000
#0155b:00630063
#01557:0000002300000023
#01656:53
#0165b:43
#01658:0046
#01655:00000046
#0205b:1363
#02052:00130000
#0215b:63
#02157:0023000000000000
#02152:0053
#02156:0000000000230000
#0225b:6343
#02252:33530000
#02256:0033
#02257:00430000
#02352:5454
#0235a:00540054
#0295b:63
#02956:63
#03058:56
#03052:00260000
#03152:53
#03157:53
#03252:66
#03258:00260000
#03355:13
#03358:0013
#03456:1414
#05652:64
#05657:00240000
#0565a:0054
#05655:00000024
#06256:005300000000
#06352:3333
#0635b:00430043
#06456:002300002300
#0645b:000000000023000000000000
#06452:5353
#06457:00530000
#06558:000026
#06552:0056
#07152:4848
#07156:00380038
#07256:24242400
#07355:16160000
#07452:00640000
#0745a:54
#07457:00000053
#07552:3333
#0755b:00430043
#08059:545454545454
#08058:002400000024000000240000
#0805a:000000240000002400000024
#08153:646464646464
#08154:002400000024000000240000
#08152:000000240000002400000024
#0835c:5252
#08352:00520000
#08457:52525200
#0855c:1212
#08552:00120000
#0885c:52
#08858:00220000
#08852:0062
#08856:00000022
#05056:0063
#05057:53
#05157:53
#05156:0063
#0975a:4444
#09752:00340000
#11552:000000000053000000000000
#11556:000034000044000000000000
#1155b:00000043
#11557:00000033
#11652:5353
#1165b:00530053
#11657:1313
#11656:00130013
#11757:000000000000002300000000
#11756:000000000053000000000000
#11752:000000000000002300000000
#1175b:000000000053000000000000
#0015b:13
#00152:00130000
#01452:5353
#01458:00530053
#12156:33230000
#12152:0053
#12157:00000023
#1215b:5343
#01352:33
#0135b:0043
#0065b:0053
#0095b:00630000
#01152:1313
#01157:6363
#01156:00630063
#0115b:00130013
#01052:0063
#01752:4636
#01755:00000036
#01858:56000016
#01852:00166600
#0195b:5300000000230000
#01957:0023000053000000
#01956:5300000000230000
#01952:0023000053000000
#02456:44
#02452:0036
#02455:00000036
#02558:3646
#02555:00000046
#02652:66000016
#02658:00165600
#02752:6300000000230000
#02756:0023000063000000
#02757:6300000000230000
#0275b:0023000063000000
#02852:13
#03852:16
#03858:0016
#04052:3333
#0405b:00430000
#04056:0054
#0405a:0000000000240000
#0435b:0053
#04357:0000000000230000
#04356:34443400
#04258:16
#04252:0016
#04452:3464
#0445a:5444
#04555:45
#04557:00450000
#04559:0045
#04758:3636
#04752:00460000
#04952:4646
#04958:00360000
#05358:12
#05356:00120000
#05756:34443444
#05852:64
#05857:00240000
#0585a:0054
#05855:00000024
#05952:14161800
#0605a:54
#06055:00240000
#06052:0064
#06057:00000024
#06156:44344434
#06657:006300000000
#0675b:4343
#06752:00330033
#06857:002300002300
#06852:000000000023000000000000
#0685b:6363
#06856:00630000
#06952:000026
#06958:0066
#07652:3c
#0875c:00620000
#08752:6262
#08952:3232
#0895c:00420000
#0915a:4444
#09152:00340000
#09352:3434
#0935a:00440000
#09457:0053
#09456:63
#09556:63
#09557:0053
#0995b:0053
#09957:0000000000230000
#09956:34443400
#10157:53
#10156:00530000
#10152:1313
#1015b:00130000
#11057:0053
#11056:63
#11156:63
#11157:0053
#10056:0064
#10052:0000330000240000
#1005b:4343
#10352:0063
#10356:4400340044230000
#1045a:4454
#10452:6434
#11356:12
#11358:00120000
#10552:0035
#10554:00350000
#10556:35
#10752:4646
#10758:00360000
#09858:16
#09852:0016
#10252:16
#10258:0016
#10958:3636
#10952:00460000
#1145b:00530000
#11452:0053
#11456:000000000000000000000044
#1195b:000000000063000000000000
#11952:00000033
#11956:000044000034000000430000
#1205b:6363
#12052:00630063
#12056:1313
#12057:00130013
#11856:000000000000000000000034
#1185b:0063
#11852:00630000
#12252:33
#1225b:43
#07056:005300000000
#005320:00130000
#005370:0023
#0063b0:0013
#006360:00000023
#007360:13
#007320:005300230000000000000000
#007371:00130000
#0073b1:000053230000
#007360:0013
#007320:000000000000005300230000
#007371:00000013
#0073b1:000000000053
#0083b1:23
#0083b1:000000000013000000230000
#008371:000000000000005300000000
#0093b1:00130000
#009361:0023
#010321:0013
#010371:00000023
#011371:13
#0113b1:005300230000000000000000
#011360:00130000
#011320:000053230000
#011371:0013
#0113b1:000000000000005300230000
#011360:00000013
#011320:000000000053
#012320:23
#0123b1:1323
#012381:00530000
#012320:0013
#012350:00000053
#013320:23
#014320:13
#014350:00230000
#014381:00130000
#0143b1:0023
#014320:0013
#014350:00000023
#014381:00000013
#0153b1:23
#015320:13230000
#015360:0053000000000000
#0153b1:00132300
#015371:0000005300000000
#015320:00001323
#015360:0000000000530000
#0153b1:00000013
#015371:0000000000000053
#0163b1:23
#016360:13
#016320:00230000
#018380:16
#018320:00260000
#018320:0016
#018380:00000026
#0193b0:1300330000530000
#019370:0053000033003300
#0203b0:23
#019361:13230000
#019321:0053000000000000
#019321:00001323
#019361:0000000000530000
#0203b0:0013
#020370:00000023
#0213b0:13230000
#021370:0053000000000000
#021320:00001323
#021360:0000000000530000
#0223b0:13
#022370:005333230000000000000000
#022321:00130000
#022361:000000005333230000000000
#023321:14
#023361:005434240000000000000000
#0233a0:00140000
#023360:000000005434240000000000
#023321:0014
#023361:000000000000005434240000
#0233a0:00000014
#023360:000000000000000000005434
#024360:24
#026320:16
#026380:00260000
#026380:0016
#026320:00000026
#027320:1300330000530000
#027360:0053000033003300
#028320:23
#027371:13230000
#0273b1:0053000000000000
#0273b1:00001323
#027371:0000000000530000
#0293b0:13
#029370:00230000
#029361:13
#029321:00230000
#030381:1626
#030321:00560000
#031321:13
#031361:00230000
#031370:13
#0313b0:00230000
#032320:1626
#032380:00560000
#039320:00001323
#039360:0000000000530000
#040360:00001424
#0403a0:0000000000540000
#041360:13
#041320:00230000
#041371:00130000
#0413b1:0023
#0433b1:00001323
#043371:0000000000530000
#0443a1:14
#044361:005400240000000000000000
#044321:0014
#044361:000000000000005400240000
#044321:000000000000000000000013
#045321:23
#045341:000013230000000000000000
#045361:000000000013230000000000
#050371:13
#0503b1:00230000
#050361:0013
#050321:00000023
#051371:13
#0513b1:00230000
#051361:0013
#051321:00000023
#0543a1:1424
#054351:00540000
#054320:0014
#054370:00000054
#055320:24
#056320:1424
#056370:00540000
#0563a1:0014
#056351:00000054
#0573a1:24
#058321:1424
#058371:00540000
#0583a0:0014
#058350:00000054
#0593a0:24
#0603a0:1424
#060350:00540000
#060321:0014
#060371:00000054
#061321:24
#062361:001300000000
#062321:000000530023000000000000
#064321:13230000
#064361:005353000000000000000000
#064370:00132300
#0643b0:000000005353000000000000
#064321:00001323
#064361:000000000000005353000000
#065321:00001626
#065381:000000000000005656000000
#066371:001300000000
#0663b1:000000530023000000000000
#0683b1:13230000
#068371:005353000000000000000000
#068360:00132300
#068320:000000005353000000000000
#0683b1:00001323
#068371:000000000000005353000000
#069381:00001626
#069321:000000000000005656000000
#070361:001300000000
#070321:000000530023000000000000
#072361:14
#0723a1:00240000
#072360:00140000
#072320:0024
#072361:0014
#0723a1:00000024
#073351:00001626
#0743a1:14
#074361:00240000
#074320:00140000
#074360:0024
#074370:00000013
#0753b0:23
#080390:145454545454
#080380:005400000054000000540000
#0803a0:000000540000005400000054
#081390:24
#081331:145454545454
#081341:005400000054000000540000
#081321:000000540000005400000054
#082331:24
#0833c1:12
#083371:00220000
#083320:00120000
#083370:0022
#0833c1:0012
#083371:00000022
#084371:12
#0843c1:00220000
#084370:00120000
#084320:0022
#084371:0012
#0843c1:00000022
#087321:12
#087371:00220000
#0873c0:00120000
#087370:0022
#087321:0012
#087371:00000022
#0883c1:1222
#088381:00520000
#088320:0012
#088360:00000052
#089320:22
#094360:13
#094320:00230000
#094370:0013
#0943b0:00000023
#095360:13
#095320:00230000
#095370:0013
#0953b0:00000023
#0993b0:00001323
#099370:0000000000530000
#100360:00001424
#100320:0000000000540000
#101370:13
#1013b0:00230000
#101361:00130000
#101321:0023
#103321:00001323
#103361:0000000000530000
#104321:14
#104361:005400240000000000000000
#1043a1:0014
#104361:000000000000005400240000
#1043b1:000000000000000000000013
#1053b1:23
#105391:000013230000000000000000
#105371:000000000013230000000000
#110361:13
#110321:00230000
#110371:0013
#1103b1:00000023
#111361:13
#111321:00230000
#111371:0013
#1113b1:00000023
#1143b1:00130000
#114371:000053230000
#114320:0013
#114360:000023
#115320:000000000013000000000000
#115370:00005323
#116320:13
#116360:005300230000000000000000
#1163b1:00130000
#116371:000053230000
#116320:0013
#116360:000000000000005300230000
#1163b1:00000013
#116371:000000000053
#117371:23
#1173b1:000000000013000000230000
#117371:000000000000005300000000
#117360:000000000013000000230000
#117320:000000000000005300000000
#118320:00130000
#118360:000053230000
#1183b1:0013
#118371:000023
#1193b1:000000000013000000000000
#119361:00005323
#1203b1:13
#120371:005300230000000000000000
#120320:00130000
#120360:000053230000
#1203b1:0013
#120371:000000000000005300230000
#120320:00000013
#120360:000000000053
#121360:23
#1213b1:1323
#121361:00530000
#121320:0013
#121370:00000053
#122320:23
