This file was generated by Ched 2.7.0.0.
#TITLE ""
#ARTIST ""
#DESIGNER ""
#DIFFICULTY 0
#PLAYLEVEL
#SONGID ""
#WAVE ""
#WAVEOFFSET 0
#JACKET ""
#REQUEST "ticks_per_beat 480"
#00002: 4
#BPM01: 220
#BPM02: 208
#BPM03: 202
#BPM04: 189
#BPM05: 177
#BPM06: 196
#00008: 01
#08108: 01
#07808: 0203
#07908: 0405
#08008: 06
#TIL00: ""
#VOLUME: ""
#HISPEED 00
#MEASUREHS 00
#00115:00000013
#0011a:24
#00218:00130000
#00215:00000013
#00318:00130000
#00315:00000013
#00512:14
#00518:0014
#00614:14
#0061a:0014
#0091a:14
#00914:0014
#00910:41
#01018:14
#01012:0014
#01314:0014
#01418:14
#01412:0014
#01518:14
#01514:0014
#0161a:14
#01612:0014
#01712:14
#01718:0014
#01818:1414
#01914:1414
#0201a:14
#02118:0014
#02112:14
#02214:14
#0221a:0014
#02314:14
#02318:0014
#02412:14
#0241a:0014
#0251a:14
#02514:0014
#02614:1414
#02718:1414
#02812:14
#03918:1414
#03914:00140000
#04014:1414
#04018:00140000
#04118:14
#04114:00140000
#0411a:0014
#04314:1414
#04318:00140000
#04418:1414
#04414:00140000
#04514:14
#04518:00140000
#04512:0014
#0541a:14
#05410:41
#05517:14
#0561a:14
#05812:14
#05915:14
#06012:14
#0621a:14
#06214:0014
#06318:14
#06312:0014
#0641a:14
#06414:0014
#06518:14142400
#06612:14
#06618:0014
#06714:14
#0671a:0014
#06812:14
#06818:0014
#06914:14142400
#0701a:14
#07014:0014
#07118:14
#07112:0014
#0721a:14
#07214:0014
#07318:14142400
#07412:14
#07418:0014
#07514:14
#0751a:0014
#08214:0014
#0821f:11
#08318:14
#08312:0014
#08418:14
#08414:0014
#0851a:1414
#08512:0014
#08612:14
#08618:0014
#08714:14
#0871a:0014
#08814:14
#08818:0014
#08912:1414
#0891a:0014
#09914:1414
#0991a:00140000
#09910:41
#10018:1414
#10012:00140000
#10114:14
#10118:00140000
#10112:0014
#10318:1414
#10312:00140000
#10414:1414
#1041a:00140000
#10518:14
#10514:00140000
#1051a:0014
#11412:14
#11418:0014
#11514:14
#1151a:0014
#1181a:14
#11814:0014
#11918:14
#11912:0014
#12018:14
#12014:0014
#00419:2424
#00413:00240000
#0381a:24
#03814:0024
#04212:24
#04218:0024
#04210:41
#05018:24
#05014:0024
#05118:24
#05114:0024
#05219:2424
#05213:00240024
#07612:24
#09418:24
#09414:0024
#09518:24
#09514:0024
#0961a:24
#09614:00240000
#09618:0024
#09612:00000024
#09718:24
#09714:00240000
#0971a:0024
#09812:24
#09818:0024
#0981f:21
#1021a:24
#10214:0024
#11014:24
#11018:0024
#11114:24
#11118:0024
#11213:2424
#11219:00240024
#12119:24
#00714:00343400
#00812:00343400
#01118:00343400
#0121a:00343400
#11614:00343400
#11712:00343400
#02910:41
#08010:41
#0135a:14
#0205a:14
#02852:14
#0415a:0014
#04552:0014
#0475a:0014
#04952:0014
#0545a:54
#05557:54
#0565a:54
#05852:64
#05955:64
#06052:64
#09852:14
#09858:0014
#10152:0014
#1055a:0014
#1025a:14
#10254:0014
#10752:0014
#1095a:0014
#12259:14
#007320:14
#007340:00343434
#008340:34
#008320:00343424
#0113a0:14
#011380:00343434
#012380:34
#0123a0:00343434
#0133a0:24
#0293a0:14
#030380:24
#031320:14
#032340:24
#033380:14
#0343a0:24
#035340:14
#036320:34
#037320:24
#0463a0:14
#046380:0034
#0473a0:34342400
#048320:14
#048340:0034
#049320:34342400
#0543a0:14
#055370:34
#0563a0:34
#057370:24
#058320:14
#059350:34
#060320:34
#061350:24
#0783a0:14
#078380:0034
#0793a0:34
#079380:0034
#0803a0:34
#0813a0:34
#0823a0:24
#0903a0:14
#090380:0034
#091380:34
#0913a0:0024
#092320:14
#092340:0034
#093340:34
#093320:0024
#106320:14
#106340:0034
#107320:34342400
#1083a0:14
#108380:0034
#1093a0:34342400
#116320:14
#116340:00343434
#117340:34
#117320:00343424
#121390:1434
#122390:24
