This file was generated by Ched 2.7.0.0.
#TITLE ""
#ARTIST ""
#DESIGNER ""
#DIFFICULTY 0
#PLAYLEVEL
#SONGID ""
#WAVE ""
#WAVEOFFSET 0
#JACKET ""
#REQUEST "ticks_per_beat 480"
#00002: 4
#BPM01: 128
#00008: 01
#TIL00: ""
#VOLUME: ""
#HISPEED 00
#MEASUREHS 00
#00612:14
#00718:14
#00814:14
#0091a:14
#01012:14
#01010:41
#01118:14
#0141a:14
#01514:14
#02612:14
#02718:14
#02710:41
#02814:14
#0291a:14
#03012:14
#03318:0016
#03312:26
#03412:16
#03418:0016
#03618:16
#03612:0016
#03712:0016
#03718:26
#03818:16
#03812:0016
#04012:16
#0411a:14
#04114:0014
#0421a:14
#04312:14
#04318:0014
#04814:14
#04810:41
#04918:14
#05012:14
#0511a:14
#05214:14
#05318:14
#05412:14
#0551a:14
#06612:0016
#06618:26
#0661f:21
#06718:16
#06712:0016
#06710:41
#06912:16
#06918:0016
#07018:0016
#07012:26
#07112:16
#07118:0016
#07318:16
#07412:14
#07418:0014
#07512:14
#0761a:14
#07614:0014
#0581f:11
#00519:0024
#02019:24
#02113:24
#02413:24
#02519:24
#05614:24
#05618:0024
#08018:00000024
#01910:41
#03510:41
#002390:14
#003390:24
#004330:14
#005330:24
#012320:14
#013320:24
#0163a0:14
#0173a0:24
#018320:14
#019320:24
#0223a0:14
#0233a0:24
#031380:14
#032380:24
#035320:1626
#039380:1626
#044320:14
#045320:24
#046380:14
#047380:24
#058320:14
#059320:24
#060380:14
#061380:24
#062340:14
#063340:34
#064340:34
#065340:24
#068380:1626
#072320:1626
#0773a0:14
#0783a0:24
#079340:14
#080340:24
