This file was generated by Ched 2.7.0.0.
#TITLE ""
#ARTIST ""
#DESIGNER ""
#DIFFICULTY 0
#PLAYLEVEL
#SONGID ""
#WAVE ""
#WAVEOFFSET 0
#JACKET ""
#REQUEST "ticks_per_beat 480"
#00002: 4
#BPM01: 128
#00008: 01
#TIL00: ""
#VOLUME: ""
#HISPEED 00
#MEASUREHS 00
#00517:0000000000121200
#0071b:00130000000013000000001300000000
#00718:00000013000000000013000000000000
#00715:0000130000130000
#00712:00130000000000001300000000001300
#00917:00120000120000120000000000000000
#00915:12000012000012000000000000000000
#00919:00001200001200002200000000000000
#0101b:0013000000130000
#01018:00130000
#01015:0000001300000000
#01012:00000000000000001300000000000013
#01016:00000000000000000000001300000000
#01017:0000000000000013
#01010:41
#01117:13000000000000130000000000000000
#01119:0013000000000000
#0111b:00130000
#01112:0000001300000000
#01116:0000130000130000
#01118:00000013
#01115:0000000000000013
#01212:13000000000000130000000000001300
#01215:0013000000000000
#01218:00130000
#0121b:0000001300130000
#01219:00000013
#01217:0000000000000013
#01214:00000013
#0131b:13000000000013000013000000000000
#01317:00001313000000000000000000000000
#01316:13000000001313000000000000000000
#01312:00000013000000000013000000000000
#01612:00000000000013000000131300000000
#01618:0013000000000013
#01615:00000000130000000000000000000013
#0161b:1313
#01718:1300001300000000
#01712:00001300000000130000000000001300
#01715:00130000
#0171b:0000000000130000
#01719:00000013
#01717:0000000000000013
#01716:0000000000130000
#01819:13
#0181b:0013000000130000
#01812:0000001300000013
#01814:00001313
#01816:0000000000130000
#01817:0000001300000000
#0211b:0000000013000013
#02118:00000000001313130000000000000000
#02115:0000000000000000000000130013001300000000000000000000000000000000
#02117:0000000000130000
#02112:24002400000000000000001300000000
#02116:00000000000000000000000000130000
#0211a:2424000000000000
#02212:13000000000000000000131300000000
#02215:0013000000000000
#02218:00131300
#0221b:00000000000013000000131300000000
#0251a:2424000000000014
#02512:24002400002300000000000000000000
#0251b:00000000002300000000000000000000
#02616:14
#02612:00001400000000130000000000000000
#02618:00130000
#02615:00000000001300000000000000000000
#0261b:00000000000000130000000000000000
#0271a:1414
#02718:0014001400000000
#02716:00000000140000000000141400000000
#02712:1313131313131313
#02710:41
#0291b:23002300002300000000000000130000
#02915:00000000000000230000000000001300
#02918:00000000000000002600000000000013
#02912:23002300002300000000002600000000
#03012:13130013
#0301b:0013001300001300
#03017:00130000
#03018:0000000000130000
#03015:0000000000000000000000000000000000000000001300000000000000001300
#03016:0013001300000000
#03217:13
#0321b:0013000000000000
#03218:00000000001300000000000000000000
#03215:00130000
#03216:0013000000000000
#03212:0000000000240000
#0321a:0000000000240000
#03319:0013000000000000
#03317:00000000130000000000001300000000
#03318:0000001300000000
#03315:00000000000000130000000000000000
#0331b:2313
#03312:00000000130000000000001300000000
#03314:0013000000000000
#03316:23
#03516:13
#03517:0000130000000013
#03512:0000130000000013
#0351b:13
#03510:41
#0361b:00001300000013130000000013000000
#03617:00000000130000000013000000000000
#03619:0000000000000013
#03612:00000000130000000013000000000000
#03616:0000000000000000000000001300000000000000000000000013000000000000
#03719:0013000000000000
#0371b:0000000000000000130000000000000000000013000000000000000000000000
#03718:00000000000013001300001300000000
#03715:00000000000000130000001300000000
#03714:0013000000000000
#03716:00130000
#03717:23
#04012:00130000001300000000002300000000
#04018:0013000000000000
#04015:00000013000000000000000000000000
#0401b:00000000130000130000000000002300
#04014:00000000000000000013000000000000
#04017:00000000000000000000001300000000
#04016:00000000000000230000000000001300
#04019:00000000000000000023000000000000
#04112:130000000000000000000024
#04118:0013000000000000
#04115:00000013000000000000000000000000
#0411b:0000001313000000
#04119:0000000000130000
#04114:0000000000130000
#0411a:00000024
#04116:000000000024
#04212:00002300000000000013000000000000
#04216:00230013
#04219:0000000000000013
#04217:00002300000000000013000000000000
#04214:0000000000000013
#0421a:24
#0421b:00230000
#04317:13000000000013130000000013000000
#04319:0013000000000000
#0431b:00130000
#04312:13000013
#04314:0013000000000000
#04316:00130000
#0441c:00000012000000000000120000000000
#04412:0012000012000000
#04414:00120000
#0441a:00000000001200000000000000000000
#04416:00000000000012000000001200001200
#04418:00000000000000120000000000120000
#0451a:12120000
#04514:00120000001200000000000000000000
#04512:00000012000000000000120000000000
#0451c:0012000012000000
#04518:00000000000012000000001200001200
#04516:00000000000000120000000000120000
#04612:12000000000000001200000000130000
#04618:00120000000000000000001200000000
#04614:0012001200000000
#0461a:00000012000000120000000000000000
#04616:00120000
#0461c:00000000001200000000000000000000
#04615:00000000000000000000000000000013
#0461b:00000000000000000000000000130000
#04715:13
#0471b:0013000000000000
#04712:0013250000240000
#0471a:0000000000240000
#04718:00250000
#04818:13
#04812:000000130000000000130000000013000000000000333333
#04815:00130000
#0481b:0013001313000000
#04817:000000000000000000000000000000130000000013000000
#04816:000000000000000000000000000000000013000000000000
#04810:41
#0491b:130000000000000013130000000000000000000000000000
#04917:000000000013000000000013000000000000000000000000
#04912:000000130013000000000013000000130000000000000000
#04918:000000000000000000000000000000000013000000130013
#04915:000000000000000000131300
#05114:0013000000000000
#05119:001300000000000000000000
#05117:000000000013000000000013000000000000000000000000
#05112:000000000000000000000013000000000000000000000000
#0511b:000000000013
#05115:0000000000000013
#05118:000000000000000000000000000000000000000000000013
#05116:13
#05216:0013001300000000
#05215:0000000000130000
#05218:000000000000001300000000
#0521b:000000130000130000130000130000000013000000000000
#05217:000000000013
#05212:230000000000230000000000230000000000000000333333
#0531b:130000000013000000000023000000000000230000000000
#05318:001300
#05315:0000001300000000
#05317:000000000000001300001300
#05316:000000000013000000000000000000000013000000000013
#05312:000000130000000000000023000000230000000000230000
#05517:000000000000001300000000
#05518:000000000013000000130000000000000013000000000000
#05515:000000131300000000130000
#0551b:000013000000000000000023000000000000000000000000
#05512:130000000000001300000000
#05516:000013000000000000000023000000000000000000000000
#0611b:00230000002300000000000000130000
#06118:00000023000000002300230000000013
#06115:00002300230000000023000000001300
#06112:00000000000000230000002300000000
#06212:14000000000013000000000000000016
#06218:0014000000000000
#06216:0013
#0621a:0000000000140000
#06214:00000000000000000000001400000000
#06217:0000001300000000
#0621b:0013
#06312:00001600001400000000000013000000
#06318:0000000000000000000000001400000000000000001300000000000000001300
#06314:00000000000000140000000000000000
#0631a:0014
#06315:0000000000130000
#0631b:00000013
#07812:00130000000013000000000000000000
#07818:00000013000000001300130000000000
#07815:00000000130000000013001300000000
#0781b:00130000000013000000000000001300
#08015:12000000000000120000000000000000
#08017:00120000001200000000000000000000
#08019:0012001222000000
#08012:00000022
#0061b:0013
#00618:00000000000000000000001300000000
#00615:0013
#00612:00000000000000000000001300000000
#00812:0013
#00815:00000000000000000000001300000000
#00818:0013
#0081b:00000000000000000000001300000000
#01412:0013000000130000
#01415:00130000
#01418:0000001300000000
#0141b:00000000000000001300000000000013
#01417:00000000000000000000001300000000
#01416:0000000000000013
#01516:1313
#01514:0013001300000000
#01512:00130000
#0151b:0013
#01518:0000000000000013
#01517:00130000
#01515:00000000000000000000000000000013
#0191b:0000000000130000
#01916:00000000000000000000001300000000
#01912:24002400000000001300000000130000
#01917:0000000000000013
#0191a:2424000000000000
#01910:41
#02016:0000001414141414
#0201a:2424001400140014
#02012:2424000014001400
#02312:24002400001300000000001300000000
#02318:00000000000013000000130000131300
#02315:00000000000000130013000000000000
#0231b:0013
#0231a:2424000000000000
#0311b:0013001300130013
#03414:0013000000000000
#03416:00000000130000000000001300000000
#03415:0000001300000000
#03418:00000000000000130000000000000000
#03412:2313
#0341b:00000000130000000000001300000000
#03419:0013000000000000
#03417:23
#03814:0013000000000000
#03812:0000000000000000130000001300000000000013000000000000000000000000
#03815:00000000000000001333331300000000
#03819:0013000000000000
#03817:00130000
#03818:00000000000000001300001300000000
#0381b:2300001300000000
#03816:23
#03912:13
#0391b:0000232323000000
#03917:23
#03919:0023000000000000
#05015:13
#0501b:000000130000000000130000000013000000000000333333
#05018:00130000
#05012:000000130000000000130000130000000000000013000000
#05016:0000000000130000
#05017:000000000000000000000000000000000013000000000000
#05417:0013001300000000
#05418:0000000000130000
#05415:000000000000001300000000
#05412:000000130000130000130000130000000013000000000000
#05416:000000000013
#0541b:230000000000230000000000230000000000000000333333
#05612:0000000000000000000000000000000022150000000000000000000000000000
#05619:0000000000000000000000000000000022150000000000000000000000000000
#05618:0000000000000000000013160000000000000000000000000000000000000000
#0571c:1212121200000000
#05712:0022
#05718:0022
#05818:0012001200000000
#0581c:0000000000120012
#05812:12120000
#05816:00001212
#0581f:11
#05918:0012001200000000
#0591c:0000000000120012
#05912:12120000
#05916:00001212
#06018:0012001200000000
#0601c:0000000000120012
#06012:12120000
#06016:0000000012001212
#06516:13
#06512:0013000000240000
#06517:0013000000000000
#06518:0000131300000000
#06515:00000000001300130000000000000000
#0651a:0000000000240000
#06614:0013000000000000
#06616:00000000130000000000001300000000
#06615:0000001300000000
#06618:00000000000000130000000000000000
#06612:2313
#0661b:00000000130000000000001300000000
#06619:0013000000000000
#06617:23
#0661f:21
#06817:13
#06816:0000130000000013
#0681b:0000130000000013
#06812:13
#06912:00001300000013130000000013000000
#06916:00000000130000000013000000000000
#06914:0000000000000013
#0691b:00000000130000000013000000000000
#06917:0000000000000000000000001300000000000000000000000013000000000000
#07014:0013000000000000
#07012:0000000000000000130000000000000000000013000000000000000000000000
#07015:00000000000013001300001300000000
#07018:00000000000000130000001300000000
#07019:0013000000000000
#07017:00130000
#07016:23
#0731b:00001300000000000000002300000000
#07315:00000013000000000000000000000000
#07318:00130000
#07312:00000000001300130000000000002300
#07319:00000000000000000013000000000000
#07316:00000000000000000000001300000000
#07317:00000000000000230000000000001300
#07314:00000000000000000023000000000000
#0741b:13
#07415:0013000000000000
#07418:00000013000000000000000000000000
#07412:0000001313002400
#07414:0000000000130000
#07419:0000000000130000
#07416:000000000024
#0741a:000000000000000000000024
#0751b:00002300000000000013000000000000
#07517:00230013
#07514:0000000000000013
#07516:00002300000000000013000000000000
#07519:0000000000000013
#07512:24230000
#07616:13000000000013130000000013000000
#07614:0013000000000000
#07612:00130000
#0761b:13000013
#07619:0013000000000000
#07617:00130000
#06412:0013001300130013
#06719:0013000000000000
#06717:00000000130000000000001300000000
#06718:0000001300000000
#06715:00000000000000130000000000000000
#0671b:2313
#06712:00000000130000000000001300000000
#06714:0013000000000000
#06716:23
#06710:41
#07119:0013000000000000
#0711b:0000000000000000130000001300000000000013000000000000000000000000
#07118:00000000000000001333331300000000
#07114:0013000000000000
#07116:00130000
#07115:00000000000000001300001300000000
#07112:2300001300000000
#07117:23
#0721b:13
#07212:0000232323000000
#07216:23
#07214:0023000000000000
#02414:00000000001200000000120000001200
#0241a:24002400001200000012000000120000
#02418:00000000000000120000000000000000
#02416:0012
#0241c:00000000000000000000001200000000
#02412:2424000000001200
#07712:0013
#07716:00000000000000000000001300000000
#07717:0000000013000013
#0771b:00000000000000000000001300000000
#0791b:0013
#07917:00000000000000000000001300000000
#07916:0000000013000013
#07912:00000000000000000000001300000000
#02812:1414
#02814:0014001400000000
#02816:00000000140000000000141400000000
#0281b:1313131313131313
#00755:00130000
#0075b:00000000000013000000005300000000
#00757:0000000000000013
#00752:0000000000000013
#01056:00000000000000000000005300000000
#0065b:0023
#00658:00000000000000000000002300000000
#00655:0023
#00652:00000000000000000000002300000000
#00852:0023
#00855:00000000000000000000002300000000
#00858:0023
#0085b:00000000000000000000002300000000
#01157:00000000000000530000000000000000
#01252:00000000000000530000000000000000
#0135b:00000000000000000053000000000000
#01352:00000000000000000053000000000000
#01358:00000013
#01355:00000013
#01457:00000000000000000000006300000000
#0155b:0053
#01556:0053
#0165b:0053
#01752:00000000000000130000000000002300
#01756:0000000000530000
#01857:0000006300000000
#0185b:0000000000230000
#01957:0000000000000013
#01956:00000000000000000000001300000000
#02056:0000003444344434
#02052:00003434
#0205a:0000004400440044
#0215b:0000000013000013
#02152:00000000000000000000001300000000
#0225b:00000000000000000000005300000000
#02252:00000000000000000000005300000000
#02352:00000000000000000000005300000000
#0265b:00000000000000530000000000000000
#02658:00000013
#02652:00000000000000630000000000000000
#02655:00000013
#02756:00000000000000000000005400000000
#02958:0046
#02952:00000000000000000000003600000000
#0295b:00000000005300000000000000000000
#0305b:0000005300005300
#03056:0000005300000000
#03055:00000000000000000000000000000053
#0315b:0013001300130013
#03255:00530000
#03258:00000000005300000000000000000000
#0325a:0000000000440000
#03252:0000000000340000
#0335b:0053
#03357:00000000000000000000005300000000
#03352:00000000000000000000005300000000
#03452:0063
#03456:00000000000000000000006300000000
#0345b:00000000000000000000006300000000
#03556:53000000000000000000001300000000
#03552:0000230000000053
#0355b:53000000000000000000001300000000
#03557:00230000
#03652:00000000000000000053000000000000
#03656:0000000000000000000000000000000000000000000000000023000000000000
#0375b:0000000000000000000000000000000000000023000000000000000000000000
#03758:00000000000000005300005300000000
#03755:00000000000000000000005300000000
#03855:00000000000000006300006300000000
#03852:0000000000000000000000000000000000000023000000000000000000000000
#03858:00000000000000000000006300000000
#03952:53
#0395b:00000000000000000000004300000000
#03956:00000000000000000000003300000000
#04056:00000000000000130000000000000000
#04059:00000000000000000013000000000000
#04052:00000000000000000000001300000000
#0405b:0000000000000013
#04155:00000053000000000000000000000000
#0425b:0000001300000000
#04256:0000001300000000
#04257:00000000000000000053000000000000
#04356:00530000
#04357:00000053
#04352:00000053
#0445b:13
#04456:13000000000000000000001200000000
#04452:0012
#0455c:0012
#04558:00000000000000000000001200000000
#04656:00000000000000000000001200000000
#04658:00000000000000000000001200000000
#04652:0052
#0465b:00000000000000000000000000530000
#04758:13
#04755:13
#0475a:0000000000440000
#04752:0000000000340000
#0495b:53
#04952:000000000053000000000000000000000000000000000000
#04957:000000000000000000000053000000000000000000000000
#0485b:0053
#04857:0000000000530000
#05052:0063
#05056:0000000000630000
#05157:000000000000000000000053000000000000000000000000
#05152:000000000000000000000053000000000000000000000000
#0535b:53
#05555:00000013
#05652:0000000000000000000000000000000052250000000000000000000000000000
#05659:0000000000000000000000000000000052250000000000000000000000000000
#05658:0000000000000000000053260000000000000000000000000000000000000000
#05858:0012001200000000
#0585c:0000000000120012
#05958:0012001200000000
#0595c:0000000000120012
#06058:0012001200000000
#0605c:0000000000120012
#06352:00000063
#06358:00000000000000000000000000000063
#06652:0063
#06656:00000000000000000000006300000000
#0665b:00000000000000000000006300000000
#06857:63000000000000000000001300000000
#0685b:0000230000000063
#06852:63000000000000000000001300000000
#06856:00230000
#07055:00000000000000006300006300000000
#07052:0000000000000000000000000000000000000023000000000000000000000000
#07058:00000000000000000000006300000000
#07458:00000063000000000000000000000000
#06452:0013001300130013
#0675b:0053
#06757:00000000000000000000005300000000
#06752:00000000000000000000005300000000
#06957:0000000000000000000000000000000000000000000000000023000000000000
#0695b:00000000000000000063000000000000
#07158:00000000000000005300005300000000
#0715b:0000000000000000000000000000000000000023000000000000000000000000
#07155:00000000000000000000005300000000
#0725b:63
#07257:00000000000000000000004300000000
#07252:00000000000000000000003300000000
#07556:00000000000000000063000000000000
#07552:0000001300000000
#07557:0000001300000000
#07657:00630000
#07656:00000063
#0765b:00000063
#0655a:0000000000440000
#06552:0000000000340000
#07357:00000000000000130000000000000000
#07354:00000000000000000013000000000000
#0735b:00000000000000000000001300000000
#07352:0000000000000013
#07752:1323
#07757:1300000000000013
#07756:00000000000000000000002300000000
#0245a:00000000000000000000000000120000
#02454:0000000000000012
#02552:00000000000000000000003300000000
#0255b:00000000000000000000004300000000
#06252:14
#06258:0014000000000000
#0625a:0000000000140000
#06254:00000000000000000000001400000000
#07855:00000000130000000000005300000000
#07852:0000001300000013
#0785b:0000001300000013
#08052:00000032
#0795b:0023
#07957:00000000000000000000002300000000
#07956:0000000000000013
#02856:00000000000000000000006400000000
#000370:0000000000000000000000000000000000120000000000000000000000000000
#001370:52525252525252525200000000000000525252525252525252000000000000000000000000000000000000000000525252525252525252525252525252525200
#001330:005a000000580000000000000000000000000000000000000000000000000000005a00000058000000000000000000000000000000000000000000000000000000000000000000000000000000000000000000000000000000000000005900000058000000000000000000000059000000000000005900000000000000000000
#001350:0000005800000057000000000055000000000000000000000000000000000000000000580000005700000000005500000000000000000000000000000000000000000000000000000000000000000000000000000000000000000000000000000000005800000000000000560000000000560056000000000056005600000000
#001340:0000000000000000005700000000000000000000000000000000000000000000000000000000000000570000000000000000000000000000000000000000000000000000000000000000000000000000000000000000000000000000000000590000000000560000005600000000005900000000000000590000000000000000
#001360:0000000000000000000000550000005400000000000000000000000000000000000000000000000000000055000000540000000000000000000000000000000000000000000000000000000000000000000000000000000000000000000000000000000000000056000000000000000000000000000000000000000000000000
#002370:00000000000000000000000000005252525252525252525252525252525252525252525252525252525252525252525252525200000000000000000052525252
#002340:0000000000000000000000000000000000000000000000000000000000560000000000000000000000560000000000000000005a00000000005700000000000000000059000000000000000000560000000000000000000000000000005600000000000000000000000000000000000000000000000000000000000000000057
#002360:0000000000000000000000000000000000000000000000000000000000000056000000000000000000000058000000580000000000000057000000570000005500000000000000000000000000000056000000550000005500000057000000560000005500000000000000000000000000000000000000000000000000000000
#002330:0000000000000000000000000000000000000000000000000000000000000000005800000058000000000000000000000000000000000000000000000000000000590000005800000058000000000000000000000000000000570000000000000000000000000000000000000000000000000000000000000000005800000000
#002350:0000000000000000000000000000000000000000000000000000000000000000000000580000005800000000000000000000000000000000000000000055000000000000000000580000005800000000005500000055000000000000000000000055000000000000000000000000000000000000000000000058000000570000
#002320:000000000000000000000000000000000000000000000000000000000000000000000000000000000000000000580000005a000000580000000000000000000000000000000000000000000000000000000000000000000000000000000000000000000000000000000000000000000000000000000000000000000000000000
#003370:52525252525252525252000000005252525252525252520000005252525252525252525252525252525252525252000000000000000000000000000052525252
#003360:0056000000000000000000000055000000550000000000000000000000000000005700000056000000560000000000000000000000000000000000000057000000580000005600000056000000570000005700000056000000560000000000000000000000000000000000000000000000000000000000000055000000550000
#003340:0000005600000000000000570000005500000000000000000000000000000000000000000000000000000000000000000000000000000000000000000000000000000000000000560000000000000000000000560000005600000000000000000000000000000000000000000000000000000000000000000000000000000000
#003350:0000000000580000005700000000000000000000000000000000000000590000000000000000000000000055000000000000000000590000005900000000000000000000000000000000000000000000000000000000000000000000000000000000000000000000000000000000000000000000000000000000005500000055
#003330:0000000000000058000000000000000000000000000000000000000000000000000000570000005700000000000000000000000000000000000000000000005700000000000000000000005700000057000000000000000000000000000000000000000000000000000000000000000000000000000000000000000000000000
#003320:0000000000000000000000000000000000000000000000000000000000000059000000000000000000000000000000000000000000000059000000590000000000000058000000000000000000000000000000000000000000000000000000000000000000000000000000000000000000000000000000000000000000000000
#004370:52525252525252525252525252525252525252525200000052525252525252525252525252525252525252525252525252000000000052525252525252525252
#004360:0056000000000000000000000000000000000000000000000000000000000000005600000056000000000000000000000055000000550000005500000056000000560000005600000000000000000000000000000056000000560000000000540000000000000000000000000000000000000000000000000000005500000055
#004340:0000005600000000000000000000000000000057000000570000005700000056000000560000000000000000000000000000000000000000000000560000005600000056000000000000000000000000000000000000005600000056000000000000000000000000000000000000005a00000059005700000000000000000000
#004350:0000000000580000005900000058000000570000005700000057000000570000000000000000005600000000000000000000005500000055000000000000000000000000000000000059000000590000005800000000000000000000005600000000000000000000000000000000000000000000000000570055000000550000
#004330:0000000000000058000000000000005800000000000000000000000000000000000000000000000000000000000000000000000000000000000000000000000000000000000000000000000000000000000000580000000000000000000000000000000000000000000000000000000000590000000000000000000000000000
#004320:000000000000000000000059000000000000000000000000000000000000000000000000000000000000000000000000000000000000000000000000000000000000000000000059000000590000005900000000000000000000000000000000000000000000000000000000005a000000000000000000000000000000000000
#005370:52525252525252525252525252525252525252525252525252525252525252522200000000000000000000000000000000000000000000000000000000000000
#005320:005a0000005a00000000000000000000005b0000005b00000000000000000000000000000000000000000000000000000000000000000000000000000000000000000000000000000000000000000000000000000000000000000000000000000000000000000000000000000000000000000000000000000000000000000000
#005340:0000005a0000005a000000590000000000000000000000000056000000560000005600000000000000560000005600000056000000000000005600000000000000000000000000000000000000000000000000000000000000000000000000000000000000000000000000000000000000000000000000000000000000000000
#005330:000000000000000000590000000000000000005b0000005b0000000000000000000000000057000000000000000000000000000000000000000000000000000000000000000000000000000000000000000000000000000000000000000000000000000000000000000000000000000000000000000000000000000000000000
#005350:0000000000000000000000000055000000000000000000000000000000000000000000000000000000000000000000000000000000550000000000000000000000000000000000000000000000000000000000000000000000000000000000000000000000000000000000000000000000000000000000000000000000000000
#005360:0000000000000000000000000000005500000000000000000000005600000056000000560000005700000056000000560000005600000055000000560054005400000000000000000000000000000000000000000000000000000000000000000000000000000000000000000000000000000000000000000000000000000000
#0063b0:1323000000000000
#006351:1323000000000000
#006381:0000132300000000
#006320:0000132300000000
#0063b0:0000000013000023
#006380:00000000000000000000003300000000
#006351:0000000013000023
#006321:00000000000000000000003300000000
#0073b1:00000000000000000000001300000000
#007371:0000000000000023
#008321:1323000000000000
#008380:1323000000000000
#008350:0000132300000000
#0083b1:0000132300000000
#008321:0000000013000023
#008351:00000000000000000000003300000000
#008380:0000000013000023
#0083b0:00000000000000000000003300000000
#009330:0000000000140000
#009320:00000000000000000000000000000000000000000000000000000000000000000000000000000000005400540054005400540054005400540054005400540054
#009340:0000000000000000000000000000000000000000005454545454545454545454
#010330:24
#009391:0000000000140000
#0093a1:00000000000000000000000000000000000000000000000000000000000000000000000000000000005400540054005400540054005400540054005400540054
#009381:0000000000000000000000000000000000000000005454545454545454545454
#010391:24
#010361:00000000000000000000001300000000
#010321:0000000000000023
#011371:00000000000000130000000000000000
#0113b1:0000000000230000
#012321:00000000000000130000000000000000
#012361:0000000000230000
#013321:00000000000000000013000000000000
#013351:00000023
#0133b0:00000000000000000013000000000000
#013380:00000023
#014370:00000000000000000000001300000000
#0143b0:0000000000000023
#0153b0:0013
#015370:00000000000000000000002300000000
#015361:0013
#015321:00000000000000000000002300000000
#0163b1:0013
#016371:00000000000000000000002300000000
#017361:0000000000130000
#017321:0000000000000053
#018361:0023000000000000
#018371:0000001300000023
#0183b1:0000000000530000
#0193b1:00000000000000000000000000000000000000001353535323000000000000000000000000000000000000000000000000000000000000000000000000000000
#0193a1:0000000000000000000000000000000000000000000000000000000000000000000000000000000000530053005300530000000000000000000000000000000000000000000000000000000000000000000000000000000000000000000000000000000000000000000000000000000000000000000000000000000000000000
#019350:00000000000000000000000000000000000000000000000013535353230000000000000000000000000000000000000000000000000000000000000000000000
#019340:0000000000000000000000000000000000000000000000000000000000000000000000000000000000000000000000000053005300530053000000000000000000000000000000000000000000000000000000000000000000000000000000000000000000000000000000000000000000000000000000000000000000000000
#019381:00000000000000000000000000000000000000000000000000000000135353532300000000000000000000000000000000000000000000000000000000000000
#019391:0000000000000000000000000000000000000000000000000000000000000000000000000000000000000000000000000000000000000000005300530053005300000000000000000000000000000000000000000000000000000000000000000000000000000000000000000000000000000000000000000000000000000000
#022321:00000000000000000000001300000000
#022351:0000000000000023
#0223b0:00000000000000000000001300000000
#022380:0000000000000023
#023320:00000000000000000000001300000000
#023350:0000000000000023
#025320:00000000001300000000002300000000
#025350:0053
#0253b1:00000000001300000000002300000000
#025381:0053
#0263b1:00000000000000130000000000000000
#026381:00000023
#026320:00000000000000130000000000000000
#026350:00000023
#027360:00000000000000000000001400000000
#0273a0:0000000000000024
#028360:00000000000000000000001400000000
#028320:0000000000000024
#0293b0:00000000001300000000000000000000
#029380:00000000000000230000000000000000
#030360:0000001300000000
#030320:0023
#0303b1:0000001300000000
#030371:0023
#0303b1:00000013
#030381:00000000000000000000000000000023
#030350:00000000000000000000000000000013
#032320:23
#032350:00130000
#032320:00000000000000230000000000000000
#032381:00000000001300000000000000000000
#0323b1:00000000000000230000000000000000
#0333b1:0000000013000023
#033371:00000000000000000000003300000000
#033320:00000000000000000000001300000000
#033360:0000000000000023
#034320:0000000013000023
#034360:00000000000000000000003300000000
#0343b1:00000000000000000000001300000000
#034371:0000000000000023
#035361:13000000000000003300002300000000
#035321:00530000
#0353b0:13000000000000003300002300000000
#035370:00530000
#035320:0000000000000013
#036360:0023000000000000
#036320:00000000000000000013000000000000
#036360:0000000000000000000000000000000000000000000000000053000000000000
#037320:23
#037380:00000000000000001300003300000000
#0373b0:0000000000000000000000000000000000000053000000000000000023000000
#037351:00000000000000000000001300000000
#037321:0000000000000023
#038351:00000000000000001333333300000000
#038321:0000000000000000000000000000000000000053000000000000000023000000
#038380:00000000000000000000001300000000
#0383b0:0000000000000023
#039320:13
#039360:00000000000000003300002300000000
#0393b1:00000000000000001300002300000000
#041351:00000013000000000000000000000000
#041321:0023
#0423b1:0000132300000000
#042360:0000132300000000
#042370:00000000000000000013000000000000
#0423b0:00000023
#043360:00130000
#043320:00000000000000230000000000000000
#0433b0:00000000000000000013002300000000
#043361:00000000000000000013002300000000
#043371:00000013
#0433b1:0000000000000053
#0443b1:23
#043320:00000013
#043360:0000000000000053
#044360:23
#046320:0012
#046360:00000000000000000000002200000000
#0463b0:00000000000000000000000000130000
#047380:23
#047320:0000000000000000150000560000250000000000000000000000000000000000
#047330:0000000000000000000000000000000000000000000000000000000000000000000000005500000000550000000000550000000055000000000000000000000000000000000000000000000000000000000000000000000000000000000000000000000000000000000000000000000000000000000000000000000000000000
#047350:000000000000000000000000000000000000000000000000000000000000000000000000000000000000000000000000000000000000000000000000000000000000000000000000000000000000000000000000000000000000000000000000000000000000000000000000000000000000000000000000000000000000000000000000000000000000000000000000000000000000000000000000000000000000000000000000000000000000000000000000000000000000000000000000000000000000000000000000000000000000000000000000000000000000000000000000000000000000000000000000000000000000000000000000000000000000000000000000000000000000000000000000000000000000000000000000000000000000000000000000000000000000000000000000000000000000000000000000000000000000000000000000000000000000000000000000000000000000000000000000000000000000000000000000000000000000000000000000000000000000000000000000000000000000000000000000000000000000000000000000000000000000000000000000000000000000000000000000000000000000000000000000000000000000000000000000000000000000000000000000000000000000000000000000000000000000000000000000000000000000000000000000000000000000000000000000000000000000000000000000005300000000000000000000000000000000000000000000000000000000000000000000000000000000000000000000000000000000000000000000000000000000000000000000000053000000000000000000000000000000000000000000000000000000000000000000000000000000000000000000000000000000000000000000000000000000000000000000000000000000000000000000000000000000000000005300000000000000000000000000000000000000000000000000000000000000000000000000000000000000000000000000000000000000000000000000000000000000000000000053000000000000000000000000000000000000000000000000000000000000000000000000000000000000000000000000000000000000000000000000000000000000000000000000000000000000000000000000000000000000000000000000000000000000000000000000000000000000000000000000000000000000000000000000000000000000000000000000000000000000000000000000000000000000000000000000000000000000000000000000000000000000000000000000000000000000000000000000000000000000000000000000000000000000000000000000000000000000000000000000000000000000000000000000000000000000000000000000000000000000000000000000000000000000000000000000000000000000000000000000000000000000000000000000000000000000000000000000000000000000000000000000000000000000000000000000000000000000000000000000000000000000000000000000000000000000000000000000000000000000000000000000000000000000000000000000000000000000000000000000000000000000000000000000000000000000000000000000000000000000000000000000000000000000000000000000000000000000000000000000000000000000000000000000000000000000000000000000000000000000000000000000000000000000000000000000000000000000000000000000000000000000000000000000000000000000000000000000000000000000000000000000000000000000000000000000000000000000000000000000000000000000000000000000000000000000000000000000000000000000000000000000000000000000000000000000000000000000000000000000000000000000000000000000000000000000000000000000000000000000000000000000000000000000000000000000000000000000000000000000000000000000000000000000000000000000000000000000000000000000000000000000000000000000000000000000000000000000000000000000000000000000000000000000000000000000000000000000000000000000000000000000000000000000000000000000000000000000000000000000000000000000000000000000000000000000000000000000000000000000000000000000000000000000000000000000000000000000000000000000000000000000000000000000000000000000000000000000000000000000000000000000000000000000000000000000000000000000000000000000000000000000000000000000000000000000000000000000000000000000000000000000000000000000000000000000000000000000000000000000000000000000000000000000000000000000000000000000000000000000000000000000000000000000000000000000000000000000000000000000000000000000000000000000000000000000000000000000000000000000000000000000000000000000000000000000000000000000000000000000
#047381:00000000000000000000000000000000150000000000005600005600000000000000000000000000000000000000000000000000000000000000000000000000
#047391:00000000000000000000000000000000000055000055000000000000240000000000000000000000000000000000000000000000000000000000000000000000
#0473b1:000000000000000000000000000000000000000000000000000000000000000000000000000000000000000000000000000000000000000000000000000000000000000000000000000000000000000000000000000000000000000000000000000000000000000000000000000000000000000000000000000000000000000000000000000000000000000000000000000000000000000000000000000000000000000000000000000000000000000000000000000000000000000000000000000000000000000000000000000000000000000000000000000000000000000000000000000000000000000000000000000000000000000000000000000000000000000000000000000000000000000000000000000000000000000000000000000000000000000000000000000000000000000000000000000000000000000000000000000000000000000000000000000000000000000000000000000000000000000000000000000000000000000000000000000000000000000000000000000000000000000000000000000000000000000000000000000000000000000000000000000000000000000000000000000000000000000000000000000000000000000000000000000000000000000000000000000000000000000000000000000000000000000000000000000000000000000000000000000000000000000000000000000000000000000000000000000000000000000000000000005300000000000000000000000000000000000000000000000000000000000000000000000000000000000000000000000000000000000000000000000000000000000000000000000000000000000000000000000000000053000000000000000000000000000000000000000000000000000000000000000000000000000000000000000000000000000000000000000000000000000000000000000000000000000000000000000000000000000000000000000000000000000000000000000000000000000000000000000000000000000000000000000000000000000000000000000000000000000000000000000000000000000000000000000000000000000000000000000000000000000000000000000000000000000000000000000000000000000000000000000000000000000000000000000000000000000000000000000000000000000000000000000000000000000000000000000000000000000000000000000000000000000000000000000000000000000000000000000000000000000000000000000000000000000000000000000000000000000000000000000000000000000000000000000000000000000000000000000000000000000000000000000000000000000000000000000000000000000000000000000000000000000000000000000000000000000000000000000000000000000000000000000000000000000000000000000000000000000000000000000000000000000000000000000000000000000000000000000000000000000000000000000000000000000000000000000000000000000000000000000000000000000000000000000000000000000000000000000000000000000000000000000000000000000000000000000000000000000000000000000000000000000000000000000000000000000000000000000000000000000000000000000000000000000000000000000000000000000000000000000000000000000000000000000000000000000000000000000000000000000000000000000000000000000000000000000000000000000000000000000000000000000000000000000000000000000000000000000000000000000000000000000000000000000000000000000000000000000000000000000000000000000000000000000000000000000000000000000000000000000000000000000000000000000000000000000000000000000000000000000000000000000000000000000000000000000000000000000000000000000000000000000000000000000000000000000000000000000000000000000000000000000000000000000000000000000000000000000000000000000000000000000000000000000000000000000000000000000000000000000000000000000000000000000000000000000000000000000000000000000000000000000000000000000000000000000000000000000000000000000000000000000000000000000000000000000000000000000000000000000000000000000000000000000000000000000000000000000000000000000000000000000000000000000000000000000000000000000000000000000000000000000000000000000000000000000000000000000000000000000000000000000000000000000000000000000000000000000000000000000000000000000000000000000000000000000000000000000000000000000000000000000000000000000000000000000000000000000000000000000000000000000000000000000000000000000000000000000000000000000000000000000000000000000000000000000000000000000000000000000000000000000000000000000000000000000000000000000000000000
#0483b1:0013
#048371:000000000000002300000000
#048371:0000000000130000
#0483b1:000000000000000000000000000000000023000000000000
#048321:000000000000000000000000000000000000000013333333
#049361:23
#0493b0:13
#049370:0023000000000000
#049320:000000000013000000000000000000000000000000000000
#049360:002300
#049370:000000000000000000000013000000000000000000000000
#0493b0:0000000000230000
#050320:0013
#050360:000000000000002300000000
#050360:0000000000130000
#050320:000000000000000000000000000000000023000000000000
#050370:000000000013
#0503b0:000000000000000000000000000000000000000000333333
#0513b0:23
#051320:000000000000130000000033000000000000000000000000
#051360:00000023
#051371:000000000000000013000033000000000000000000000000
#0513b1:00000023
#052321:000000000000000000000000000000000000000013333333
#053361:23
#0533b0:13
#053370:0023000000000000
#0543b0:000000000000000000000000000000000000000013333333
#055370:23
#056320:130000000000000000000000000000000000000000000000000000000000000000000000000000000000000000000000000000000000000000000000000000000000000000000000000000000000000000000000000000000000000000000000000000000000000000000000000000000000000000000055530000000000000000000000000000000000000000000000000000000000000000000000000000000000000000000000000000000000000000000000000000000000000000000000000000000000000000000000000000000000000000000000000000000000000000000000000000000000000000000000230000000000000000000000000000000000000000000000000000000000000000000000000000000000000000000000000000000000000000000000000000000000000000000000000000000000000000000000000000000000000000000000000000000000000000000000000000000000000000000000000000000000000000000000000000000000000000000000000000000000000000000000000000000000000000000000000000000000000000000000000000000000000000000000000000000000000000000000000000000000000000000000000000000000000000000000000000000000000000000000000000000000000000000000000000000000000000000000000000000000000000000000000000000000000000000000000000000000000000000000000000000000000000000000000000000000000000000000000000000000000000000000000000000000000000000000000000000000000000000000000000000000000000000000000000000000000000000000000000000000000000000000000000000000000000000000000000000000000000000000000000000000000000000000000000000000000000000000000000000000000000000000000000000000000000000000000000000000000000000000000000000000000000000000000000000000000000000000000000000000000000000000000000000000000000000000000000000000000000000000000000000000000000000000000000000000000000000000000000000000000000000000000000000000000000000000000000000000000000000000000000000000000000000000000000000000000000000000000000000000000000000000000000000000000000000000000000000000000000000000000000000000000000000000000000000000000000000000000000000000000000000000000000000000000000000000000000000000000000000000000000000000000000000000000000000000000000000000000000000000000000000000000000000000000000000000000000000000000000000000000000000000000000000000000000000000000000000000000000000000000000000000000000000000000000000000000000000000000000000000000000000000000000000000000000000000000000000000000000000000000000000000000000000000000000000000000000000000000000000000000000000000000000000000000000000000000000000000000000000000000000000000000000000000000000000000000000000000000000000000000000000000000000000000000000000000000000000000000000000000000000000000000000000000000000000000000000000000000000000000000000000000000000000000000000000000000000000000000000000000000000000000000000000000000000000000000000000000000000000000000000000000000000000000000000000000000000000000000000000000000000000000000000000000000000000000000000000000000000000000000000000000000000000000000000000000000000000000000000000000000000000000000000000000000000000000000000000000000000000000000000000000000000000000000000000000000000000000000000000000000000000000000000000000000000000000000000000000000000000000000000000000000000000000000000000000000000000000000000000000000000000000000000000000000000000000000000000000000000000000000000000000000000000000000000000000000000000000000000000000000000000000000000000000000000000000000000000000000000000000000000000000000000000000000000000000000000000000000000000000000000000000000000000000000000000000000000000000000000000000000000000000000000000000000000000000000000000000000000000000000000000000000000000000000000000000000000000000000000000000000000000000000000000000000000000000000000000000000000000000000000000000000000000000000000000000000000000000000000000000000000000000000000000000000000000000000000000000000000000000000000000000000000000000000000000000000000000000000000000000000000000000000000000000000000000000000000000000000000000000000000000000000000000000000000000000000000000000000000000000
#056391:13532300000000000000000000000000
#056371:000000000000000000000000000000000000000000000000000000000000000000000000000000000000000000000000000000000000000000000000000000000000000000000000000000000000000000000000000000000000000000000000000000000000000000000000000000000000000000000055000000000000000000000000000000000000000000000000000000000000000000000000000000000000000000000000000000000000000000000000000000000000000000000000000000000000000000000000000000000000000000000000000000000000000000000000000000000000000000000000000000000000000000000000000000000000000000000000000000000000000000000000000000000000000000000000000000000000000000000000000000000000000000000000000000000000000000000000000000000000000000000000000000000000000000000000000000000000000000000000000000000000000000000000000000000000000000000000000000000000000000000000000000000000000000000000000000000000000000000000000000000000000000000000000000000000000000000000000000000000000000000000000000000000000000000000000000000000000000000000000000000000000000000000000000000000000000000000000000000000000000000000000000000000000000000000000000000000000000000000000000000000000000000000000000000000000000000000000000000000000000000000000000000000000000000000000000000000000000000000000000000000000000000000000000000000000000000000000000000000000000000000000000000000000000000000000000000000000000000000000000000000000000000000000000000000000000000000000000000000000000000000000000000000000000000000000000000000000000000000000000000000000000000000000000000000000000000000000000000000000000000000000000000000000000000000000000000000000000000000000000000000000000000000000000000000000000000000000000000000000000000000000000000000000000000000000000000000000000000000000000000000000000000000000000000000000000000000000000000000000000000000000000000000000000000000000000000000000000000000000000000000000000000000000000000000000000000000000000000000000000000000000000000000000000000000000000000000000000000000000000000000000000000000000000000000000000000000000000000000000000000000000000000000000000000000000000000000000000000000000000000000000000000000000000000000000000000000000000000000000000000000000000000000000000000000000000000000000000000000000000000000000000000000000000000000000000000000000000000000000000000000000000000000000000000000000000000000000000000000000000000000000000000000000000000000000000000000000000000000000000000000000000000000000000000000000000000000000000000000000000000000000000000000000000000000000000000000000000000000000000000000000000000000000000000000000000000000000000000000000000000000000000000000000000000000000000000000000000000000000000000000000000000000000000000000000000000000000000000000000000000000000000000000000000000000000000000000000000000000000000000000000000000000000000000000000000000000000000000000000000000000000000000000000000000000000000000000000000000000000000000000000000000000000000000000000000000000000000000000000000000000000000000000000000000000000000000000000000000000000000000000000000000000000000000000000000000000000000000000000000000000000000000000000000000000000000000000000000000000000000000000000000000000000000000000000000000000000000000000000000000000000000000000000000000000000000000000000000000000000000000000000000000000000000000000000000000000000000000000000000000000000000000000000000000000000000000000000000000000000000000000000000000000000000000000000000000000000000000000000000000000000000000000000000000000000000000000000000000000000000000000000000000000000000000000000000000000000000000000000000000000000000000000000000000000000000000000000000000000000000000000000000000000000000000000000000000000000000000000000000000000000000000000000000000000000000000000000000000000000000000000000000000000000000000000000000000000000000000000000000000000000000000000000000000000000000000000000000000000000000000000000000000000000000000000000000000000000000000000
#056351:0000132300000000
#0563b0:00130000
#056380:0000000000000000000053562300000000000000000000000000000000000000
#056390:00000000000000000000000000000000000000000000000000000000000000001200550000000000000000550000005500000000000000000000000000000000
#0563c0:000000000000000000000000000000000000000000000000000000000000000000000000000000000000000000000000000000000000000000000000000000000000000000000000000000000000000000000000000000000000000000000000000000000000000000000000000000000000000000000000000000000000000000000000000000000000000000000000000000000000000000000000000000000000000000000000000000000000000000000000000000000000000000000000000000000000000000000000000000000000000000000000000000000000000000000000000000000000000000000000000000000000000000000000000000000000000000000000000000000000000000000000000000000000000000000000000000000000000000000000000000000000000000000000000000000000000000000000000000000000000000000000000000000000000000000000000000000000000000000000000000000000000000000000000000000000000000000000000000000000000000000000000000000000000000000000000000000000000000000000000000000000000000000000000000000000000000000000000000000000000000000000000000000000000000000000000000000000000000000000000000000000000000000000000000000000000000000000000000000000000000000000000000000000000000000000000000000000000000000000000000000000000000000000000000000000000000000000000000000000000000000000000000000000000000000000000000000000000000000000000000000000000000000000000000000000000000000000000000000000000000000000000000000000000000000000000000000000000000000000000000000000000000000000000000000000000000000000000000000000000000000000000000000000000000000000000000000000000000000000000000000000000000000000000000000000000000000000000000000000000000000000000000000000000000000000000000000000000000000000000000000000000000000000000000000000000000000000000000000000000000000000000000000000000000000000000000000000000000000000000000000000000000000000000000000000000000000000000000000000000000000000000000000000000000000000000000000000000000000000000000000000000000000000000000000000000000000000000000000000000000000000000000000000000000000000000000000000000000000000000000000000000000000000000000000000000000000000000000000000000000000000000000000000000000000000000000000000000000000000000000000000000000000000000000000000000000000000000000000000000000000000000000000000000000000000000000000000000000000000520000000000000000000000000000000000000000000000000000000000000000000000000000000000000000000000000000000000000000000000000000000000000000000000000000000000000000000000000000000000000000000000000000000000000000000000000000000000000000000000000000000000000000000000000000000000000000000000000000000000000000000000000000000000000000000000000000000000000000000000000000000000000000000000000000000000000000000000000000000052000000000000000000000000000000000000000000520000000000000000000000000000000000000000000000000000000000000000000000000000000000000000000000000000000000000000000000000000000000000000000000000000000000000000000000000000000000000000000000000052000000000000000000000000000000000000000000000000000000000000000000000000000000000000000000000000000000000000000000000000000000000000000000000000000000000000000000000000000000000000000000000000000000000000000000000000000000000000000000000000000000000000000000000000000000000000000000000000000000000000000000000000000000000000000000000000000000000000000000000000000000000000000000000000000000000000000000000000000000000000000000000000000000000000000000000000000000000000000000000000000000000000000000000000000000000000000000000000000000000000000000000000000000000000000000000000000000000000000000000000000000000000000000000000000000000000000000000000000000000000000000000000000000000000000000000000000000000000000000000000000000000000000000000000000000000000000000000000000000000000000000000000000000000000000000000000000000000000000000000000000000000000000000000000000000000000000000000000000000000000000000000000000000000000000000000000000000000000000000000000000000000000000000000000000000000000000000000000000000000000
#0563a0:000000000000000000000000000000000000000000000000000000000000000000000000000000000000000000000000000000000000000000000000000000000000000000000000000000000000000000000000000000000000000000000000000000000000000000000000000000000000000000000000000000000000000000000054000000000000000000000000240000000000000000000000000000000000000000000000000000000000000000000000000000000000000000000000
#056321:0000000000000000000000000000000012550000000000000000000000000000
#056351:000000000000000000000000000000000000000000000000000000000000000000000000000000000000000000000000000000000000000000000000000000000000000000000000000000000000000000000000000000000000000000000000000000000000000000000000000000000000000000000000000000000000000000000000000000000000000000000000000000000000000000000000000000000000000000000000000000000000000000000000000000000000000000000000000000000000000000000000000000000000000000000000000000000000000000000000000000000000000000000000000000000000000000000000000000000000000000000000000000000000000000000000000000000000000000000000000000000000000000000000000000000000000000000000000000000000000000000000000000000000000000000000000000000000000000000000000000000000000000000000000000000000000000000000000000000000000000000000000000000000000000000000000000000000000000000000000000000000000000000000000000000000000000000000000000000000000000000000000000000000000000000000000000000000000000000000000000000000000000000000000000000000000000000000000000000000000000000000000000000000000000000000000000000000000000000000000000000000000000000000000000000000000000000000000000000000000000000000000000000000000000000000000000000000000000000000000000000000000000000000000000000000000000000000000000000000000000000000000000000000000000000000000000000000000000000000000000000000000000000000000000000000000000000000000000000000000000000000000000000000000000000000000000000000000000000000000000000000000000000000000000000000000000000000000000000000000000000000000000000000000000000000000000000000000000000000000000000000000000000000000000000000000000000000000000000000000000000000000000000000000000000000000000000000000000000000000000000000000000000000000000000000000000000000000000000000000000000000000000000000000000000000000000000000000000000000000000000000000000000000000000000000000000000000000000000000000000000000000000000000000000000000000000000000000000000000000000000000000000000000000000000000000000000000000000000000000000000000000000000000000000000000000000000000000000000000000000000000000000000000000000000000000000000000000000000000000000000000000000000000000000000000000000000000000000000000000000000000000000000000520000000000000000000000000000000000000000000000000000000000000000000000000000000000000000000000000000000000000000000000000000000000000000000000000000000000000000000000000000000000000000000000000000000000000000000000000000000000000000000000000000000000000000000000000000000000000000000000000000000000000000000000000000000000000000000000000000000000000000000000000000000000000000000000000000000000000000000000000000000052540000000000000000000000000000000000000055520000000000000000000000000000000000000000000000000000000000000000000000000000000000000000000000000000000000000000000000000000000000000000000000000000000000000000000000000000000000000000000000000052540000000000000000000000000000000000000000000000000000000000250000000000000000000000000000000000000000000000000000000000000000000000000000000000000000000000000000000000000000000000000000000000000000000000000000000000000000000000000000000000000000000000000000000000000000000000000000000000000000000000000000000000000000000000000000000000000000000000000000000000000000000000000000000000000000000000000000000000000000000000000000000000000000000000000000000000000000000000000000000000000000000000000000000000000000000000000000000000000000000000000000000000000000000000000000000000000000000000000000000000000000000000000000000000000000000000000000000000000000000000000000000000000000000000000000000000000000000000000000000000000000000000000000000000000000000000000000000000000000000000000000000000000000000000000000000000000000000000000000000000000000000000000000000000000000000000000000000000000000000000000000000000000000000000000000000000000000000000000000000000000000000000000000000000000000000000000000000000000000000000
#062381:00000000000000000000000000160026
#063381:1626000000000000
#063321:00000013
#063351:00000000000000000000000000000023
#063380:00000000000000000000000000000013
#0653b0:23
#066320:0000000013000023
#066360:00000000000000000000003300000000
#0663b1:00000000000000000000001300000000
#066371:0000000000000023
#0673b1:0000000013000023
#067371:00000000000000000000003300000000
#067320:00000000000000000000001300000000
#067360:0000000000000023
#068370:13000000000000003300002300000000
#0683b0:00530000
#068321:13000000000000003300002300000000
#068361:00530000
#0683b1:0000000000000013
#069371:0023000000000000
#0693b1:00000000000000000013000000000000
#069371:0000000000000000000000000000000000000000000000000053000000000000
#0703b1:23
#070351:00000000000000001300003300000000
#070321:0000000000000000000000000000000000000053000000000000000023000000
#070380:00000000000000000000001300000000
#0703b0:0000000000000023
#071380:00000000000000001333333300000000
#0713b0:0000000000000000000000000000000000000053000000000000000023000000
#071351:00000000000000000000001300000000
#071321:0000000000000023
#0723b1:13
#072371:00000000000000003300002300000000
#072320:00000000000000001300002300000000
#074380:00000013000000000000000000000000
#0743b0:0023
#075320:0000132300000000
#075371:0000132300000000
#075361:00000000000000000013000000000000
#075321:00000023
#076371:00130000
#0763b1:00000000000000230000000000000000
#076321:00000000000000000013002300000000
#076370:00000000000000000013002300000000
#076360:00000013
#076320:0000000000000053
#077320:23
#0763b1:00000013
#076371:0000000000000053
#077371:23
#0773b1:0000132300000000
#077360:0000132300000000
#077320:0000000013000023
#077360:00000000000000000000003300000000
#078350:00000000000000000000001300000000
#078320:0000000000000023
#0793b0:1323000000000000
#079361:1323000000000000
#079321:0000132300000000
#079370:0000132300000000
#0793b0:0000000013000023
#079370:00000000000000000000003300000000
#080350:00000012002200000000000000000000
