This file was generated by Ched 2.7.0.0.
#TITLE ""
#ARTIST ""
#DESIGNER ""
#DIFFICULTY 0
#PLAYLEVEL
#SONGID ""
#WAVE ""
#WAVEOFFSET 0
#JACKET ""
#REQUEST "ticks_per_beat 480"
#00002: 4
#BPM01: 128
#00008: 01
#TIL00: ""
#VOLUME: ""
#HISPEED 00
#MEASUREHS 00
#00718:00000013000000000013001300000000
#00715:00130000
#0071b:0000001300000000
#00712:00130000000000001300130000000000
#01015:0000001300130000
#0101b:0013
#01018:00000000130000000000001300000013
#01012:0013000000000013
#01010:41
#01115:13000000130000130000000000001300
#0111b:0013000000130000
#01118:0000001300001300
#01212:13
#01215:00001300000000130000000000001300
#01218:00130013
#0121b:0000001300000000
#0131b:1300001300000000
#01312:00001300000000000013000000000000
#01315:00000000001300000000000000000000
#01318:00000013000000000000000000000000
#01618:0013000000000013
#01615:13000000130000000000330000000013
#0161b:0000001300000000
#01612:0013
#01718:13000000130000130000000000000000
#01712:0013000000003300
#01715:0000001300000000
#02212:1313
#02218:0013000000130000
#02215:00000000130000000000001300000000
#0221b:0000001300000000
#0251b:0000000000000013
#02519:24
#02513:0024000000000000
#02512:00000000002400000000000000000000
#0251a:00000000002400000000000000000000
#02615:13000000000000130000000000000000
#02618:00001300001300000000000000000000
#02612:00130000
#0271b:1313
#02715:0013000000130000
#02718:00000000130000000000001300000000
#02712:0000001300000000
#02710:41
#03015:0013000000001300
#03018:0000130000130000
#03012:00000000000013000000000000000013
#0301b:00000000000000000000000000000013
#03318:00001300000013000000001300000000
#03315:00000000130000130000000000000000
#0331b:0013
#03312:23
#03618:00000000130000130000000000001300
#03612:00000000000000000013000000000000
#03615:0000001300000000
#0361b:0013000000000000
#04012:00130013001300000000000000002400
#04018:00001300130000000000002400000000
#0401a:00000000000000240000000000000000
#04014:00000000000000000024000000000000
#0411b:13
#04115:0013000013000000
#04118:000000000000000000130000000000000000000000000000000000000000130000000000000000002400000000000000
#04112:00000024
#04114:000000000000000000000024
#0421b:0000000000000013
#04215:00000000000000000013000000000000
#04218:00240013
#0421a:24
#04214:0024000000000000
#04315:0013001300001300
#04318:00000000130000130000000000000000
#04312:13000000000000000013000000000000
#0431b:00000013
#04418:00001300000000000000001300000000
#04415:0000000000130000
#0441b:00000033333333330000000000000000
#04718:0013250000000000
#0471a:0000000000240000
#04712:0000250000240000
#04815:130000000000130000000000000033330000000000000000
#0481b:000000130000000000130000000000000000000013333333
#04812:0013
#04810:41
#05115:000000130000000000000013000000000000000000130000
#05118:00130000
#05518:000000000013000000000000000000000013000000000000
#05515:00130013
#05512:000000000000001300000000
#0551b:000000000000000000000023000000000000000000000000
#0611b:00233333330000000000000000130013
#06115:0000000000000013
#06112:00000000000000233333330000000000
#06215:1313
#0621b:0013000013000000
#06212:00000000000013000000000000000016
#06218:00000000000013000000140000160000
#06214:00000000000000000000001400000000
#06312:00001600000000000000000000000013
#06318:16000000001400140000130000000000
#06314:0000001414000000
#06315:00000013
#0631b:00000000000000000000000000000013
#0141b:0013000000000013
#01415:00000000130000000000001300000013
#01418:0000001300130000
#01412:0013
#01518:13000000130000000000000000000013
#01512:0013000000000000
#01515:0000001300000013
#0151b:0013
#01912:00000000001300000000130000000000
#01918:00000000000013000000001300000000
#01915:00000000000000130000000000130000
#0191b:0000000013000013
#01919:0024000000000000
#01913:24
#01910:41
#02014:0000001414000000
#02018:00000000000014001400001300000000
#02012:0000000000130000
#02015:00000000000000000000000000130000
#0201b:0000000000000013
#02013:24
#02019:0024000000000000
#0231b:00000000001300000000000000000000
#02315:0000001300000000
#02318:00000000000000130000000000000000
#02312:00000000000000001333333300330000
#02319:24
#02313:0024000000000000
#03218:00001300001300000000000000000000
#03215:13130000
#03212:0000000000240000
#0321a:0000000000240000
#0351a:14
#03516:00140000
#03512:0000000000000013
#03510:41
#03918:13
#0391b:0000001300000000
#03912:13
#03915:0000001300000000
#04515:13000000000000000000001300000000
#04518:0000000000130000
#04512:00333333333333330000000000000000
#04612:00000000000000000000000000130000
#0461b:13333333003333330000000000000000
#04618:00130000
#04615:00000000000000000000000000000033
#04915:000000000000000000000013000000000000000000000000
#04918:13
#0491b:000000000013000000000000000000000000000000000000
#04912:000000000000000000000000000033330033330033330033
#06615:00001300000013000000001300000000
#06618:23000000130000130000000000000000
#06612:2313
#0661f:21
#07018:0013001313000000
#07015:00000000130000130000000000000000
#0701b:23000000000000000000001300000000
#07012:23
#06812:14
#06816:00140000
#0681b:0000000000000013
#0091b:13
#00915:00000013000000000000000000000000
#00918:0000001300000000
#00912:0026
#02112:00000000001300000000000000000000
#0211b:00000000001300000000000000000000
#02118:0000000000000000000000333333333333000000000000000000000013000000
#02113:24
#02119:0024000000000000
#02115:0000000000000000000000333333333333000000000000000000000000000000
#0241b:00000000001300000000000000000000
#02415:00000000001300001300000000000000
#02418:00000000000000130000000000000000
#02419:24
#02413:0024000000000000
#02412:00000000000000000033333333330000
#02812:1313
#02818:0013000000130000
#02815:00000000130000000000001300000000
#0281b:0000001300000000
#0291b:00000000000000000000000000133333
#02918:23000000002600000000000000000000
#02915:0023000000000000
#02912:00000000000000000000002600000000
#00615:00000000000000000000001300001300
#00818:00000000000000000000001300001300
#03415:00001300000013000000001300000000
#03418:00000000130000130000000000000000
#03412:0013
#0341b:23
#03715:0013001313000000
#03718:00000000130000130000000000000000
#03712:23000000000000000000001300000000
#03818:0013001313000000
#03815:00000000130000130000000000000000
#0381b:23000000000000000033331300000000
#05018:0013001300000000
#05012:000000000000130000000000000033330000000000000000
#05015:0013
#0501b:000000000000000000000000000000000000000000333333
#05212:000000130000000000130000000000000000000013333333
#05218:230000000000130000000000000033330000000000000000
#0521b:0013
#05318:000000000000000000000013000000000000000000000000
#05315:13
#05312:000000000013000000000000000000000000000000000000
#0531b:000000000000000000000000000033330033330033330033
#05415:0013001300000000
#0541b:000000000000130000000000000033330000000000000000
#05418:0013
#05412:000000000000000000000000000000000000000000333333
#0561b:1313
#05618:0013000000000000
#05615:00130000
#05612:0000001300000000
#05718:0013001300000000
#05715:13132300
#05812:1300000000000013
#05815:0013000000001300
#05818:0000130000130000
#0581b:0000001313000000
#0581f:11
#05912:1300000000000013
#05915:0013000000001300
#05918:0000130000130000
#0591b:0000001313000000
#06012:13
#06017:0013000000000000
#06014:00130000
#06019:0000001300000000
#06016:0000000000000013
#06512:0013000000240000
#0651b:13
#06518:0000131300000000
#06515:00000000001300130000000000000000
#0651a:0000000000240000
#06718:00001300000013000000001300000000
#06715:23000000130000130000000000000000
#0671b:2313
#06710:41
#06912:00130000
#06915:00000000000000130000000000001300
#0691b:00000000000000000013000000000000
#06918:0000001300000000
#07115:0013001313000000
#07118:00000000130000130000000000000000
#07112:23000000000000000033331300000000
#0711b:23
#07315:0013130000000000
#07318:00000013001300000024000000000000
#07312:00000000000000240000000000000000
#07314:00000000000000000000002400000000
#0731a:0000000000000024
#07412:13
#07418:000000130000000000000000130000000000000000002400
#07415:00000013000000000000130000000000
#0741a:00000024
#07414:000000000024
#07515:0000000000000013
#07518:00002400000000000013000000000000
#07512:24
#07514:00240000
#07618:0013001300001300
#07615:00000000130000130000000000000000
#0761b:13000000000000000013000000000000
#07612:00000013
#07215:13
#07212:0000001300000000
#0721b:13
#07218:0000001300000000
#07815:00000013000000000013001300000000
#07818:00130000
#07812:0000001300000000
#0781b:00130000000000001300130000000000
#07718:00000000000000000000001300001300
#07915:00000000000000000000001300001300
#0801b:13000023
#08015:00130000000013002300000000000000
#08018:00001300001300130000000000000000
#08012:00000013000000000000000000000000
#01812:33
#0181b:00003333
#00758:00000000000000000000005300000000
#0075b:0000000000000013
#01255:00000000000000530000000000000000
#01352:00000000000000000053000000000000
#01355:00000013
#0155b:0053
#01652:0053
#01758:00000000000000130000000000000000
#0195b:0000000000000013
#01958:00000000000000000000001300000000
#02054:0000003434000000
#02058:00000000000044004400001300000000
#0205b:0000000000000013
#02255:00000000000000000000005300000000
#02655:00000000000000630000000000000000
#02652:00000013
#02758:00000000000000000000005300000000
#03052:00000000000053000000000000000063
#0305b:00000000000000000000000000000053
#0335b:0053
#03358:00000000000000000000005300000000
#0355a:54000000000000000000001400000000
#03556:00240000
#03552:0000000000000053
#03958:53
#0395b:0000002300000000
#03952:53
#03955:0000002300000000
#0405a:00000000000000140000000000000000
#04054:00000000000000000014000000000000
#04058:00000000000000000000001400000000
#04052:0000000000000014
#04158:00000053000000000000000000000000
#04258:0000001400000000
#04255:00000000000000000053000000000000
#0435b:00000053
#04352:00000000000000000053000000000000
#04355:00000053
#04458:13005300000000000000001300000000
#04452:13
#0445b:0013
#04555:53000000000000000000001300000000
#04552:0013
#04652:00000000000000000000000000630000
#0465b:53000000000000000000001300000000
#04658:00230000
#04755:13
#0475a:0000000000440000
#04752:0000000000340000
#04955:000000000000000000000053000000000000000000000000
#04958:53
#0495b:000000000053000000000000000000000000000000000000
#05555:00000013
#06652:0063
#06655:00000000000000000000006300000000
#07058:0053
#0705b:00000000000000000000005300000000
#06852:64000000000000000000001400000000
#06856:00240000
#0685b:0000000000000063
#02552:00000000000000000000003400000000
#0255a:00000000000000000000004400000000
#06255:13
#0625b:0013000000000000
#06258:0000000000140000
#06254:00000000000000000000001400000000
#02152:00000000005300000000000000000000
#02155:0000000000130000
#0215b:00000000006300000000000000000000
#02158:0000000000130000
#02352:0053
#02455:0053
#02452:0000000000000013
#02855:00000000000000000000006300000000
#02958:0016
#02952:00000000000000000000001600000000
#0295b:00000000000000000000000000530000
#03258:00000000005300000000000000000000
#03252:0000000000140000
#0325a:0000000000140000
#03452:0063
#03455:00000000000000000000006300000000
#03652:00000000000000000053000000000000
#03755:0053
#03752:00000000000000000000005300000000
#03858:0063
#0385b:00000000000000000000006300000000
#04852:0053
#0485b:000000000053
#05055:0063
#05155:000000000000000000000053000000000000000000000000
#05358:000000000000000000000063000000000000000000000000
#05355:63
#05352:000000000063000000000000000000000000000000000000
#0525b:0063
#05252:000000000063
#05458:0053
#0565b:0053
#06352:00000000000000000000000000000063
#0635b:00000000000000000000000000000053
#0655a:0000000000140000
#06552:0000000000140000
#0675b:0053
#06758:00000000000000000000005300000000
#0695b:00000000000000000063000000000000
#07155:0063
#07152:00000000000000000000006300000000
#07455:00000063000000000000000000000000
#07255:63
#07252:0000002300000000
#0725b:63
#07258:0000002300000000
#07558:00000000000000000063000000000000
#07554:0000001400000000
#07652:00000063
#07658:00000063
#0765b:00000000000000000063000000000000
#07352:00000000000000140000000000000000
#07358:00000000000000000014000000000000
#07354:00000000000000000000001400000000
#0735a:0000000000000014
#07755:13
#0775b:13
#07855:00000000000000000000006300000000
#07852:0000000000000013
#0805b:00000043
#000370:0000000000000000000000000000000000120000000000000000000000000000
#001370:52525252525252525200000000000000525252525252525252000000000000000000000000000000000000000000525252525252525252525252525252525200
#001330:005a000000580000000000000000000000000000000000000000000000000000005a00000058000000000000000000000000000000000000000000000000000000000000000000000000000000000000000000000000000000000000005900000058000000000000000000000059000000000000005900000000000000000000
#001350:0000005800000057000000000055000000000000000000000000000000000000000000580000005700000000005500000000000000000000000000000000000000000000000000000000000000000000000000000000000000000000000000000000005800000000000000560000000000560056000000000056005600000000
#001340:0000000000000000005700000000000000000000000000000000000000000000000000000000000000570000000000000000000000000000000000000000000000000000000000000000000000000000000000000000000000000000000000590000000000560000005600000000005900000000000000590000000000000000
#001360:0000000000000000000000550000005400000000000000000000000000000000000000000000000000000055000000540000000000000000000000000000000000000000000000000000000000000000000000000000000000000000000000000000000000000056000000000000000000000000000000000000000000000000
#002370:00000000000000000000000000005252525252525252525252525252525252525252525252525252525252525252525252525200000000000000000052525252
#002340:0000000000000000000000000000000000000000000000000000000000560000000000000000000000560000000000000000005a00000000005700000000000000000059000000000000000000560000000000000000000000000000005600000000000000000000000000000000000000000000000000000000000000000057
#002360:0000000000000000000000000000000000000000000000000000000000000056000000000000000000000058000000580000000000000057000000570000005500000000000000000000000000000056000000550000005500000057000000560000005500000000000000000000000000000000000000000000000000000000
#002330:0000000000000000000000000000000000000000000000000000000000000000005800000058000000000000000000000000000000000000000000000000000000590000005800000058000000000000000000000000000000570000000000000000000000000000000000000000000000000000000000000000005800000000
#002350:0000000000000000000000000000000000000000000000000000000000000000000000580000005800000000000000000000000000000000000000000055000000000000000000580000005800000000005500000055000000000000000000000055000000000000000000000000000000000000000000000058000000570000
#002320:000000000000000000000000000000000000000000000000000000000000000000000000000000000000000000580000005a000000580000000000000000000000000000000000000000000000000000000000000000000000000000000000000000000000000000000000000000000000000000000000000000000000000000
#003370:52525252525252525252000000005252525252525252520000005252525252525252525252525252525252525252000000000000000000000000000052525252
#003360:0056000000000000000000000055000000550000000000000000000000000000005700000056000000560000000000000000000000000000000000000057000000580000005600000056000000570000005700000056000000560000000000000000000000000000000000000000000000000000000000000055000000550000
#003340:0000005600000000000000570000005500000000000000000000000000000000000000000000000000000000000000000000000000000000000000000000000000000000000000560000000000000000000000560000005600000000000000000000000000000000000000000000000000000000000000000000000000000000
#003350:0000000000580000005700000000000000000000000000000000000000590000000000000000000000000055000000000000000000590000005900000000000000000000000000000000000000000000000000000000000000000000000000000000000000000000000000000000000000000000000000000000005500000055
#003330:0000000000000058000000000000000000000000000000000000000000000000000000570000005700000000000000000000000000000000000000000000005700000000000000000000005700000057000000000000000000000000000000000000000000000000000000000000000000000000000000000000000000000000
#003320:0000000000000000000000000000000000000000000000000000000000000059000000000000000000000000000000000000000000000059000000590000000000000058000000000000000000000000000000000000000000000000000000000000000000000000000000000000000000000000000000000000000000000000
#004370:52525252525252525252525252525252525252525200000052525252525252525252525252525252525252525252525252000000000052525252525252525252
#004360:0056000000000000000000000000000000000000000000000000000000000000005600000056000000000000000000000055000000550000005500000056000000560000005600000000000000000000000000000056000000560000000000540000000000000000000000000000000000000000000000000000005500000055
#004340:0000005600000000000000000000000000000057000000570000005700000056000000560000000000000000000000000000000000000000000000560000005600000056000000000000000000000000000000000000005600000056000000000000000000000000000000000000005a00000059005700000000000000000000
#004350:0000000000580000005900000058000000570000005700000057000000570000000000000000005600000000000000000000005500000055000000000000000000000000000000000059000000590000005800000000000000000000005600000000000000000000000000000000000000000000000000570055000000550000
#004330:0000000000000058000000000000005800000000000000000000000000000000000000000000000000000000000000000000000000000000000000000000000000000000000000000000000000000000000000580000000000000000000000000000000000000000000000000000000000590000000000000000000000000000
#004320:000000000000000000000059000000000000000000000000000000000000000000000000000000000000000000000000000000000000000000000000000000000000000000000059000000590000005900000000000000000000000000000000000000000000000000000000005a000000000000000000000000000000000000
#005370:52525252525252525252525252525252525252525252525252525252525252523200000000000000320000000000000022000000000000000000000000000000
#005320:005a0000005a00000000000000000000005b0000005b00000000000000000000000000000000000000000000000000000000000000000000000000000000000000000000000000000000000000000000000000000000000000000000000000000000000000000000000000000000000000000000000000000000000000000000
#005340:0000005a0000005a000000590000000000000000000000000056000000560000005600000000000000560000005600000056000000000000005600000000000000000000000000000000000000000000000000000000000000000000000000000000000000000000000000000000000000000000000000000000000000000000
#005330:000000000000000000590000000000000000005b0000005b0000000000000000000000000057000000000000000000000000000000000000000000000000000000000000000000000000000000000000000000000000000000000000000000000000000000000000000000000000000000000000000000000000000000000000
#005350:0000000000000000000000000055000000000000000000000000000000000000000000000000000000000000000000000000000000550000000000000000000000000000000000000000000000000000000000000000000000000000000000000000000000000000000000000000000000000000000000000000000000000000
#005360:0000000000000000000000000000005500000000000000000000005600000056000000560000005700000056000000560000005600000055000000560054005400000000000000000000000000000000000000000000000000000000000000000000000000000000000000000000000000000000000000000000000000000000
#0063b0:1323000000000000
#006350:0000132300000000
#006380:0013
#0063b0:00000000000000000000003300002300
#007380:00000000000000000000001300000000
#0073b0:0000000000000023
#008320:1323000000000000
#008380:0000132300000000
#008350:0013
#008320:00000000000000000000003300002300
#009380:0000000000150000
#009370:00000000000000000000000000000000000000000000000000000000000000000000000000000000005500550055005500550055005500550055005500550055
#009390:0000000000000000000000000000000000000000005555555555555555555555
#010380:25
#012350:00000000000000130000000000000000
#012320:0000000000230000
#013320:00000000000000000013000000000000
#013350:00000023
#0153b0:0013
#015380:00000000000000000000002300000000
#016320:0013
#016350:00000000000000000000332300000000
#017320:0000000000133300
#017350:0000000000000033
#018320:3323000000000000
#0183b0:0000001333003323
#018380:0000000000330000
#021320:00000000001300000000000000000000
#021350:0000000000000000000000333333333333000000230000000000000000000000
#0213b1:00000000001300000000000000000000
#021381:0000000000000000000000333333333333000000230000000000000000000000
#022351:00000000000000000000001300000000
#022321:0000000000000023
#023321:00000000000000001333333300330000
#023351:0000000000000023
#024351:0013
#024321:00000000000000000033333333332300
#025321:00000000001400000000002400000000
#025341:0054
#0253a0:00000000001400000000002400000000
#025380:0054
#026350:00000000000000130000000000000000
#026320:00000023
#027380:00000000000000000000001300000000
#0273b0:0000000000000023
#028350:00000000000000000000001300000000
#028320:0000000000000023
#029380:00000000001600362600000000000000
#0293b0:00000000000000000000000000133333
#030380:23
#030320:0000001300000000
#030350:0023
#0303b0:00000000000000000000000000000013
#031380:00000023
#030321:00000000000000000000000000000013
#031351:00000023
#032381:00000000001300000000000000000000
#0323b1:00000000000000230000000000000000
#0333b1:0000000013000023
#033381:00000000000000000000003300000000
#034321:0000000013000023
#034351:00000000000000000000003300000000
#0353a1:14000000000000003400002400000000
#035361:00540000
#035321:0000000000000013
#036351:0023000000000000
#036321:00000000000000000013000000000000
#036351:00000023
#037351:0000000013000023
#037321:00000000000000000000003300000000
#038381:0000000013000023
#0383b1:00000000000000000033333300000000
#039381:13000023
#0393b1:0000005300000000
#039320:13000023
#039350:0000005300000000
#041380:00000013000000000000000000000000
#0413b0:0000002300000000
#042380:0000142400000000
#042350:00000000000000000013000000000000
#042320:00000023
#043320:00000000000000000013000000005300
#043350:00000000000000000000003333000000
#044320:23
#0433b1:00000013
#043381:0000000000000053
#044381:23
#044381:0013000000000000
#0443b1:00000033333333332300000000000000
#045351:13
#045321:00333333333333332300000000000000
#0463b1:13333333003333333300002300000000
#046381:00330000
#046321:00000000000000000000000000130000
#046351:00000000000000000000000000000033
#047351:23
#047321:0000000000000000150000560000250000000000000000000000000000000000
#047331:0000000000000000000000000000000000000000000000000000000000000000000000005500000000550000000000550000000055000000000000000000000000000000000000000000000000000000000000000000000000000000000000000000000000000000000000000000000000000000000000000000000000000000
#047351:000000000000000000000000000000000000000000000000000000000000000000000000000000000000000000000000000000000000000000000000000000000000000000000000000000000000000000000000000000000000000000000000000000000000000000000000000000000000000000000000000000000000000000000000000000000000000000000000000000000000000000000000000000000000000000000000000000000000000000000000000000000000000000000000000000000000000000000000000000000000000000000000000000000000000000000000000000000000000000000000000000000000000000000000000000000000000000000000000000000000000000000000000000000000000000000000000000000000000000000000000000000000000000000000000000000000000000000000000000000000000000000000000000000000000000000000000000000000000000000000000000000000000000000000000000000000000000000000000000000000000000000000000000000000000000000000000000000000000000000000000000000000000000000000000000000000000000000000000000000000000000000000000000000000000000000000000000000000000000000000000000000000000000000000000000000000000000000000000000000000000000000000000000000000000000000000000000000000000000000000005300000000000000000000000000000000000000000000000000000000000000000000000000000000000000000000000000000000000000000000000000000000000000000000000053000000000000000000000000000000000000000000000000000000000000000000000000000000000000000000000000000000000000000000000000000000000000000000000000000000000000000000000000000000000000005300000000000000000000000000000000000000000000000000000000000000000000000000000000000000000000000000000000000000000000000000000000000000000000000053000000000000000000000000000000000000000000000000000000000000000000000000000000000000000000000000000000000000000000000000000000000000000000000000000000000000000000000000000000000000000000000000000000000000000000000000000000000000000000000000000000000000000000000000000000000000000000000000000000000000000000000000000000000000000000000000000000000000000000000000000000000000000000000000000000000000000000000000000000000000000000000000000000000000000000000000000000000000000000000000000000000000000000000000000000000000000000000000000000000000000000000000000000000000000000000000000000000000000000000000000000000000000000000000000000000000000000000000000000000000000000000000000000000000000000000000000000000000000000000000000000000000000000000000000000000000000000000000000000000000000000000000000000000000000000000000000000000000000000000000000000000000000000000000000000000000000000000000000000000000000000000000000000000000000000000000000000000000000000000000000000000000000000000000000000000000000000000000000000000000000000000000000000000000000000000000000000000000000000000000000000000000000000000000000000000000000000000000000000000000000000000000000000000000000000000000000000000000000000000000000000000000000000000000000000000000000000000000000000000000000000000000000000000000000000000000000000000000000000000000000000000000000000000000000000000000000000000000000000000000000000000000000000000000000000000000000000000000000000000000000000000000000000000000000000000000000000000000000000000000000000000000000000000000000000000000000000000000000000000000000000000000000000000000000000000000000000000000000000000000000000000000000000000000000000000000000000000000000000000000000000000000000000000000000000000000000000000000000000000000000000000000000000000000000000000000000000000000000000000000000000000000000000000000000000000000000000000000000000000000000000000000000000000000000000000000000000000000000000000000000000000000000000000000000000000000000000000000000000000000000000000000000000000000000000000000000000000000000000000000000000000000000000000000000000000000000000000000000000000000000000000000000000000000000000000000000000000000000000000000000000000000000000000000000000000000000000000000000000000000000000000000000000000000000000000000000000000000000000000000
#047380:00000000000000000000000000000000150000000000005600005600000000000000000000000000000000000000000000000000000000000000000000000000
#047390:00000000000000000000000000000000000055000055000000000000240000000000000000000000000000000000000000000000000000000000000000000000
#0473b0:000000000000000000000000000000000000000000000000000000000000000000000000000000000000000000000000000000000000000000000000000000000000000000000000000000000000000000000000000000000000000000000000000000000000000000000000000000000000000000000000000000000000000000000000000000000000000000000000000000000000000000000000000000000000000000000000000000000000000000000000000000000000000000000000000000000000000000000000000000000000000000000000000000000000000000000000000000000000000000000000000000000000000000000000000000000000000000000000000000000000000000000000000000000000000000000000000000000000000000000000000000000000000000000000000000000000000000000000000000000000000000000000000000000000000000000000000000000000000000000000000000000000000000000000000000000000000000000000000000000000000000000000000000000000000000000000000000000000000000000000000000000000000000000000000000000000000000000000000000000000000000000000000000000000000000000000000000000000000000000000000000000000000000000000000000000000000000000000000000000000000000000000000000000000000000000000000000000000000000000000005300000000000000000000000000000000000000000000000000000000000000000000000000000000000000000000000000000000000000000000000000000000000000000000000000000000000000000000000000000053000000000000000000000000000000000000000000000000000000000000000000000000000000000000000000000000000000000000000000000000000000000000000000000000000000000000000000000000000000000000000000000000000000000000000000000000000000000000000000000000000000000000000000000000000000000000000000000000000000000000000000000000000000000000000000000000000000000000000000000000000000000000000000000000000000000000000000000000000000000000000000000000000000000000000000000000000000000000000000000000000000000000000000000000000000000000000000000000000000000000000000000000000000000000000000000000000000000000000000000000000000000000000000000000000000000000000000000000000000000000000000000000000000000000000000000000000000000000000000000000000000000000000000000000000000000000000000000000000000000000000000000000000000000000000000000000000000000000000000000000000000000000000000000000000000000000000000000000000000000000000000000000000000000000000000000000000000000000000000000000000000000000000000000000000000000000000000000000000000000000000000000000000000000000000000000000000000000000000000000000000000000000000000000000000000000000000000000000000000000000000000000000000000000000000000000000000000000000000000000000000000000000000000000000000000000000000000000000000000000000000000000000000000000000000000000000000000000000000000000000000000000000000000000000000000000000000000000000000000000000000000000000000000000000000000000000000000000000000000000000000000000000000000000000000000000000000000000000000000000000000000000000000000000000000000000000000000000000000000000000000000000000000000000000000000000000000000000000000000000000000000000000000000000000000000000000000000000000000000000000000000000000000000000000000000000000000000000000000000000000000000000000000000000000000000000000000000000000000000000000000000000000000000000000000000000000000000000000000000000000000000000000000000000000000000000000000000000000000000000000000000000000000000000000000000000000000000000000000000000000000000000000000000000000000000000000000000000000000000000000000000000000000000000000000000000000000000000000000000000000000000000000000000000000000000000000000000000000000000000000000000000000000000000000000000000000000000000000000000000000000000000000000000000000000000000000000000000000000000000000000000000000000000000000000000000000000000000000000000000000000000000000000000000000000000000000000000000000000000000000000000000000000000000000000000000000000000000000000000000000000000000000000000000000000000000000000000000000000000000000000000000000000000000000000000000000000000000000000000000000
#048320:0013
#048350:000000000000000000000000000033330023000000000000
#0483b0:000000000000000000000000000000000000000013333333
#049380:330000000000000033230000000000000000000000000000
#0493b0:000000330033000000000000000000000000000000000000
#049350:000000000000000000000013000000000000000000000000
#049320:000000000000000000000000000033330033330033330033
#050320:23
#050350:0013
#050320:000000000000000000000000000033330023000000000000
#050380:000000000013
#0503b0:000000000000000000000000000000000000000000333333
#0513b0:23
#051320:000000001300000000230000
#051350:000000000000000000000033000000000000000000000000
#0523b0:0013
#052380:000000000000000000000000000033330023000000000000
#052320:000000000000000000000000000000000000000013333333
#053350:330000000000000033230000000000000000000000000000
#053320:000000330033000000000000000000000000000000000000
#053380:000000000000000000000013000000000000000000000000
#0533b0:000000000000000000000000000033330033330033330033
#0543b0:23
#054380:0013
#0543b0:000000000000000000000000000033330023000000000000
#054350:000000000013
#054320:000000000000000000000000000000000000000000333333
#055320:332300000000000000000000
#0563b0:0013
#057380:23
#060360:00000000000000001300002300000000
#0603b1:00000000000000000000001300002300
#0613b1:00133333330000000000000000000000
#061381:00000000002300000000000000000000
#061321:00000000000000133333330000000000
#061351:00000000000000000000002300000000
#063321:00000000000000000000000000000013
#064351:00000023
#0633b0:00000000000000000000000000000013
#064380:00000023
#066320:0000000013000023
#066350:00000000000000000000003300000000
#0673b0:0000000013000023
#067380:00000000000000000000003300000000
#068320:14000000000000003400002400000000
#068360:00540000
#0683b0:0000000000000013
#069380:0023000000000000
#0693b0:00000000000000000013000000000000
#069380:00000023
#070380:0000000013000023
#0703b0:00000000000000000000003300000000
#071350:0000000013000023
#071320:00000000000000000033333300000000
#072350:13000023
#072320:0000005300000000
#0723b1:13000023
#072381:0000005300000000
#074351:00000013000000000000000000000000
#074321:0000002300000000
#075341:0000142400000000
#075381:00000000000000000013000000000000
#0753b1:00000023
#0763b1:00000000000000000013000000005300
#076381:00000000000000000000003333000000
#0773b1:23
#076320:00000013
#076350:0000000000000053
#077350:23
#077380:0000132300000000
#077350:0013
#077320:00000000000000000000003300002300
#078350:00000000000000000000001300000000
#078320:0000000000000023
#079380:1323000000000000
#079350:0000132300000000
#079380:0013
#0793b0:00000000000000000000003300002300
