This file was generated by Ched 2.7.0.0.
#TITLE ""
#ARTIST ""
#DESIGNER ""
#DIFFICULTY 0
#PLAYLEVEL
#SONGID ""
#WAVE ""
#WAVEOFFSET 0
#JACKET ""
#REQUEST "ticks_per_beat 480"
#00002: 4
#BPM01: 128
#00008: 01
#TIL00: ""
#VOLUME: ""
#HISPEED 00
#MEASUREHS 00
#0071b:00130000130013000000000000000000
#00718:00000013000000000000001300000000
#00712:0016001600160016
#00916:00120000001200120000000000000000
#00914:12000012000012000000000000000000
#00918:0012120022000000
#0091a:12000012000012000000000000000000
#0101b:00001300000000000000131300000000
#01019:00131300
#01017:0000001300000000
#01012:0000001300000013
#01015:00000000000000000000000000000013
#01016:0013000000130000
#01010:41
#01118:13000000000000000000001300000000
#0111b:0013001300130013
#01117:00130000
#01116:00001300000013130000000000000000
#01112:0000130000000013
#01115:00000013
#01218:13000000130000000000001300001300
#01215:13000000130000000000000013000013
#01212:00001300000000000000000000130000
#0121b:0013000000130000
#0131a:14000000000014000014000000000000
#01312:0014140014000000
#01316:00140014001400140000000000000000
#01612:00001300000013000000131300000000
#0161b:0013001300000013
#01618:13000000130000001300000000000013
#01615:00131300
#01715:1300131300000000
#01712:00001300000000130000000000000000
#0171b:00001300000000130000130000000000
#01718:00000000001300000000000000000000
#0181b:13
#01815:0013000000000000
#01812:0000001300000013
#01814:00001313
#01816:0000000000130000
#01818:00130000000000001300000013000000
#0181a:0000001300000013
#0211a:00000000001414000000000000001400
#02116:0000000000000000000000140000140000000000140014000000140014000000
#02112:260000002600000000000000001400141c000000000014000000000000000000
#02118:2626000000000000
#02212:13000000000000001300001300000000
#02216:1413140000000000
#0221b:00000000130000001300001300000000
#02217:0000001300000000
#02215:0000000000130000
#02218:00000000000000000013000000000000
#0251a:0000000000140014
#02515:00000000000000130000000000000000
#02514:00000000000014000013000000000000
#02512:2626000000140014
#02513:0015
#02518:26002600002214131500000000000000
#02519:00000000000000000013000000000000
#02516:00000000002200000000000000000000
#02616:1400000000000014
#02612:000000000000140000000000000000000000000000140000000000000000000000000000000000001400000000000000
#02618:00130014
#02615:00000000001300000000000000000000
#0261a:00001400000000140000140000000000
#02614:000000000000000000000000000000000014000000000000
#02717:0014001400000000
#02714:00140000
#0271a:1400000000000000000000000000000014000000000000000014000000000000
#02716:00000000000000000000141400000000
#02712:1212121212121212
#02710:41
#0291b:00000000000000000000000000130000
#02918:0000000000000013
#02915:00000000000000000000000000000013
#02916:0000000000000000000000000014000024000000000000000000000000000000
#0291a:24002400002400000000002400000000
#02912:24002400002400000000000000000000
#03012:13130013
#0301b:0013001300001300
#03017:0013131300000000
#03016:0000000000000000000000000000000000000000141400000000000000000000
#03015:00000000000000000000000000000013
#03218:13
#0321b:0013130000230000
#03217:00000000131300000000000000000000
#03212:0013000000260000
#03216:00000000000000130000000000000000
#03319:00001300000000130000000000000000
#03317:00000000130000000000131300000000
#03312:23000000130018001300131300000000
#03314:0013000000000000
#0331b:2313
#03517:0000000000000013
#0351b:13003300003333330000000000000000
#03512:0000130000000013
#03510:41
#0361b:00001300000013130000000013000000
#03617:00000000130000000013000000000000
#03618:0000000000000013
#03612:00000000000000000013000000000000
#03615:0000000000000013
#03616:00000000000000130000000000000000
#03719:0013000000000000
#0371b:23130000
#03714:0013000000000000
#03716:00130000
#03718:00000000000013001600000000130000
#03715:00000000000000130000131600000000
#03712:2300000013000016
#04016:00120012001200000000000000000000
#04018:00001200120000000023000000000000
#0401b:00000000000000130000001300002300
#04015:00000000000000000013000000000000
#04012:00000000000000230000002300001300
#04017:0000000000000000000000000000000000000000000000000013000000000000
#04112:13130000
#04115:0013001300002400
#04114:000000000000000000000000000000130000000024000000
#0411b:13131313
#04118:00000013000000000000000000000000
#04113:000000000000000000000024
#0431b:00130000000000000013000000001300
#04319:00000013000000000000000000000000
#04317:00000000000013130000000013000000
#04312:13000013
#04314:0013000000000000
#04316:0000130000000013
#04318:0000000000130000
#04315:00000000000000000000001300000000
#04416:00000012000012000000000000000000
#04412:00001200000000000000001200000000
#04414:00120000
#04418:00000000001200001200121200000000
#0441a:00000000000000120000000000000000
#0441c:00000000000000000000000000121200
#0451c:1212
#04516:00120000000000120000000000121200
#04512:00000012000000000000121200000000
#04518:00001200120000000000001200000000
#04514:00000000001200000000000000000000
#0451a:0000001200000000
#04612:12000000000000001200000000160016
#0461c:00120000000000001200000000000000
#04614:0012001200000000
#0461a:00000012000000120000000000000000
#04616:00120000
#04618:00000000001200000000000000001600
#04817:1300130000000013
#04812:130000130000130000130000000000000016000013000000
#0481b:0013001300000000
#04815:000000000000001600000000
#04814:000000000000000000000013
#04819:000000000000000000000000000000000000000000000013
#04810:41
#04916:13
#0491b:000000130013000013130000000000000000000000000000
#04912:000000000013000000000013000000160000000000000013
#04915:000000000000000000000000000000000013160000160000
#04917:000000000000000000000013000000000000000000000000
#04918:000000000013
#05114:0013001300000000
#05119:001300001300000000000000
#0511b:000000000013000000000000000000000000000000000013
#05118:000000000013
#05115:0000000000000013
#05112:1313
#05116:00130000
#05117:000000000000000000000013000000000000000000000000
#05216:0014001400000000
#05215:0000000000130000
#05218:000000130000001300000000
#0521b:130000130000000000130000130000000013000000000000
#05217:000000000013
#05212:240000000000240000000000240000000013000000130000
#05219:000000000000000000000013
#05214:000000000000000000000000000000000000000000000013
#0531b:130000000013000000000000000000000000000000000000
#05317:000000000000000013130000000000000000000000000000
#05316:000000000013000000000000000014000014000014000014
#05312:000000130000000000000024000000240000000000240000
#0531a:000000000000000000000024000000000000240000000000
#05516:000014000000130000000023000014000014000000140000
#05512:000000001300000000140000
#05517:0000001300000000
#0551b:000000000013000000000023000000000000000000000000
#0551a:000000000014
#0611b:00000000000000000000000000130000
#06115:00000000000000002400240000000013
#06118:00000000000000000024000000001300
#0611a:00240000002400000000000000000000
#06117:0024240000000000
#06114:00000024000000000000000000000000
#06112:00000000000000240000002400000000
#06218:1616000000160000
#06212:16001600000000001300001600000000
#0621b:0000001300000000
#06216:0000001414000000
#08014:12000000000000120000000000000000
#08016:00120000000000000000000022000000
#08018:00001200001200000000000022000000
#0801a:12000012000012002200000000000000
#0061b:0013
#00617:00000000000000000000001300000000
#00612:0016001600160016
#0191a:00000000000000000000141400000000
#01916:00000000000000000000001400001400
#01912:26002600000000001600000000141400
#01918:2626000000000000
#01910:41
#02018:2626001313001313
#0201b:0000001300000013
#02015:0000000013131300
#02012:2626000000130000
#02312:26002600001300000013000000131300
#02315:0000000000000000000000001300000000000000001300000000000000000000
#02318:26002600000000130000130000000000
#0231b:00000000000000001300001300000000
#04214:0000000000000013
#0421b:13131313
#04216:00002400000000000013000000000000
#04219:0000000000000013
#04212:24240000
#05018:160000000000000000000000000000000016000000130000
#0501b:000000130000130000130000000000000000000000000013
#05012:000000130000000000130000000000000000000013000000
#05016:00130000
#05015:000000000000001600000013
#05612:0000000000000000000000000000000022150000000000000000000000000000
#05619:0000000000000000000000000000000022150000000000000000000000000000
#05618:0000000000000000000013160000000000000000000000000000000000000000
#0571d:1111111100000000
#05717:1111111100000000
#05712:0021
#05718:0021
#05818:0012001200120012
#0581c:0000000000120012
#05812:12120000
#0581a:1212
#05816:00120012
#0581f:11
#05918:0012001200120012
#0591c:0000000000120012
#05912:12120000
#0591a:1212
#05916:00120012
#06018:0012001200120012
#0601c:0000000000120012
#06012:12120000
#0601a:1212
#06016:00120012
#07012:2413130013000013
#07015:00000000000013000013000000000000
#07018:00000000000000130000130000000000
#07017:0013000000000000
#0701b:00000000130000000000001300000000
#0701a:24
#02412:26002600001200000000000000001200
#0241c:00000000001200120000000000000000
#02418:26002600000000001200001200000000
#0241a:00000000000000000012000000000000
#02416:00000000000000000000120000120000
#02414:00000012
#00518:0000000000161600
#00512:0000000000161600
#00812:0013
#00816:00000000000000000000001300000000
#00818:0016001600160016
#01412:00001300000000000000131300000000
#01414:00131300
#01416:1300001300000000
#0141b:1300001300000013
#01418:00000000000000000000000000000013
#01417:0013000000130000
#01515:13000000000013000000000000000013
#01512:0013000013000013
#01516:00130000
#01518:00000000000000130000000000000000
#0151b:00131300
#01517:0013000000000000
#02812:1400000000000000000000000000000014000000000000000014000000000000
#02815:0014001400000000
#02818:00140000
#02816:00000000000000000000141400000000
#0281c:1212121212121212
#03112:000000001c000000000000001c000013000000001c000000000000001c000000
#03414:00001300000000130000000000000000
#03416:00000000130018000000131300000000
#0341b:23000000130000001300131300000000
#03419:0013000000000000
#03412:2313
#03814:0013000000000000
#03812:23000000130000001400001400000000
#03819:0013000000000000
#03817:00130000
#03815:0000001300000000
#03818:00000000000000130000000000000000
#03816:00000000000000000014000000000000
#0381a:0000000000140014
#0381b:23
#03915:0000000023000013
#0391b:00000000000000000000001300000000
#03912:2326292c00000000
#03918:00000000000000230000000000000000
#04718:1600250000260000
#04712:0013250000260000
#0471b:0013000000000000
#05416:000000140000000000140000000000000000000013000000
#05418:0000000000130000
#05415:000000130000001300000000
#05412:130000130000000000130000130000000013000000000000
#0541b:000000000000000000000000000000000013000000130000
#05414:000000000000000000000013
#05419:000000000000000000000000000000000000000000000013
#0541a:24242400
#0631a:0014
#06316:0000000000000000000000000000000000000000141400000000000000000000
#06312:00000013
#06318:00000000000000000000000000000013
#0631b:00000013
#06515:13
#06512:0013161600260000
#0651b:0013000000000000
#06518:00000000001600160000260000000000
#0641b:0000000000000000000000000000001300000000000000000000000000000000
#06412:001c001c001c001c
#06615:0013000000000000
#06612:24131400
#0661a:2400001414000000
#0661b:00000000130000000000131300000000
#06618:0013000000000000
#06616:00000000000000140000131300000000
#0661f:21
#06718:0013000000000000
#0671b:00130000
#06712:24000000130014001400131300000000
#06715:0013000000000000
#06716:00000000000000140000000000000000
#0671a:2414
#06717:00000000000000000000131300000000
#06710:41
#06812:13003300003333330000000000000000
#0681b:0000130000000013
#06816:0000000000000013
#06912:00001300000013130000000013000000
#06916:00000000130000000013000000000000
#06915:0000000000000013
#0691b:00000000000000000013000000000000
#06918:0000000000000013
#06917:00000000000000130000000000000000
#0711b:0013130013000013
#07118:00000000000013000013000000000000
#07115:00000000000000130000130000000000
#07116:0013000000000000
#07112:24000000130000000000001300000000
#0711a:24
#07316:0000000012000000120000000000000000000000000000000013000000000000
#07318:00000012001200000013000000000000
#07312:00000000000000130000001300002300
#0731b:00000000000000230000002300001300
#07315:00000000000000000023000000000000
#0741b:13130000
#07418:000000130000000000130000000000000000000024000000
#07419:000000000000000000000000000000130000000000002400
#07412:13131313
#07415:00000013000000000000000000000000
#07417:00000024
#07612:00130000000000000013000000001300
#07614:00000013000000000000000000000000
#07616:00000000000013130000000013000000
#0761b:13000013
#07619:0013000000000000
#07617:0000130000000013
#07615:0000000000130000
#07618:00000000000000000000001300000000
#07519:0000000000000013
#07512:13131313
#07517:00000000000000000013000000000000
#07514:0000000000000013
#0751a:24240000
#07516:0024000000000000
#07218:0026000023000013
#07212:0000000000002c000000001300000000
#0721b:23
#07215:00000000290000230000000000000000
#07812:00130000130013000000001300000000
#07815:00000013000000000033330000000000
#07818:0016001600160016
#07816:0000000000000000000000000000000000000000000000000013000000000000
#07715:00131300
#07712:00001300000013000000001300000000
#07718:0016001600160016
#07918:13131300
#0791b:00001300000013000000001300000000
#07912:0016001600160016
#0075b:0000131300000000
#00752:0036003600360036
#00758:00000000000000000000005300000000
#0105b:00000000000000000000005300000000
#0065b:0023
#00657:00000000000000000000002300000000
#00652:0036003600360036
#01156:00000000000000530000000000000000
#01658:0053
#01956:00000000000000000000001400001400
#01952:16
#01958:0016000000000000
#02058:1600003343004333
#02055:0000000033433300
#02052:0016000000330000
#0205b:0000004300000043
#02152:16000000000000004c00001400000000
#0215a:0000000000000014
#02158:0016000000000000
#0225b:00000000000000000000005300000000
#02252:00000000000000000000005300000000
#0235b:00000000000000000000005300000000
#02352:0016000000000000
#02358:16
#02756:00000000000000000000005400000000
#0275a:0000000000000000000000000000000000000000000000000024000000000000
#0295a:00004400005400004400001400000000
#02952:34000000000000000000001400000000
#02956:0000000000000000000000000024000054000000000000000000000000000000
#0305b:0000005300005300
#03057:0000005300000000
#03055:00000000000000000000000000000053
#03257:00000000005300000000000000000000
#03252:0000000000160000
#0325b:0000000000130000
#03256:00000000000000530000000000000000
#03352:00000000000000000000005300000000
#03357:00000000000000000000005300000000
#0355b:53000000000000000000003300000000
#03552:0000230000000053
#03556:00000000000000000000003400000000
#03652:00000000000000000053000000000000
#04052:00000000000000130000001300000000
#04058:00000000000000000013000000000000
#0405b:00000000000000000000005300004300
#04057:0000000000000000000000000000000000000000000000000023000000000000
#04252:0000001400000000
#04256:00000000000000000053000000000000
#04356:0000530000000023
#04352:00000053
#04357:00000053
#0435b:0000000000000023
#04656:00000000000000000000001200000000
#04652:0052
#04658:00000000000000000000001200000000
#0465c:0052
#04956:53
#04952:000000000053000000000000000000160000000000000000
#04957:000000000000000000000053000000000000000000000000
#04955:0000000000001616
#0535b:53
#05356:000000000053000000000000000000000000000000000000
#05552:00000014
#05652:0000000000000000000000000000000052250000000000000000000000000000
#05659:0000000000000000000000000000000052250000000000000000000000000000
#05658:0000000000000000000053260000000000000000000000000000000000000000
#05858:0012001200000000
#0585c:0000000000120012
#05958:0012001200000000
#0595c:0000000000120012
#06058:0012001200000000
#0605c:0000000000120012
#0705b:00000000000000000000006300000000
#07052:0000000000000013
#07057:0000000000000013
#02456:00000000000000000000000000120000
#02452:1600000000000012
#02458:0016000000000000
#02553:00000000000000002500003200000000
#02552:0016000000240000
#02558:16000000006224632500000000000000
#02556:00000000005200000000000000000000
#02555:00000000000000530000000000000000
#02554:00000000000024000053000000000000
#02559:00000000000000000063000000000000
#0255a:0000000000240000
#0255b:00000000000000000000004200000000
#06258:1600000000460000
#06252:00001600000000000000003600000000
#08056:00000032
#08058:00000042
#00852:0023
#00856:00000000000000000000002300000000
#00858:0046004600460046
#01255:53000000530000330000000000000000
#01252:0023000000000000
#01258:63000000630000430000000000000000
#0125b:0023000000000000
#01352:00000014
#0135a:00000000000000000054000000000000
#01452:00000000000000000000006300000000
#0155b:0053
#01552:0053
#01752:00000000000000330000000000000000
#0175b:00000000000000430000000000000000
#0265a:00000000000000440000000000000000
#02652:00000000000000340000000000000000
#02856:00000000000000000000006400000000
#02852:0000000000000000000000000000000000000000000000000024000000000000
#03152:000000004c000000000000004c000023000000004c000000000000004c000000
#0345b:00000000000000000000006300000000
#03456:00000000000000000000006300000000
#03758:0016
#03755:00000000000000000000001600000000
#03752:0000000000000016
#03852:00000000000000000000005400000000
#03955:0053
#0395b:00000000000000000000002300000000
#03952:00000000000000000000001300000000
#04155:0000005300000000
#04452:33000000000000000000003200000000
#04457:33
#04458:0032
#0455c:0042
#04558:00000000000000000000004200000000
#04758:0000000000460000
#04752:0000000000360000
#04852:000000130000000000130000000000000036000000000000
#04855:000000000000003600000000
#05055:000000000000004600000000
#05058:000000000000000000000000000000000046000000000000
#0505b:0013001300000000
#05157:000000000000000000000053000000000000000000000000
#05152:0053
#0525b:0013001300000000
#05452:0013001300000000
#06352:00000063
#06358:00000000000000000000000000000063
#0645b:0000000000000000000000000000002300000000000000000000000000000000
#06452:003c003c003c003c
#06558:0000000000160000
#06552:0000000000160000
#0665b:00000000000000000000006300000000
#06656:00000000000000000000006300000000
#06657:0000000000000043
#06652:0000000000000043
#06752:00000000000000000000005300000000
#06757:00000000000000000000005300000000
#06756:0000000000000033
#0675b:0000000000000033
#06852:63000000000000000000004300000000
#0685b:0000230000000063
#06856:00000000000000000000004400000000
#0695b:00000000000000000063000000000000
#07152:00000000000000000000005300000000
#0715b:0000000000000013
#07156:0000000000000013
#07352:00000000000000000000006300003300
#07356:0000000000000000000000000000000000000000000000000023000000000000
#0735b:00000000000000130000001300000000
#07355:00000000000000000013000000000000
#07657:0000630000000023
#0765b:00000063
#07656:00000063
#07652:0000000000000023
#07252:00000000000000000000002300000000
#07258:0063
#0725b:00000000000000000000001300000000
#07557:00000000000000000063000000000000
#0755a:0000001400000000
#07458:0000006300000000
#0775b:43
#07756:43
#07755:0023
#07752:00000000000000000000002300000000
#07758:0046004600460046
#07852:00000000130013000000006300000000
#07858:0046004600460046
#07856:0000000000000000000000000000000000000000000000000023000000000000
#07958:0023
#0795b:00000000000000000000002300000000
#07952:0036003600360036
#000380:0000000000000000000000000000000000160000000000000000000000000000
#000390:000000000000000000000000000000000000000000000000000000000000000000000000000000000000000000000000000000000000000000000000000000000000000000000000000000000000000000000000000000000000000000000000000000000000000000000000000000000000000000000000000000000000000000000000000000000000000000000000000000000000000000000000000000000000000000000000000000000000000000000000000000000000000000000000000000000000000000000000000000000000000000000000000000000000000000000000000000000000000000000000000000000000000000000000000000000000000000000000000000000000000000000000000000000000000000000000000000000000000000000000000000000000000000000000000000000000000000000000000000000000000000000000000000000000000000000000000000000000000000000000000000000000000000000000000000000000000000000000000000000000000000000000000000000000000000000000000000000000000000000000000000000000000000000000000000000000000000000000000000000000000000000000000000000000000000000000000000000000000000000000000000000000000000000000000000000000000000000000000000000000000000000000000000000000000000000000000000000000000000000000000000000000000000000000000000000000000000000000000000000000000000000000000000000000000000000000000000000000000000000000000000000000000000000000000000000000000000000000000000000000000000000000000000000000000000000000000000000000000000000000000000000000000000000000000000000000000000000000000000000000000000000000000000000000000000000000000000000000000000000000000000000000000000000000000000000000000000000000000000000000000000000000000000000000000000000000000000000000000000000000000000000000000000000000000000000000000000000000000000000000000000000000000000000000000000000000000000000000000000000000000000000000000000000000000000000000000000000000000000000000000000000000000000000000000000000000000000000000000000000000000000000000000000000000000000000000000000000000000000000000000000000000000000000000000000000000000000000000000000000000000000000000000000000000000000000000000000000000000000000000000000000000000000000000000000000000000000000000000000000000005500000000000000000000000000000000000000000000000000000000000000000000000000000000000000000000000000000000000000000000000000000000000000000000000000000000000000000000000000000000000000000000000000000000000000000000000000000000000000000000000000000000000000000000000000000000000000000000000000000000000000000000000000000000000000000000000000000000000000000000000000000000000000000000000000000000000000000000000000000000000000000000000000000000000000000000000000000000000000000000000000000000000000000000000000000000000000000000000000000000000000000000000000000000000000000000000000000000000000000000000000000000000000000000000000000000000000000000000000000000000000000000000000000000000000000000000000000000000000000000000000000000000000000000000000000000000000000000000000000000000000000000000000000000000000000000000000000000000000000000000000000000000000000000000000000000000000000000000000000000000000000000000000000000000000000000000000000000000000000000000000000000000000000000000000000000000000000000000000000000000000000000000000000000000000000000000000000000000000000000000000000000000000000000000000000000000000000000000000000000000000000000000000000000000000000000000000000000000000000000000000000000000000000000000000000000000000000000000000000000000000000000000000000000000000000000000000000000000000000000000000000000000000000000000000000000000000000000000000000000000000000000000000000000000000000000000000000000000000000000000000000000000000000000000000000000000000000000000000000000000000000000000000000000000000000000000000000000000000000000000000000000000000000000000000000000000000000000000000000000000000000000000000000000000000000000000000000000000000000000000000000000000000000000000000000000000000000000000000000000000000000000000000000000000000000000000000000000000000000000
#001390:55555555555555555500000000000000555555555555555555000000000000000000000000000000000000000000555555555555555555555555555555555500
#0013d0:0051005100000000000000000000000000000000000000000000000000000000005100510000000000000000000000000000000000000000000000000000000000000000000000000000000000000000000000000000000000000000000000510000005100000000000000000000005100000000000000510000000000000000
#0013b0:0000000000530000005300530000000000000000000000000000000000000000000000000053000000530053000000000000000000000000000000000000000000000000000000000000000000000000000000000000000000000000000000000053000000000000000000530000000000530053000000000053005300000000
#0013c0:0000000000000052000000000000000000000000000000000000000000000000000000000000005200000000000000000000000000000000000000000000000000000000000000000000000000000000000000000000000000000000005200000000000000000052000000000052000000000000005200000000000000000000
#0013a0:0000000000000000000000000054005400000000000000000000000000000000000000000000000000000000005400540000000000000000000000000000000000000000000000000000000000000000000000000000000000000000000000000000000000540000005400000000000000000000000000000000000000000000
#002390:00000000000000000000000000005555555555555555555555555555555555555555555555555555555555555555555555555500000000000000000055555555
#0023a0:0000000000000000000000000000000000000000000000000000000000540000000000000000000000540000005400000000000000540000000000000054000000000000000000000000000000540000005400000054000000540000005400000054000000000000000000000000000000000000000000000000000000000000
#0023c0:0000000000000000000000000000000000000000000000000000000000000052000000000000000000000000000000000052000000000000000000000000000000520000000000000000000000000052000000000000000000000000000000520000000000000000000000000000000000000000000000000000000000520000
#0023b0:0000000000000000000000000000000000000000000000000000000000000000005300000053000000000000000000000000000000000000005300000000005300000000005300000053000000000000000000530000005300000000000000000000005300000000000000000000000000000000000000000000005300000053
#0023d0:0000000000000000000000000000000000000000000000000000000000000000000000510000005100000051000000510000005100000051000000510000000000000051000000510000005100000000000000000000000000000051000000000000000000000000000000000000000000000000000000000051000000000000
#003390:55555555555555555555000000005555555555555555550000005555555555555555555555555555555555555555000000000000000000000000000055555555
#0033c0:0052000000000000005200000000000000000000000000000000000000000000000000000052000000520000000000000000000000000000000000000000000000000000005200000052000000000000000000000052000000520000000000000000000000000000000000000000000000000000000000000000000000000000
#0033a0:0000005400000000000000000000005400000000000000000000000000000000000000540000005400000054000000000000000000000000000000000000005400000054000000540000005400000054000000540000005400000000000000000000000000000000000000000000000000000000000000000000005400000054
#0033d0:0000000000510000000000000000000000000000000000000000000000510000005100000000000000000000000000000000000000510000005100000051000000510000000000000000000000510000005100000000000000000000000000000000000000000000000000000000000000000000000000000000000000000000
#0033b0:0000000000000053000000530053000000530000000000000000000000000053000000000000000000000000000000000000000000000053000000530000000000000000000000000000000000000000000000000000000000000000000000000000000000000000000000000000000000000000000000000053000000530000
#004390:55555555555555555555555555555555555555555500000055555555555555555555555555555555555555555555555555000000000055555555555555555555
#0043c0:0052000000000000000000000000000000520000005200000052000000520000005200000052000000000000000000000000000000000000000000000052000000520000005200000000000000000000000000000052000000520000000000000000000000000000000000000052000000520000000000520000000000000000
#0043a0:0000005400000000000000000000000000000000000000000000000000000054000000540000000000000000000000000000005400000054000000540000005400000054000000000000000000000000000000000000005400000054000000540000000000000000000000000000000000000000000000000054000000540000
#0043d0:0000000000510000005100000051000000000000000000000000000000000000000000000000000000000000000000000000000000000000000000000000000000000000000000000051000000510000005100000000000000000000000000000000000000000000000000000000005100000051000000000000000000000000
#0043b0:0000000000000053000000530000005300000053000000530000005300000000000000000000005300000000000000000053000000530000005300000000000000000000000000530000005300000053000000530000000000000000005300000000000000000000000000000000000000000000005300000000005300000053
#005390:550000000000000000000000000000000000000000000000000000000000550000000000000000000000000000000000000000000000000000000000550000000000000000000000000000000000000000000000000000000000550000000000000000000000000000000000000000000000000000000000550000000000000000000000000000000000000000000000000000000000550000000000000000000000000000000000000000000000000000000000550000000000000000000000000000000000000000000000000000000000550000000000000000000000000000000000000000000000000000000000550000000000000000000000000000000000000000000000000000000000550000000000000000000000000000000000000000000000000000000000550000000000000000000000000000000000000000000000000000000000550000000000000000000000000000000000000000000000000000000000550000000000000000000000000000000000000000000000000000000000550000000000000000000000000000000000000000000000000000000000550000000000000000000000000000000000000000000000000000000000550000000000000000000000000000000000000000000000000000000000550000000000000000000000000000000000000000000000000000000000550000000000000000000000000000000000000000000000000000000000550000000000000000000000000000000000000000000000000000000000550000000000000000000000000000000000000000000000000000000000550000000000000000000000000000000000000000000000000000000000550000000000000000000000000000000000000000000000000000000000550000000000000000000000000000000000000000000000000000000000550000000000000000000000000000000000000000000000000000000000550000000000000000000000000000000000000000000000000000000000550000000000000000000000000000000000000000000000000000000000550000000000000000000000000000000000000000000000000000000000550000000000000000000000000000000000000000000000000000000000550000000000000000000000000000000000000000000000000000000000550000000000000000000000000000000000000000000000000000000000550000000000000000000000000000000000000000000000000000000000550000000000000000000000000000000000000000000000000000000055000000000000000000000000000000000000000000000000000000000000000000000000000000000000000000000000000000000000000000000000000000000000000000000000000000000000000000000000000000000000000000000000000000000000000000000000000000000000000000000000000000000000000000000000000000000000000000000000000000000000000000000000000000000000000000000000000000000000000000000000000000000000000000000000000000000000000000000000000000000000000000000000000000000000000000000000000000000000000000000000000000000000000000000000000000000000000000000000000000000000000000000000000000000000000000000000000000000000000000000000000000000000000000000000000000000000000000000000000000000000000000000000000000000000000000000000000000000000000000000000000000000000000000000000000000000000000000000000000000000000000000000000000000000000000000000000000000000000000000000000000000000000000000000000000000000000000000000000000000000000000000000000000000000000000000000000000000000000000000000000000000000000000000000000000000000000000000000000000000000000000000000000000000000000000000000000000000000000000000000000000000000000000000000000000000000000000000000000000000000000000000000000000000000000000000000000000000000000000000000000000000000000000000000000000000000000000000000000000000000000000000000000000000000000000000000000000000000000000000000000000000000000000000000000000000000000000000000000000000000000000000000000000000000000000000000000000000000000000000000000000000000000000000000000000000000000000000000000000000000000000000000000000000000000000000000000000000000000000000000000000000000000000000000000000000000000000000000000000000000000000000000000000000000000000000000000000000000000000000000000000000000000000000000000000000000000000000000000000000000000000000000000000000000000000000000000000000000000000000000000000000000000000000000000000000000000000000000000000000000000000000000000000000000000000000000000000000000000000000000000
#0053c0:0052000000520000005200000000000000000000000000000000005200000052000000520000000000000052000000520000005200000000000000520000000000000000000000000000000000000000000000000000000000000000000000000000000000000000000000000000000000000000000000000000000000000000
#0053d0:0000005100000051000000510000000000510051005100510000000000000000000000000000005100000000000000000000000000000000000000000000000000000000000000000000000000000000000000000000000000000000000000000000000000000000000000000000000000000000000000000000000000000000
#0053a0:0000000000000000000000000054000000000000000000000054000000540000005400000054000000540000005400000054000000540000005400000054005400000000000000000000000000000000000000000000000000000000000000000000000000000000000000000000000000000000000000000000000000000000
#0053b0:0000000000000000000000000000005300000000000000000000000000000000000000000000000000000000000000000000000000000053000000000000000000000000000000000000000000000000000000000000000000000000000000000000000000000000000000000000000000000000000000000000000000000000
#005380:0026
#000321:000000000000000000000000000000000000000000000000000000000000000000000000000000000000000000000000000000000000000000000000000000000000000000000000000000000000000000000000000000000000000000000000000000000000000000000000000000000000000000000000000000000000000000000000000000000000000000000000000000000000000000000000000000000000000000000000000000000000000000000000000000000000000000000000000000000000000000000000000000000000000000000000000000000000000000000000000000000000000000000000000000000000000000000000000000000000000000000000000000000000000000000000000000000000000000000000000000000000000000000000000000000000000000000000000000000000000000000000000000000000000000000000000000000000000000000000000000000000000000000000000000000000000000000000000000000000000000000000000000000000000000000000000000000000000000000000000000000000000000000000000000000000000000000000000000000000000000000000000000000000000000000000000000000000000000000000000000000000000000000000000000000000000000000000000000000000000000000000000000000000000000000000000000000000000000000000000000000000000000000000000000000000000000000000000000000000000000000000000000000000000000000000000000000000000000000000000000000000000000000000000000000000000000000000000000000000000000000000000000000000000000000000000000000000000000000000000000000000000000000000000000000000000000000000000000000000000000000000000000000000000000000000000000000000000000000000000000000000000000000000000000000000000000000000000000000000000000000000000000000000000000000000000000000000000000000000000000000000000000000000000000000000000000000000000000000000000000000000000000000000000000000000000000000000000000000000000000000000000000000000000000000000000000000000000000000000000000000000000000000000000000000000000000000000000000000000000000000000000000000000000000000000000000000000000000000000000000000000000000000000000000000000000000000000000000000000000000000000000000000000000000000000000000000000000000000000000000000000000000000000000000000000000000000000000000000000000000000000000000000000165500000000000000000000000000000000000000000000000000000000000000000000000000000000000000000000000000000000000000000000000000000000000000000000000000000000000000000000000000000000000000000000000000000000000000000000000000000000000000000000000000000000000000000000000000000000000000000000000000000000000000000000000000000000000000000000000000000000000000000000000000000000000000000000000000000000000000000000000000000000000000000000000000000000000000000000000000000000000000000000000000000000000000000000000000000000000000000000000000000000000000000000000000000000000000000000000000000000000000000000000000000000000000000000000000000000000000000000000000000000000000000000000000000000000000000000000000000000000000000000000000000000000000000000000000000000000000000000000000000000000000000000000000000000000000000000000000000000000000000000000000000000000000000000000000000000000000000000000000000000000000000000000000000000000000000000000000000000000000000000000000000000000000000000000000000000000000000000000000000000000000000000000000000000000000000000000000000000000000000000000000000000000000000000000000000000000000000000000000000000000000000000000000000000000000000000000000000000000000000000000000000000000000000000000000000000000000000000000000000000000000000000000000000000000000000000000000000000000000000000000000000000000000000000000000000000000000000000000000000000000000000000000000000000000000000000000000000000000000000000000000000000000000000000000000000000000000000000000000000000000000000000000000000000000000000000000000000000000000000000000000000000000000000000000000000000000000000000000000000000000000000000000000000000000000000000000000000000000000000000000000000000000000000000000000000000000000000000000000000000000000000000000000000000000000000000000000000000000000000000
#001321:5551555355515553555255545553555455000000000000000000000000000000555155535551555355525554555355545500000000000000000000000000000000000000000000000000000000000000000000000000000000000000555155525551555355525554555255535551555255535553555155525553555355000000
#002321:0000000000000000000000000000000000000000000000000000000055525554555155535551555355525554555155545551555255515554555255545553555455515552555155535551555355525554555355545553555455515554555255545553555455000000000000000000000000000000000000005553555155535552
#003321:5554555255535551555355525554555255545500000000000000000055535551555455515554555155545553550000000000000055535551555355515554555155545551555455525554555155545551555455525554555255545500000000000000000000000000000000000000000000000000000000005554555355545553
#004321:5554555255535551555355515553555155535552555355525553555255535552555455525554555355000000000000005554555355545553555455525554555255545552555455515553555155535551555355515554555255545552555355545500000000000000000000005551555255515552555255535553555455535554
#005321:550000000000000000000000000000510000000000000000000000000000550000000000000000000000000000520000000000000000000000000000550000000000000000000000000000510000000000000000000000000000550000000000000000000000000000520000000000000000000000000000550000000000000000000000000000510000000000000000000000000000550000000000000000000000000000520000000000000000000000000000550000000000000000000000000000530000000000000000000000000000550000000000000000000000000000540000000000000000000000000000550000000000000000000000000000510000000000000000000000000000550000000000000000000000000000510000000000000000000000000000550000000000000000000000000000510000000000000000000000000000550000000000000000000000000000510000000000000000000000000000550000000000000000000000000000520000000000000000000000000000550000000000000000000000000000540000000000000000000000000000550000000000000000000000000000520000000000000000000000000000550000000000000000000000000000540000000000000000000000000000550000000000000000000000000000520000000000000000000000000000550000000000000000000000000000540000000000000000000000000000550000000000000000000000000000510000000000000000000000000000550000000000000000000000000000540000000000000000000000000000550000000000000000000000000000520000000000000000000000000000550000000000000000000000000000540000000000000000000000000000550000000000000000000000000000520000000000000000000000000000550000000000000000000000000000540000000000000000000000000000550000000000000000000000000000520000000000000000000000000000550000000000000000000000000000540000000000000000000000000000550000000000000000000000000000530000000000000000000000000000550000000000000000000000000000540000000000000000000000000000550000000000000000000000000000520000000000000000000000000000550000000000000000000000000000540000000000000000000000000000550000000000000000000000000000540000000000000000000000000000550000000000000000000000000000540000000000000000000000000055260000000000000000000000000000000000000000000000000000000000000000000000000000000000000000000000000000000000000000000000000000000000000000000000000000000000000000000000000000000000000000000000000000000000000000000000000000000000000000000000000000000000000000000000000000000000000000000000000000000000000000000000000000000000000000000000000000000000000000000000000000000000000000000000000000000000000000000000000000000000000000000000000000000000000000000000000000000000000000000000000000000000000000000000000000000000000000000000000000000000000000000000000000000000000000000000000000000000000000000000000000000000000000000000000000000000000000000000000000000000000000000000000000000000000000000000000000000000000000000000000000000000000000000000000000000000000000000000000000000000000000000000000000000000000000000000000000000000000000000000000000000000000000000000000000000000000000000000000000000000000000000000000000000000000000000000000000000000000000000000000000000000000000000000000000000000000000000000000000000000000000000000000000000000000000000000000000000000000000000000000000000000000000000000000000000000000000000000000000000000000000000000000000000000000000000000000000000000000000000000000000000000000000000000000000000000000000000000000000000000000000000000000000000000000000000000000000000000000000000000000000000000000000000000000000000000000000000000000000000000000000000000000000000000000000000000000000000000000000000000000000000000000000000000000000000000000000000000000000000000000000000000000000000000000000000000000000000000000000000000000000000000000000000000000000000000000000000000000000000000000000000000000000000000000000000000000000000000000000000000000000000000000000000000000000000000000000000000000000000000000000000000000000000000000000000000000000000000000000000000000000000000000000000000000000000000000000000000000000000000000000000000000000000000000000000000000000000000000000000000
#0063b1:13
#006381:0023000000000000
#006381:00130000
#0063b1:0000002300000000
#0063b1:0000000013000023
#006371:00000000000000000000003300000000
#007381:00000000000000001333333300000000
#0073b1:0000000000000023
#008321:13
#008351:0023000000000000
#008351:00130000
#008321:0000002300000000
#008321:0000000013000023
#008361:00000000000000000000003300000000
#0093b1:0000000000000000000000000000000000000000133333333333333333333333
#009391:00000000000000000000000000000000000000000000000000000000000000000000000000000000005500000055000000550000005500000055000000550000
#009381:00000000000000000000000000000000000000000000000000000000000000000000000000000000000000560000005600000056000000560000005600000056
#0103b1:23
#009320:00000000000000000000000000000000000000000000000000000000000000000000000000000000135633553356335533563355335633553356335533563355
#010320:23
#0103b0:00000000000000000000001300000000
#010370:0000000000000023
#011360:00000000000000130000000000000000
#011320:0000000000230000
#012350:13330000
#012320:0033000000000000
#012380:00000000000033230000000000000000
#012381:13330000
#0123b1:0033000000000000
#012351:00000000000033230000000000000000
#0133a1:00000000000000000014000000000000
#013321:00000024
#014321:00000000000000000000001300000000
#014361:0000000000000023
#015321:0013
#015351:00000000000000000000002300000000
#0153b0:0013
#015380:00000000000000000000002300000000
#016380:0013
#0163b0:00000000000000000000002300000000
#017320:0000000000130000
#017350:00000023
#017381:00000013
#0173b1:0000000000000023
#017350:0000000000000013
#018380:23
#019380:00000000000000000000000000000000000000001656565626000000000000000000000000000000000000000000000000000000000000000000000000000000
#019370:0000000000000000000000000000000000000000000000000000000000000000000000000000000000560056005600560000000000000000000000000000000000000000000000000000000000000000000000000000000000000000000000000000000000000000000000000000000000000000000000000000000000000000
#019321:00000000000000000000000000000000000000000000000016565656260000000000000000000000000000000000000000000000000000000000000000000000
#019331:0000000000000000000000000000000000000000000000000000000000000000000000000000000000000000000000000056005600560056000000000000000000000000000000000000000000000000000000000000000000000000000000000000000000000000000000000000000000000000000000000000000000000000
#019380:00000000000000000000000000000000000000000000000000000000165656562600000000000000000000000000000000000000000000000000000000000000
#019370:0000000000000000000000000000000000000000000000000000000000000000000000000000000000000000000000000000000000000000005600560056005600000000000000000000000000000000000000000000000000000000000000000000000000000000000000000000000000000000000000000000000000000000
#022320:00000000000000000000001300000000
#022350:0000000000000023
#0223b1:00000000000000000000001300000000
#022381:0000000000000023
#0233b1:00000000000000000000001300000000
#023371:0000000000000023
#025361:00000000001200000000000000000000
#025341:00000000000054000053000000000000
#025351:00000000000000530000000000000000
#025331:00000000000000005500002200000000
#025321:0000000000540000
#025380:00000000001254535500000000000000
#025390:00000000000000000053000000000000
#0253a0:0000000000540000
#0253b0:00000000000000000000002200000000
#027360:00000000000000000000001400002400
#0273a0:0000000000000000000000000000000000000000000000000054000000000000
#028360:00000000000000000000001400002400
#028320:0000000000000000000000000000000000000000000000000054000000000000
#0293a0:00000000001400002400000000000000
#029360:0000000000000000000000000054000000000000000000000000000000000000
#029361:0014
#029321:00000000000000000000002400000000
#030371:0000001300000000
#030321:0023
#0303b0:0000001300000000
#030360:0023
#0303b0:00000013
#030380:00000000000000000000000000000023
#030351:00000000000000000000000000000013
#031321:0000000000000000000000000000005300000000000000000000000000000000
#032351:23
#032371:00000000001300000000000000000000
#032321:00000000000000230000000000000000
#032360:00000000000000130000000000000000
#0323b0:0000000000230000
#033320:00000000000000000000001300000000
#033360:0000000000000023
#033371:00000000000000000000001300000000
#0333b1:0000000000000023
#0343b1:00000000000000000000001300000000
#034371:0000000000000023
#034360:00000000000000000000001300000000
#034320:0000000000000023
#0353b0:13003300003333333300002300000000
#035320:00330000
#035361:14000000000000003400002400000000
#035321:0000000000000013
#036361:0033002300000000
#036321:00330000
#036321:00000000000000000013000000000000
#036381:00000023
#038321:00000000000000000000001400000000
#038361:0000000000000024
#039351:0013
#039321:00000000000000000000002300000000
#0393b0:00000000000000000000001300000000
#039380:0000000000000023
#0403b0:00000000000000000000001300002300
#040370:0000000000000000000000000000000000000000000000000053000000000000
#041350:0000001300000000
#041320:0023
#042320:0000142400000000
#042360:00000000000000000013000000000000
#042320:00000023
#043360:00130000
#043320:00000000000000230000000000000000
#043320:00000013
#043360:0000000000000053
#044320:23
#043371:00000013
#0433b1:0000000000000053
#044371:23
#046321:0012
#046361:00000000000000000000002200000000
#0463c0:0012
#046380:00000000000000000000002200000000
#047320:0000000000000000150000560000250000000000000000000000000000000000
#047330:0000000000000000000000000000000000000000000000000000000000000000000000005500000000550000000000550000000055000000000000000000000000000000000000000000000000000000000000000000000000000000000000000000000000000000000000000000000000000000000000000000000000000000
#047350:000000000000000000000000000000000000000000000000000000000000000000000000000000000000000000000000000000000000000000000000000000000000000000000000000000000000000000000000000000000000000000000000000000000000000000000000000000000000000000000000000000000000000000000000000000000000000000000000000000000000000000000000000000000000000000000000000000000000000000000000000000000000000000000000000000000000000000000000000000000000000000000000000000000000000000000000000000000000000000000000000000000000000000000000000000000000000000000000000000000000000000000000000000000000000000000000000000000000000000000000000000000000000000000000000000000000000000000000000000000000000000000000000000000000000000000000000000000000000000000000000000000000000000000000000000000000000000000000000000000000000000000000000000000000000000000000000000000000000000000000000000000000000000000000000000000000000000000000000000000000000000000000000000000000000000000000000000000000000000000000000000000000000000000000000000000000000000000000000000000000000000000000000000000000000000000000000000000000000000000000005300000000000000000000000000000000000000000000000000000000000000000000000000000000000000000000000000000000000000000000000000000000000000000000000053000000000000000000000000000000000000000000000000000000000000000000000000000000000000000000000000000000000000000000000000000000000000000000000000000000000000000000000000000000000000005300000000000000000000000000000000000000000000000000000000000000000000000000000000000000000000000000000000000000000000000000000000000000000000000053000000000000000000000000000000000000000000000000000000000000000000000000000000000000000000000000000000000000000000000000000000000000000000000000000000000000000000000000000000000000000000000000000000000000000000000000000000000000000000000000000000000000000000000000000000000000000000000000000000000000000000000000000000000000000000000000000000000000000000000000000000000000000000000000000000000000000000000000000000000000000000000000000000000000000000000000000000000000000000000000000000000000000000000000000000000000000000000000000000000000000000000000000000000000000000000000000000000000000000000000000000000000000000000000000000000000000000000000000000000000000000000000000000000000000000000000000000000000000000000000000000000000000000000000000000000000000000000000000000000000000000000000000000000000000000000000000000000000000000000000000000000000000000000000000000000000000000000000000000000000000000000000000000000000000000000000000000000000000000000000000000000000000000000000000000000000000000000000000000000000000000000000000000000000000000000000000000000000000000000000000000000000000000000000000000000000000000000000000000000000000000000000000000000000000000000000000000000000000000000000000000000000000000000000000000000000000000000000000000000000000000000000000000000000000000000000000000000000000000000000000000000000000000000000000000000000000000000000000000000000000000000000000000000000000000000000000000000000000000000000000000000000000000000000000000000000000000000000000000000000000000000000000000000000000000000000000000000000000000000000000000000000000000000000000000000000000000000000000000000000000000000000000000000000000000000000000000000000000000000000000000000000000000000000000000000000000000000000000000000000000000000000000000000000000000000000000000000000000000000000000000000000000000000000000000000000000000000000000000000000000000000000000000000000000000000000000000000000000000000000000000000000000000000000000000000000000000000000000000000000000000000000000000000000000000000000000000000000000000000000000000000000000000000000000000000000000000000000000000000000000000000000000000000000000000000000000000000000000000000000000000000000000000000000000000000000000000000000000000000000000000000000000000000000000000000000000000000000000000000000
#047381:00000000000000000000000000000000150000000000005600005600000000000000000000000000000000000000000000000000000000000000000000000000
#047391:00000000000000000000000000000000000055000055000000000000240000000000000000000000000000000000000000000000000000000000000000000000
#0473b1:000000000000000000000000000000000000000000000000000000000000000000000000000000000000000000000000000000000000000000000000000000000000000000000000000000000000000000000000000000000000000000000000000000000000000000000000000000000000000000000000000000000000000000000000000000000000000000000000000000000000000000000000000000000000000000000000000000000000000000000000000000000000000000000000000000000000000000000000000000000000000000000000000000000000000000000000000000000000000000000000000000000000000000000000000000000000000000000000000000000000000000000000000000000000000000000000000000000000000000000000000000000000000000000000000000000000000000000000000000000000000000000000000000000000000000000000000000000000000000000000000000000000000000000000000000000000000000000000000000000000000000000000000000000000000000000000000000000000000000000000000000000000000000000000000000000000000000000000000000000000000000000000000000000000000000000000000000000000000000000000000000000000000000000000000000000000000000000000000000000000000000000000000000000000000000000000000000000000000000000000005300000000000000000000000000000000000000000000000000000000000000000000000000000000000000000000000000000000000000000000000000000000000000000000000000000000000000000000000000000053000000000000000000000000000000000000000000000000000000000000000000000000000000000000000000000000000000000000000000000000000000000000000000000000000000000000000000000000000000000000000000000000000000000000000000000000000000000000000000000000000000000000000000000000000000000000000000000000000000000000000000000000000000000000000000000000000000000000000000000000000000000000000000000000000000000000000000000000000000000000000000000000000000000000000000000000000000000000000000000000000000000000000000000000000000000000000000000000000000000000000000000000000000000000000000000000000000000000000000000000000000000000000000000000000000000000000000000000000000000000000000000000000000000000000000000000000000000000000000000000000000000000000000000000000000000000000000000000000000000000000000000000000000000000000000000000000000000000000000000000000000000000000000000000000000000000000000000000000000000000000000000000000000000000000000000000000000000000000000000000000000000000000000000000000000000000000000000000000000000000000000000000000000000000000000000000000000000000000000000000000000000000000000000000000000000000000000000000000000000000000000000000000000000000000000000000000000000000000000000000000000000000000000000000000000000000000000000000000000000000000000000000000000000000000000000000000000000000000000000000000000000000000000000000000000000000000000000000000000000000000000000000000000000000000000000000000000000000000000000000000000000000000000000000000000000000000000000000000000000000000000000000000000000000000000000000000000000000000000000000000000000000000000000000000000000000000000000000000000000000000000000000000000000000000000000000000000000000000000000000000000000000000000000000000000000000000000000000000000000000000000000000000000000000000000000000000000000000000000000000000000000000000000000000000000000000000000000000000000000000000000000000000000000000000000000000000000000000000000000000000000000000000000000000000000000000000000000000000000000000000000000000000000000000000000000000000000000000000000000000000000000000000000000000000000000000000000000000000000000000000000000000000000000000000000000000000000000000000000000000000000000000000000000000000000000000000000000000000000000000000000000000000000000000000000000000000000000000000000000000000000000000000000000000000000000000000000000000000000000000000000000000000000000000000000000000000000000000000000000000000000000000000000000000000000000000000000000000000000000000000000000000000000000000000000000000000000000000000000000000000000000000000000000000000000000000000000000000000000000000
#0483b1:000000000000132300000000
#048381:000000000000000000000000000000130023000000000000
#049361:13
#049321:0023000000000000
#049321:000000000013000000000000000000000000000000000000
#049361:002300
#049371:000000000000000000000013000000000000000000000000
#0493b1:0000000000230000
#050321:000000000000132300000000
#050351:000000000000000000000000000000130023000000000000
#051371:000000000000000000000013000000000000000000000000
#0513b1:00000023
#051320:0013
#051360:00000023
#0533b0:13
#053370:0023000000000000
#053360:000000000013000000000000000000000000000000000000
#053320:002300
#055320:132300000000000000000000
#0553b0:000000000000000000000013000023000000000000000000
#056320:130000000000000000000000000000000000000000000000000000000000000000000000000000000000000000000000000000000000000000000000000000000000000000000000000000000000000000000000000000000000000000000000000000000000000000000000000000000000000000000055530000000000000000000000000000000000000000000000000000000000000000000000000000000000000000000000000000000000000000000000000000000000000000000000000000000000000000000000000000000000000000000000000000000000000000000000000000000000000000000000230000000000000000000000000000000000000000000000000000000000000000000000000000000000000000000000000000000000000000000000000000000000000000000000000000000000000000000000000000000000000000000000000000000000000000000000000000000000000000000000000000000000000000000000000000000000000000000000000000000000000000000000000000000000000000000000000000000000000000000000000000000000000000000000000000000000000000000000000000000000000000000000000000000000000000000000000000000000000000000000000000000000000000000000000000000000000000000000000000000000000000000000000000000000000000000000000000000000000000000000000000000000000000000000000000000000000000000000000000000000000000000000000000000000000000000000000000000000000000000000000000000000000000000000000000000000000000000000000000000000000000000000000000000000000000000000000000000000000000000000000000000000000000000000000000000000000000000000000000000000000000000000000000000000000000000000000000000000000000000000000000000000000000000000000000000000000000000000000000000000000000000000000000000000000000000000000000000000000000000000000000000000000000000000000000000000000000000000000000000000000000000000000000000000000000000000000000000000000000000000000000000000000000000000000000000000000000000000000000000000000000000000000000000000000000000000000000000000000000000000000000000000000000000000000000000000000000000000000000000000000000000000000000000000000000000000000000000000000000000000000000000000000000000000000000000000000000000000000000000000000000000000000000000000000000000000000000000000000000000000000000000000000000000000000000000000000000000000000000000000000000000000000000000000000000000000000000000000000000000000000000000000000000000000000000000000000000000000000000000000000000000000000000000000000000000000000000000000000000000000000000000000000000000000000000000000000000000000000000000000000000000000000000000000000000000000000000000000000000000000000000000000000000000000000000000000000000000000000000000000000000000000000000000000000000000000000000000000000000000000000000000000000000000000000000000000000000000000000000000000000000000000000000000000000000000000000000000000000000000000000000000000000000000000000000000000000000000000000000000000000000000000000000000000000000000000000000000000000000000000000000000000000000000000000000000000000000000000000000000000000000000000000000000000000000000000000000000000000000000000000000000000000000000000000000000000000000000000000000000000000000000000000000000000000000000000000000000000000000000000000000000000000000000000000000000000000000000000000000000000000000000000000000000000000000000000000000000000000000000000000000000000000000000000000000000000000000000000000000000000000000000000000000000000000000000000000000000000000000000000000000000000000000000000000000000000000000000000000000000000000000000000000000000000000000000000000000000000000000000000000000000000000000000000000000000000000000000000000000000000000000000000000000000000000000000000000000000000000000000000000000000000000000000000000000000000000000000000000000000000000000000000000000000000000000000000000000000000000000000000000000000000000000000000000000000000000000000000000000000000000000000000000000000000000000000000000000000000000000000000000000000000000000000000000000000000000000000000000000000000000000000000000000000000000000000000000000000000000000000000
#056391:13532300000000000000000000000000
#056371:000000000000000000000000000000000000000000000000000000000000000000000000000000000000000000000000000000000000000000000000000000000000000000000000000000000000000000000000000000000000000000000000000000000000000000000000000000000000000000000055000000000000000000000000000000000000000000000000000000000000000000000000000000000000000000000000000000000000000000000000000000000000000000000000000000000000000000000000000000000000000000000000000000000000000000000000000000000000000000000000000000000000000000000000000000000000000000000000000000000000000000000000000000000000000000000000000000000000000000000000000000000000000000000000000000000000000000000000000000000000000000000000000000000000000000000000000000000000000000000000000000000000000000000000000000000000000000000000000000000000000000000000000000000000000000000000000000000000000000000000000000000000000000000000000000000000000000000000000000000000000000000000000000000000000000000000000000000000000000000000000000000000000000000000000000000000000000000000000000000000000000000000000000000000000000000000000000000000000000000000000000000000000000000000000000000000000000000000000000000000000000000000000000000000000000000000000000000000000000000000000000000000000000000000000000000000000000000000000000000000000000000000000000000000000000000000000000000000000000000000000000000000000000000000000000000000000000000000000000000000000000000000000000000000000000000000000000000000000000000000000000000000000000000000000000000000000000000000000000000000000000000000000000000000000000000000000000000000000000000000000000000000000000000000000000000000000000000000000000000000000000000000000000000000000000000000000000000000000000000000000000000000000000000000000000000000000000000000000000000000000000000000000000000000000000000000000000000000000000000000000000000000000000000000000000000000000000000000000000000000000000000000000000000000000000000000000000000000000000000000000000000000000000000000000000000000000000000000000000000000000000000000000000000000000000000000000000000000000000000000000000000000000000000000000000000000000000000000000000000000000000000000000000000000000000000000000000000000000000000000000000000000000000000000000000000000000000000000000000000000000000000000000000000000000000000000000000000000000000000000000000000000000000000000000000000000000000000000000000000000000000000000000000000000000000000000000000000000000000000000000000000000000000000000000000000000000000000000000000000000000000000000000000000000000000000000000000000000000000000000000000000000000000000000000000000000000000000000000000000000000000000000000000000000000000000000000000000000000000000000000000000000000000000000000000000000000000000000000000000000000000000000000000000000000000000000000000000000000000000000000000000000000000000000000000000000000000000000000000000000000000000000000000000000000000000000000000000000000000000000000000000000000000000000000000000000000000000000000000000000000000000000000000000000000000000000000000000000000000000000000000000000000000000000000000000000000000000000000000000000000000000000000000000000000000000000000000000000000000000000000000000000000000000000000000000000000000000000000000000000000000000000000000000000000000000000000000000000000000000000000000000000000000000000000000000000000000000000000000000000000000000000000000000000000000000000000000000000000000000000000000000000000000000000000000000000000000000000000000000000000000000000000000000000000000000000000000000000000000000000000000000000000000000000000000000000000000000000000000000000000000000000000000000000000000000000000000000000000000000000000000000000000000000000000000000000000000000000000000000000000000000000000000000000000000000000000000000000000000000000000000000000000000000000000000000000000000000000000000000000000000000000000000000000000000000000000000000000000000000000
#056351:0000132300000000
#0563b0:00130000
#056380:0000000000000000000053562300000000000000000000000000000000000000
#056390:00000000000000000000000000000000000000000000000000000000000000001200550000000000000000550000005500000000000000000000000000000000
#0563c0:000000000000000000000000000000000000000000000000000000000000000000000000000000000000000000000000000000000000000000000000000000000000000000000000000000000000000000000000000000000000000000000000000000000000000000000000000000000000000000000000000000000000000000000000000000000000000000000000000000000000000000000000000000000000000000000000000000000000000000000000000000000000000000000000000000000000000000000000000000000000000000000000000000000000000000000000000000000000000000000000000000000000000000000000000000000000000000000000000000000000000000000000000000000000000000000000000000000000000000000000000000000000000000000000000000000000000000000000000000000000000000000000000000000000000000000000000000000000000000000000000000000000000000000000000000000000000000000000000000000000000000000000000000000000000000000000000000000000000000000000000000000000000000000000000000000000000000000000000000000000000000000000000000000000000000000000000000000000000000000000000000000000000000000000000000000000000000000000000000000000000000000000000000000000000000000000000000000000000000000000000000000000000000000000000000000000000000000000000000000000000000000000000000000000000000000000000000000000000000000000000000000000000000000000000000000000000000000000000000000000000000000000000000000000000000000000000000000000000000000000000000000000000000000000000000000000000000000000000000000000000000000000000000000000000000000000000000000000000000000000000000000000000000000000000000000000000000000000000000000000000000000000000000000000000000000000000000000000000000000000000000000000000000000000000000000000000000000000000000000000000000000000000000000000000000000000000000000000000000000000000000000000000000000000000000000000000000000000000000000000000000000000000000000000000000000000000000000000000000000000000000000000000000000000000000000000000000000000000000000000000000000000000000000000000000000000000000000000000000000000000000000000000000000000000000000000000000000000000000000000000000000000000000000000000000000000000000000000000000000000000000000000000000000000000000000000000000000000000000000000000000000000000000000000000000000000000000000000000000000000520000000000000000000000000000000000000000000000000000000000000000000000000000000000000000000000000000000000000000000000000000000000000000000000000000000000000000000000000000000000000000000000000000000000000000000000000000000000000000000000000000000000000000000000000000000000000000000000000000000000000000000000000000000000000000000000000000000000000000000000000000000000000000000000000000000000000000000000000000000052000000000000000000000000000000000000000000520000000000000000000000000000000000000000000000000000000000000000000000000000000000000000000000000000000000000000000000000000000000000000000000000000000000000000000000000000000000000000000000000052000000000000000000000000000000000000000000000000000000000000000000000000000000000000000000000000000000000000000000000000000000000000000000000000000000000000000000000000000000000000000000000000000000000000000000000000000000000000000000000000000000000000000000000000000000000000000000000000000000000000000000000000000000000000000000000000000000000000000000000000000000000000000000000000000000000000000000000000000000000000000000000000000000000000000000000000000000000000000000000000000000000000000000000000000000000000000000000000000000000000000000000000000000000000000000000000000000000000000000000000000000000000000000000000000000000000000000000000000000000000000000000000000000000000000000000000000000000000000000000000000000000000000000000000000000000000000000000000000000000000000000000000000000000000000000000000000000000000000000000000000000000000000000000000000000000000000000000000000000000000000000000000000000000000000000000000000000000000000000000000000000000000000000000000000000000000000000000000000000000000
#0563a0:000000000000000000000000000000000000000000000000000000000000000000000000000000000000000000000000000000000000000000000000000000000000000000000000000000000000000000000000000000000000000000000000000000000000000000000000000000000000000000000000000000000000000000000054000000000000000000000000240000000000000000000000000000000000000000000000000000000000000000000000000000000000000000000000
#056321:0000000000000000000000000000000012550000000000000000000000000000
#056351:000000000000000000000000000000000000000000000000000000000000000000000000000000000000000000000000000000000000000000000000000000000000000000000000000000000000000000000000000000000000000000000000000000000000000000000000000000000000000000000000000000000000000000000000000000000000000000000000000000000000000000000000000000000000000000000000000000000000000000000000000000000000000000000000000000000000000000000000000000000000000000000000000000000000000000000000000000000000000000000000000000000000000000000000000000000000000000000000000000000000000000000000000000000000000000000000000000000000000000000000000000000000000000000000000000000000000000000000000000000000000000000000000000000000000000000000000000000000000000000000000000000000000000000000000000000000000000000000000000000000000000000000000000000000000000000000000000000000000000000000000000000000000000000000000000000000000000000000000000000000000000000000000000000000000000000000000000000000000000000000000000000000000000000000000000000000000000000000000000000000000000000000000000000000000000000000000000000000000000000000000000000000000000000000000000000000000000000000000000000000000000000000000000000000000000000000000000000000000000000000000000000000000000000000000000000000000000000000000000000000000000000000000000000000000000000000000000000000000000000000000000000000000000000000000000000000000000000000000000000000000000000000000000000000000000000000000000000000000000000000000000000000000000000000000000000000000000000000000000000000000000000000000000000000000000000000000000000000000000000000000000000000000000000000000000000000000000000000000000000000000000000000000000000000000000000000000000000000000000000000000000000000000000000000000000000000000000000000000000000000000000000000000000000000000000000000000000000000000000000000000000000000000000000000000000000000000000000000000000000000000000000000000000000000000000000000000000000000000000000000000000000000000000000000000000000000000000000000000000000000000000000000000000000000000000000000000000000000000000000000000000000000000000000000000000000000000000000000000000000000000000000000000000000000000000000000000000000000000000000000520000000000000000000000000000000000000000000000000000000000000000000000000000000000000000000000000000000000000000000000000000000000000000000000000000000000000000000000000000000000000000000000000000000000000000000000000000000000000000000000000000000000000000000000000000000000000000000000000000000000000000000000000000000000000000000000000000000000000000000000000000000000000000000000000000000000000000000000000000000052540000000000000000000000000000000000000055520000000000000000000000000000000000000000000000000000000000000000000000000000000000000000000000000000000000000000000000000000000000000000000000000000000000000000000000000000000000000000000000000052540000000000000000000000000000000000000000000000000000000000250000000000000000000000000000000000000000000000000000000000000000000000000000000000000000000000000000000000000000000000000000000000000000000000000000000000000000000000000000000000000000000000000000000000000000000000000000000000000000000000000000000000000000000000000000000000000000000000000000000000000000000000000000000000000000000000000000000000000000000000000000000000000000000000000000000000000000000000000000000000000000000000000000000000000000000000000000000000000000000000000000000000000000000000000000000000000000000000000000000000000000000000000000000000000000000000000000000000000000000000000000000000000000000000000000000000000000000000000000000000000000000000000000000000000000000000000000000000000000000000000000000000000000000000000000000000000000000000000000000000000000000000000000000000000000000000000000000000000000000000000000000000000000000000000000000000000000000000000000000000000000000000000000000000000000000000000000000000000000000000
#062381:00000000000000000000000000160026
#062320:00000000000000000000000000160026
#063380:1626000000000000
#063321:1626000000000000
#063321:00000000001424000000000000000000
#063380:00000000000014240000000000000000
#063341:00000000000000142400000000000000
#063321:00000013
#063351:00000000000000000000000000000023
#063380:00000000000000000000000000000013
#0643b0:0000000000000000000000000000005300000000000000000000000000000000
#065380:23
#0663b0:00000000000000000000001300000000
#066370:0000000000005323
#066361:00000000000000000000001300000000
#066321:0000000000005323
#067321:00000000000000000000001300000000
#067361:0000000000005323
#067370:00000000000000000000001300000000
#0673b0:0000000000005323
#068320:13003300003333333300002300000000
#0683b0:00330000
#068361:14000000000000003400002400000000
#0683b1:0000000000000013
#069371:0033002300000000
#0693b1:00330000
#0693b1:00000000000000000013000000000000
#069351:00000023
#0703b1:00000000000000000000001300000000
#070371:0000000000000023
#071321:00000000000000000000001300000000
#071361:0000000000000023
#072381:0013
#0723b1:00000000000000000000002300000000
#072320:00000000000000000000001300000000
#072350:0000000000000023
#073320:00000000000000000000001300002300
#073360:0000000000000000000000000000000000000000000000000053000000000000
#074380:0000001300000000
#0743b0:0023
#0753a0:0000142400000000
#075370:00000000000000000013000000000000
#0753b0:00000023
#076370:00130000
#0763b0:00000000000000230000000000000000
#0763b0:00000013
#076370:0000000000000053
#0773b0:23
#076361:00000013
#076321:0000000000000053
#077361:23
#077351:0000000013000023
#077321:00000000000000000000003300000000
#078351:00000000000000001333330000000000
#078321:00000000000000000000003300002300
#078361:0000000000000000000000000000000000000000000000000053000000000000
#079381:0000000013000023
#0793b1:00000000000000000000003300000000
#080341:00000012002200000000000000000000
