This file was generated by Ched 2.7.0.0.
#TITLE ""
#ARTIST ""
#DESIGNER ""
#DIFFICULTY 0
#PLAYLEVEL
#SONGID ""
#WAVE ""
#WAVEOFFSET 0
#JACKET ""
#REQUEST "ticks_per_beat 480"
#00002: 4
#BPM01: 128
#00008: 01
#TIL00: ""
#VOLUME: ""
#HISPEED 00
#MEASUREHS 00
#00612:14
#00618:00140000
#00614:0014
#0061a:00000014
#00712:14
#00718:00140000
#0081a:14
#00814:00140000
#00818:0014
#00812:00000014
#01012:1414
#01018:00140000
#01010:41
#0111a:1414
#01114:00140000
#01212:1414
#01218:00140014
#0141a:1414
#01414:00140000
#01512:1414
#01518:00140000
#0161a:1414
#01614:00140014
#02212:14
#02218:00140000
#02214:0014
#0221a:00000014
#0261a:14
#02614:00140000
#02712:14140000
#02718:00001414
#02710:41
#02814:14140000
#0281a:00001414
#0301a:14
#03014:00140000
#03018:0014
#03012:00000014
#0311a:14
#03118:00343400
#03314:0000140000140000
#03318:00001414
#0331a:24
#03412:14
#03418:0000140000140000
#03414:00001414
#0351a:1414
#03514:00140000
#03510:41
#03612:14
#03618:00140000
#03614:0014
#0361a:00000014
#03718:0000140000140000
#03714:00001414
#03712:24
#0381a:14
#03814:0000140000140000
#03818:00001414
#03912:14
#03918:00140000
#03914:0014
#0391a:00000014
#04012:14
#04019:00000000000000000034000000000000
#04112:14140000
#04118:00001414
#04214:14140000
#0421a:00001414
#04312:14
#04318:00140000
#04314:0014
#0431a:00000014
#04412:14
#0451a:14
#04614:14
#0481a:1414
#04814:00140014
#04810:41
#04918:1414
#04912:00140014
#0501a:1414
#05014:00140014
#05118:14
#05112:00140000
#05212:1414
#05218:00140014
#05314:1414
#0531a:00140014
#05412:1414
#05418:00140014
#05514:14
#0551a:00140000
#05715:13131300
#05718:0013001300000000
#06213:14
#06219:0014
#06618:0000140000140000
#06614:00001414
#06612:24
#0661f:21
#0671a:14
#06714:0000140000140000
#06718:00001414
#06710:41
#06812:1414
#06818:00140000
#0691a:14
#06914:00140000
#06918:0014
#06912:00000014
#07014:0000140000140000
#07018:00001414
#0701a:24
#07112:14
#07118:0000140000140000
#07114:00001414
#0721a:14
#07214:00140000
#07218:0014
#07212:00000014
#0731a:14
#07313:00000000000000000034000000000000
#0741a:14140000
#07414:00001414
#07518:14140000
#07512:00001414
#0761a:14
#07614:00140000
#07618:0014
#07612:00000014
#0771a:14
#07714:00140000
#07812:14
#07818:00140000
#07918:14
#07914:00140000
#0581f:11
#01919:2424000000000000
#01910:41
#02013:2424000000000000
#02119:2424000000000000
#02313:2424000000000000
#02419:2424000000000000
#02513:2424000000000000
#03213:0000000000240000
#06113:24
#06119:0024
#06518:24240000
#06514:0024002400000000
#0651a:0000000000240000
#08014:00000024
#08012:00000034000034000000000000000000
#0021a:00000000340000003400003400003400
#00318:00340034340034003434343400003400
#0041a:00000000340000003400003400003400
#00918:00000034000034000000000000000000
#01314:00000034000034000000000000000000
#00558:00000014
#00958:0000000000140000
#01354:00000014
#02953:00000000000000000000001400000000
#0315a:54
#03253:0000000000140000
#04452:54
#0455a:64
#04654:64
#04752:0000000000140000
#0475a:0000000000140000
#05659:0014
#06253:14
#06259:0014
#0655a:0000000000140000
#08054:00000014
#0023a0:14000000340000003400003400003400
#003380:54340034340034003434343400003400
#0043a0:34000000340000003400003400003400
#005380:3434343434342400
#007340:00001424
#0093a0:14
#009380:00000034000034003400240000000000
#013320:14
#013340:00000034000034000034000024000000
#0173a0:14240000
#017340:00001424
#018380:14240000
#018320:00001424
#0263a0:00001424
#029330:14003400003400343400002400000000
#0313a0:14
#031380:00343424
#032330:14003400343400340000240000000000
#0403a0:00000000000000140000000000000000
#040390:00000000000000000034000000000000
#040380:00000000000000000000003400002400
#044320:14
#044340:0024
#0453a0:14
#045380:0024
#046340:14
#046320:0024
#047320:14003400343434340000240000000000
#0473a1:14003400343434340000240000000000
#051381:00001424
#055341:00001424
#056391:1434343424000000
#0583a1:1434
#058381:00340024
#059321:1434
#059341:00340024
#060381:1434
#0603a1:00340024
#063331:14000000000000003400000000000034
#064331:00000024
#073321:00000000000000140000000000000000
#073331:00000000000000000034000000000000
#073341:00000000000000000000003400002400
#077381:00001424
#078341:00001424
#0793a1:00001424
#080321:14000034000034000000000000000000
#080341:00003424
