This file was generated by Ched 2.7.0.0.
#TITLE ""
#ARTIST ""
#DESIGNER ""
#DIFFICULTY 0
#PLAYLEVEL
#SONGID ""
#WAVE ""
#WAVEOFFSET 0
#JACKET ""
#REQUEST "ticks_per_beat 480"
#00002: 4
#BPM01: 170
#00008: 01
#TIL00: ""
#VOLUME: ""
#HISPEED 00
#MEASUREHS 00
#00018:14
#00014:0014
#0021a:14
#00412:14
#00312:14
#03218:0016
#03312:2616
#03310:41
#03418:1616
#03512:16
#03518:0016
#03612:16
#03618:0016
#04018:0016
#04012:16
#06718:14
#06814:14
#07118:14
#06918:14
#07014:14
#0011a:14
#00618:14
#00814:14
#00714:14
#00518:14
#01812:14
#02014:14
#01918:14
#0171a:14
#02212:14
#02414:14
#02318:14
#0211a:14
#02110:41
#03712:1616
#03818:1616
#03912:16
#03918:0016
#04112:2616
#04218:1616
#04312:16
#04318:0016
#04412:16
#04418:0016
#04618:1616
#04512:1616
#04712:16
#04718:0016
#07618:0016
#07818:0016
#07812:16
#07810:41
#07912:16
#07918:0016
#08012:16
#08018:0016
#07718:0016
#07712:26
#0771f:21
#0881a:14
#08912:14
#0901a:14
#09114:14
#09218:14
#09314:14
#09418:14
#0651f:11
#08512:26
#05019:34
#0511a:34
#05413:34
#05512:34
#00910:41
#06110:41
#04910:41
#009380:14
#010380:24
#011320:14
#012320:24
#0133a0:14
#0143a0:24
#015340:14
#016340:24
#0253a0:14
#0263a0:24
#027340:14
#028340:24
#029380:14
#030380:24
#031320:14
#032320:24
#048320:1626
#049380:14
#050390:34
#0513a0:34
#0523a0:24
#053340:14
#054330:34
#055320:34
#056320:24
#057380:14
#058380:24
#059340:14
#060340:24
#0613a0:14
#0623a0:24
#063320:1434
#064320:3434
#065320:34
#066340:24
#072340:14
#073320:28
#081320:1626
#082380:1626
#083320:1626
#084380:1626
#085320:16
#086320:00000036
#087320:26
#095320:16
#097320:24
